<?xml version="1.0" standalone="no"?>
<!DOCTYPE svg PUBLIC "-//W3C//DTD SVG 1.1//EN" "http://www.w3.org/Graphics/SVG/1.1/DTD/svg11.dtd" >
<svg xmlns="http://www.w3.org/2000/svg">
<metadata></metadata>
<defs>
<font id="junicodeitalic" horiz-adv-x="956" >
<font-face units-per-em="2048" ascent="1638" descent="-410" />
<missing-glyph horiz-adv-x="559" />
<glyph unicode="&#x2e;&#x2e;&#x2e;" horiz-adv-x="2048" d="M72 92q0 43 32 81t92 38t89.5 -38.5t29.5 -87t-33.5 -79.5t-90.5 -31t-88 37t-31 80zM768 92q0 43 32 81t92 38t89.5 -38.5t29.5 -87t-33.5 -79.5t-90.5 -31t-88 37t-31 80zM1455 92q0 43 32 81t92 38t89.5 -38.5t29.5 -87t-33.5 -79.5t-90.5 -31t-88 37t-31 80z" />
<glyph unicode="&#xfb01;" horiz-adv-x="932" d="M-305 -446q0 31 20 55t43 24q62 0 88 -50t64 -50t81 55.5t54 114.5l202 1044h-182q-7 0 -7 15t11 39t23 24h170q41 205 89 345t151 217t241 77q82 0 135.5 -45.5t53.5 -120.5q0 -96 -66 -96q-24 0 -49.5 18t-25.5 54q0 121 -102 121t-163.5 -99t-84 -192t-57.5 -279h326 q52 0 101 13.5t53 13.5q12 0 12 -8q0 -6 -2 -13l-178 -628q-10 -35 -10 -67q0 -34 33.5 -34t128.5 95q2 2 7.5 2t19.5 -13.5t14 -20.5t-2 -9q-42 -51 -128 -117t-161 -66q-54 0 -54 87q0 36 11 77l123 434q20 71 20 99q0 77 -63 77h-267l-167 -858q-18 -93 -56.5 -203.5 t-114 -173.5t-184.5 -63q-64 0 -107.5 36.5t-43.5 68.5z" />
<glyph unicode="&#xfb02;" horiz-adv-x="926" d="M-303 -446q0 31 19 55t44 24q62 0 88 -50t64 -50q37 0 80 53.5t55 116.5l205 1060h-185q-7 0 -7 14.5t11 39.5t23 25h173q21 109 64.5 268t146.5 256.5t265 97.5q55 0 97 -18q29 7 74.5 24t54 17t8.5 -11l-289 -1267q-7 -31 -7 -63q0 -33 28 -33q49 0 131 94 q10 13 28.5 -8.5t12.5 -28.5q-178 -197 -277 -197q-60 0 -60 99q0 32 7 63l143 628h-322l-169 -874q-17 -86 -58.5 -205t-123.5 -177t-173 -58q-64 0 -107.5 36.5t-43.5 68.5zM387 842h325l83 358q8 37 8 67q0 128 -117 128q-96 0 -157 -94.5t-84 -186.5t-58 -272z" />
<glyph unicode="&#xfb03;" horiz-adv-x="1397" d="M-305 -446q0 31 20 55t43 24q58 0 86 -50t66 -50t81 55q42 55 54 115l202 1044h-184q-7 0 -7 15t11 39t23 24h172q66 335 146 449q118 168 333 168q54 0 106 -26t75 -70q112 118 288 118q83 0 137 -47t54 -119q0 -96 -68 -96q-25 0 -50.5 18t-25.5 54q0 121 -103 121 q-177 0 -251 -318q-7 -30 -51 -252h321q50 0 100 13.5t61 13.5q6 0 6 -11l-5 -13q-16 -59 -62 -225l-112 -400q-11 -39 -11 -61q0 -40 32 -40q36 0 131 95q2 2 9 2t20 -13t13 -20t-1 -8q-34 -46 -124 -115.5t-167 -69.5q-54 0 -54 87q0 38 11 77l123 434q20 71 20 105 q0 71 -65 71h-261l-163 -829q-19 -99 -65.5 -224t-133.5 -170.5t-153 -45.5t-110 37t-44 69q0 33 19 55.5t44 22.5q59 0 86.5 -50t73.5 -50q28 0 72 56t55 114l198 1015h-348l-167 -858q-20 -104 -66.5 -222t-119.5 -168t-169 -50q-64 0 -107.5 36.5t-43.5 68.5zM383 825 h348q60 303 119 426q-41 125 -154 125q-185 0 -265 -313q-8 -33 -48 -238z" />
<glyph unicode="&#xfb04;" horiz-adv-x="1393" d="M-305 -446q0 31 20 55t43 24q61 0 87.5 -50t64.5 -50t81 55.5t54 114.5l204 1060h-182q-7 0 -7 15.5t11 39.5t23 24h171q62 320 143 432q118 168 333 168q54 0 106 -26t75 -70q112 118 288 118q52 0 93 -19q27 8 72 25t56.5 17t11.5 -14l-288 -1264q-7 -28 -7 -47 q0 -49 26 -49q50 0 133 94q3 3 10 3t20 -12.5t13 -19t-2 -8.5q-176 -197 -277 -197q-60 0 -60 107q0 27 7 55l143 628h-322l-165 -845q-19 -100 -64.5 -219.5t-127.5 -170t-160 -50.5q-66 0 -110 37t-44 69q0 33 19 55.5t44 22.5q62 0 88 -50t72 -50q28 0 72.5 57t54.5 113 l200 1031h-348l-169 -874q-19 -103 -64.5 -219.5t-118 -168.5t-172.5 -52q-64 0 -107.5 36.5t-43.5 68.5zM385 842h349q56 286 116 409q-41 125 -154 125q-182 0 -264 -307q-14 -59 -47 -227zM854 842h324l84 358q8 40 8 70q0 125 -119 125q-170 0 -249 -320 q-10 -38 -48 -233z" />
<glyph horiz-adv-x="0" />
<glyph unicode="&#xd;" horiz-adv-x="682" />
<glyph unicode=" "  horiz-adv-x="559" />
<glyph unicode="&#x09;" horiz-adv-x="559" />
<glyph unicode="&#xa0;" horiz-adv-x="559" />
<glyph unicode="!" horiz-adv-x="520" d="M72 82.5q0 50.5 31 89.5t87 39t91.5 -34.5t35.5 -86.5t-34.5 -83.5t-81.5 -31.5t-88 28.5t-41 79zM257 432l185 854q9 38 47.5 75.5t81.5 37.5q79 0 79 -70q0 -27 -9 -51l-317 -842q-6 -17 -36.5 -17t-30.5 13z" />
<glyph unicode="&#x22;" horiz-adv-x="758" d="M358 944q13 55 39 242q25 187 31 209q24 86 121 86q74 0 74 -54q0 -19 -5 -30q-70 -157 -190 -453h-70zM686 944q13 55 39 242q25 187 31 209q24 86 110 86q85 0 85 -54q0 -12 -5 -30q-80 -174 -192 -453h-68z" />
<glyph unicode="#" horiz-adv-x="1024" d="M186 401l43 99h217l136 336h-224l48 100h217l143 354h96l-145 -354h231l142 354h98l-146 -354h205l-41 -100h-205l-139 -336h201l-43 -99h-195l-161 -395h-89l158 395h-233l-162 -395h-86l158 395h-224zM537 500h233l137 336h-231z" />
<glyph unicode="$" horiz-adv-x="926" d="M60 88q0 154 32 269q6 19 37.5 19t28.5 -16q-6 -34 -6 -53q0 -198 206 -236l155 534q-149 70 -197.5 130t-48.5 152q0 173 137 295t314 130l50 171q5 15 43.5 15t34.5 -15l-50 -173q31 0 114.5 -17.5t99.5 -17.5q-3 -104 -34 -246q-4 -18 -35 -18t-31 16l-1 56 q-2 131 -133 160l-141 -487q134 -50 188 -109.5t54 -156.5q0 -180 -140 -330t-323 -163l-56 -192q-5 -16 -43.5 -16t-33.5 16l55 192q-125 6 -276 91zM408 950q0 -107 157 -168q126 434 135 468q-123 0 -207.5 -88t-84.5 -212zM433 65q114 2 199.5 101.5t85.5 215.5 t-137 190z" />
<glyph unicode="%" horiz-adv-x="1923" d="M288 848q0 166 162 337.5t333 171.5q196 0 235 -166q75 -26 140 -26q268 0 488 256q8 9 43 9t32 -9l-1201 -1541q-8 -10 -56.5 -10t-42.5 10l1023 1307l-5 4q-145 -80 -268 -80q-75 0 -145 22v-14q0 -180 -143 -369.5t-319 -189.5q-149 0 -212.5 82t-63.5 206zM422 770 q0 -151 136 -151q145 0 266.5 178t121.5 331q0 19 -2 39q-90 49 -125 129q-85 0 -176 -97.5t-156 -218.5t-65 -210zM1104 247q0 166 162 338t326 172q128 0 189 -64.5t61 -173.5q0 -181 -143 -370.5t-320 -189.5q-144 0 -209.5 80.5t-65.5 207.5zM1238 169q0 -151 135 -151 q144 0 266.5 178t122.5 339t-131 161q-115 0 -254 -202t-139 -325z" />
<glyph unicode="&#x26;" horiz-adv-x="1577" d="M142 385q0 101 46.5 226t184 252.5t270.5 127.5q53 0 77 -17t52 -65q120 97 241.5 237t121.5 234q0 32 -23.5 59.5t-23.5 47.5q0 42 26.5 64t55.5 22q94 0 94 -111q0 -321 -985 -1003v-17q0 -173 107 -263.5t248 -90.5q140 0 289.5 96.5t234 275.5t92.5 384 q-41 35 -104 35q-64 0 -108 -44t-44 -75.5t15 -75.5t15 -63q0 -58 -67 -58q-88 0 -88 82q0 108 117 213t225 105q55 0 108 -27.5t133 -107.5t124 -80q38 0 38 63q0 18 -16 81q0 27 22.5 40.5t42.5 13.5q76 0 76 -117q0 -89 -54 -104q-26 -6 -88 -25t-116 -43q-5 -2 -15 -2 t-22 17q-63 87 -141 147q0 -86 -8.5 -180t-81 -255.5t-240 -287t-389.5 -125.5q-203 0 -322.5 112.5t-119.5 301.5zM283 539q220 151 334 252q2 24 2 49q0 63 -68 63q-38 0 -105.5 -54.5t-109 -146.5t-53.5 -163z" />
<glyph unicode="'" horiz-adv-x="422" d="M356 944q23 180 68 451q24 86 119 86q76 0 76 -55q0 -11 -5 -29q-73 -163 -190 -453h-68z" />
<glyph unicode="(" horiz-adv-x="676" d="M134 211q0 170 62.5 388.5t241 477.5t426.5 439q19 14 39.5 14t28.5 -10t6 -23.5t-27 -32.5q-193 -150 -343 -368t-224 -472t-74 -436q0 -267 142 -475q7 -11 7 -27.5t-18 -29t-36.5 -11t-30.5 16.5q-200 251 -200 549z" />
<glyph unicode=")" horiz-adv-x="676" d="M-189.5 -319q1.5 11 27.5 30q227 182 368.5 404t208 453t66.5 419q0 264 -143 475q-11 16 -2.5 42t39 26t41.5 -14q200 -253 200 -558q0 -172 -65 -398t-257 -482.5t-409 -415.5q-22 -16 -40 -16t-27 12t-7.5 23z" />
<glyph unicode="*" horiz-adv-x="807" d="M60 904l273 140l-216 142l49 62l215 -141l59 277h72l-60 -279l279 144l23 -62l-278 -143l215 -141l-49 -62l-216 141l-61 -288h-72l61 287l-271 -139z" />
<glyph unicode="+" horiz-adv-x="1024" d="M119 371v100h334v336h120v-336h334v-100h-334v-371h-120v371h-334z" />
<glyph unicode="," horiz-adv-x="520" d="M-90 -346q0 5 4 8q84 62 155 133.5t93 147.5q3 11 3 32t-18 29q-83 39 -83 104q0 51 43.5 89.5t103.5 38.5q62 0 95.5 -43.5t33.5 -88.5q0 -76 -48.5 -163.5t-149.5 -175t-208 -134.5q-2 -1 -5 -1q-9 0 -14 8.5t-5 15.5z" />
<glyph unicode="-" horiz-adv-x="827" d="M166 506q0 19 14 57.5t25 38.5h573q6 0 6 -21.5t-15 -57.5t-24 -36h-573q-6 0 -6 19z" />
<glyph unicode="." horiz-adv-x="520" d="M72 92q0 43 32 81t92 38t89.5 -38.5t29.5 -87t-33.5 -79.5t-90.5 -31t-88 37t-31 80z" />
<glyph unicode="/" horiz-adv-x="541" d="M-10 19q0 8 2 14l610 1440q6 15 33.5 15t48 -18.5t20.5 -26t-2 -13.5l-612 -1442q-6 -15 -33 -15t-47 19t-20 27z" />
<glyph unicode="0" d="M118 338q0 149 61.5 376.5t215 423t359.5 195.5q272 0 272 -356q0 -153 -58.5 -369t-214 -420t-362.5 -204q-273 0 -273 354zM272 281q0 -230 134 -230t230.5 172t166.5 434t70 437q0 174 -134 174q-129 0 -232.5 -182t-169 -428t-65.5 -377z" />
<glyph unicode="1" d="M135 7q0 15 5 28.5t21 13.5q126 0 169.5 34t81.5 177l233 871q5 18 5 27q0 18 -12.5 18t-27.5 -7l-142 -57q-14 -6 -17.5 16.5t9.5 28.5q161 70 377 209q14 8 23.5 8t9.5 -10q-35 -98 -56 -176l-248 -926q-27 -100 -27 -144t31.5 -56.5t116.5 -12.5q10 0 10 -15 t-4.5 -28.5t-20.5 -13.5q-85 8 -263.5 8t-263.5 -8q-10 0 -10 15z" />
<glyph unicode="2" d="M-67 22q0 16 14 27q284 233 477.5 423.5t293.5 332t100 243.5q0 82 -46 120t-115 38q-146 0 -295 -182q-5 -5 -18 -5t-23 12t-10 16.5t2 6.5q89 117 212 198t254 81q107 0 168.5 -65t61.5 -166q0 -142 -118.5 -295.5t-681.5 -626.5q-23 -20 -23 -31.5t27 -11.5h297 q159 0 237 57q35 25 65 66q4 7 28.5 7t24.5 -19q0 -3 -1 -4l-158 -219q-24 -33 -61 -33q-122 8 -335 8t-343 -8q-34 0 -34 30z" />
<glyph unicode="3" d="M44 102q0 47 37.5 73t69.5 26t79.5 -74t125.5 -74q127 0 228 146.5t101 283.5q0 207 -215 207q-66 0 -117 -16q-8 0 -8 22.5t11 40t18 17.5q164 0 295.5 91t131.5 240q0 71 -40.5 106.5t-101.5 35.5q-119 0 -244 -137q-3 -3 -14 -3t-20.5 14.5t-9.5 19.5t3 10 q190 202 380 202q97 0 152.5 -56.5t55.5 -143.5q0 -224 -265 -351q-40 -19 -40 -26.5t25 -13.5q182 -41 182 -218q0 -212 -182.5 -379.5t-410 -167.5t-227.5 125z" />
<glyph unicode="4" d="M44 419.5q0 28.5 72 100.5l302 301q369 369 582 604q14 12 53.5 12t39.5 -24q0 -4 -1 -6l-887 -897q-14 -14 -14 -23.5t23 -9.5h389q20 0 26 21l119 444q4 15 79 15t75 -15l-119 -444q-6 -21 15 -21h118q8 0 8 -23t-12 -43t-19 -20h-119q-20 0 -25 -20l-66 -244 q-3 -11 -3 -21q0 -57 101 -57q10 0 10 -15.5t-4.5 -28.5t-20.5 -13q-85 8 -215 8t-215 -8q-10 0 -10 16t5 28.5t20 12.5q158 0 179 78l65 244q5 20 -15 20h-477q-59 0 -59 28.5z" />
<glyph unicode="5" d="M36 84q0 55 38 82t72 27q33 0 88.5 -62.5t119.5 -62.5q140 0 253 151.5t113 300.5q0 223 -259 223q-56 0 -134 -19q-22 -5 -22 12q0 11 5 22l233 530q14 29 41 29h471q4 -1 4 -13.5t-31.5 -71t-45.5 -58.5h-383q-29 0 -41 -27l-105 -234q-12 -26 8 -23q41 5 80 5 q341 0 341 -289q0 -203 -186 -412.5t-448 -209.5q-84 0 -148 25t-64 75z" />
<glyph unicode="6" d="M117 287q0 141 78.5 326t309.5 413t534 352q11 4 17.5 -4t6 -24.5t-10.5 -20.5q-159 -78 -283.5 -175t-223 -222t-177.5 -303q191 137 314 137q100 0 160.5 -71.5t60.5 -184.5q0 -203 -157.5 -364.5t-358.5 -161.5q-270 0 -270 303zM276 264q0 -201 156 -201 q127 0 213 121.5t86 255.5q0 213 -169 213q-112 0 -228 -110q-58 -141 -58 -279z" />
<glyph unicode="7" d="M146 -2q0 1 32 40.5t146 199.5l638 901q17 26 17 34.5t-30 8.5h-214q-164 0 -216 -13.5t-98 -45t-82 -85.5q-9 -14 -37.5 -14t-21.5 14l119 248q15 31 48 31h682q33 0 33 -13.5t-17 -39.5l-848 -1264q-11 -15 -81 -15t-70 13z" />
<glyph unicode="8" d="M94 223q0 266 380 445q-157 126 -157 256q0 166 137.5 287.5t283.5 121.5t213 -56.5t67 -141.5q0 -273 -327 -424q179 -137 179 -305q0 -167 -151.5 -294.5t-315.5 -127.5q-153 0 -231 67t-78 172zM257 243q0 -87 51 -139.5t132 -52.5q110 0 188.5 88t78.5 199 q0 133 -187 287q-133 -69 -198 -171.5t-65 -210.5zM456 1026q0 -68 36 -123.5t156 -148.5q220 129 220 331q0 82 -42.5 127t-117.5 45q-97 0 -174.5 -71.5t-77.5 -159.5z" />
<glyph unicode="9" d="M97 -3q-1 25 8 30q286 145 432.5 302t238.5 357q-162 -135 -296 -135q-110 0 -175 74.5t-65 164.5q0 114 51 225t172 214.5t287 103.5q136 0 207 -81t71 -215q0 -156 -82.5 -337.5t-298 -389t-525.5 -345.5h-9q-15 7 -16 32zM413 871q0 -101 44.5 -155t118.5 -54 q111 0 233 112q58 141 58 279q0 198 -161 198q-124 0 -208.5 -125.5t-84.5 -254.5z" />
<glyph unicode=":" horiz-adv-x="561" d="M113 95q0 44 32.5 80t93 36t89 -38.5t28.5 -87.5t-34.5 -79t-91.5 -29.5t-87 37.5t-30 81zM287 734q0 44 32.5 80t93 36t89 -38t28.5 -87t-34.5 -79t-91.5 -30t-87 37t-30 81z" />
<glyph unicode=";" horiz-adv-x="561" d="M-49 -346q0 5 4 8q84 62 155 133.5t93 147.5q3 11 3 32t-18 29q-83 39 -83 104q0 51 43.5 89.5t103.5 38.5q62 0 95.5 -43.5t33.5 -88.5q0 -76 -48.5 -163.5t-149.5 -175t-208 -134.5q-2 -1 -5 -1q-9 0 -14 8.5t-5 15.5zM256 734q0 44 32.5 80t93 36t89 -38t28.5 -87 t-34.5 -79t-91.5 -30t-87 37t-30 81z" />
<glyph unicode="&#x3c;" horiz-adv-x="1024" d="M115 375v92l796 379v-119l-649 -303v-4l649 -305v-117z" />
<glyph unicode="=" horiz-adv-x="1024" d="M119 330v100h788v-100h-788zM119 596v100h788v-100h-788z" />
<glyph unicode="&#x3e;" horiz-adv-x="1024" d="M113 -2v117l649 305v4l-649 303v119l796 -379v-92z" />
<glyph unicode="?" horiz-adv-x="678" d="M75 92q0 43 32 81t92 38t89.5 -38.5t29.5 -87t-33.5 -79.5t-90.5 -31t-88 37t-31 80zM242 575q0 137 166 213l120 56q170 78 170 211q0 139 -243 139q-16 0 -32.5 19.5t-16.5 46.5q0 44 36 73t76 29q103 0 178.5 -94t75.5 -209t-52.5 -206t-98.5 -112l-191 -88 q-88 -40 -100 -90q-16 -45 -17 -125q0 -13 -22.5 -17.5t-24.5 5.5q-24 88 -24 149z" />
<glyph unicode="@" horiz-adv-x="1556" d="M113 600q0 348 239.5 566t569.5 218q280 0 442 -156.5t162 -369.5q0 -212 -146 -356t-385 -144q-81 0 -102 15.5t-21 45.5t50 177l-9 4q-179 -239 -303 -239q-92 0 -92 126q0 157 128 342t278 185q55 0 99 -41l19 56q4 14 46 14q46 0 41 -18l-141 -492q-14 -47 -14 -75 q0 -32 48 -32q178 0 297 114.5t119 315.5q0 200 -151.5 329.5t-383.5 129.5q-294 0 -471.5 -208.5t-177.5 -504.5q0 -242 158 -402.5t452 -160.5q151 0 318 72q4 1 11 -6t8 -18.5t-3 -14.5q-167 -105 -395 -105q-279 0 -484.5 165t-205.5 468zM629 513q0 -70 44 -70 q55 0 167 128q97 111 128 217l34 114q-33 63 -98 63q-104 0 -189.5 -168t-85.5 -284z" />
<glyph unicode="A" horiz-adv-x="1108" d="M-132 13q0 20 11 38t17 18q76 0 126 22t110 110l674 998q16 23 16 38q0 7 -8 18t-8 18q0 10 25 20q98 39 145.5 65.5t63.5 26.5q15 0 15 -18q0 -7 -8.5 -45t-20.5 -143l-117 -993q-1 -7 -1 -21q0 -96 144 -96q8 0 8 -21t-11.5 -38t-16.5 -17q-88 7 -213 7t-212 -7 q-8 0 -7.5 20.5t11.5 38t18 17.5q81 0 109 30.5t35 86.5l37 310q4 35 -28 35h-310q-31 0 -48 -25l-210 -324q-23 -35 -23 -58q0 -55 132 -55q7 0 7 -21t-11 -38t-17 -17q-86 7 -213 7t-213 -7q-8 0 -8 20zM495 609.5q0 -9.5 19 -9.5h275q32 0 35 29l62 530q1 9 -12 9 q-12 0 -18 -9l-353 -530q-8 -10 -8 -19.5z" />
<glyph unicode="B" horiz-adv-x="1217" d="M21 13q0 20 11 38t17 18q106 0 150.5 23.5t64.5 93.5l283 986q5 17 5 37q0 47 -42 60t-120 13q-8 0 -8 21t11 38t17 17q160 -4 231.5 -4t137.5 2t125 2q172 0 262.5 -76.5t90.5 -186.5q0 -158 -87.5 -244.5t-260.5 -117.5q-11 -2 -11 -7.5t11 -9.5q248 -83 248 -326 q0 -162 -136 -279.5t-471 -117.5q-62 0 -135.5 3.5t-170 3.5t-215.5 -7q-8 0 -8 20zM413 167q0 -110 141 -110q206 0 328.5 94.5t122.5 270.5q0 134 -92 203.5t-250 69.5q-110 0 -127 -59l-102 -359q-21 -72 -21 -110zM581 783q0 -30 95 -30q199 0 320 92.5t121 228.5 q0 119 -87.5 175t-251.5 56q-50 0 -71 -75l-124 -435q-2 -10 -2 -12z" />
<glyph unicode="C" horiz-adv-x="1470" d="M215 458q0 355 290.5 641t643.5 286q147 0 238.5 -21.5t185.5 -36.5q-15 -158 -59 -308q-8 -17 -39.5 -17t-30.5 12q8 60 8 78q0 102 -75 162t-243 60q-318 0 -537 -273t-219 -582q0 -176 102 -293.5t275 -117.5q175 0 293 55t166 115.5t71 98.5q7 10 36 10t29 -19 q0 -20 -71 -132t-96 -140q-34 -5 -82 -17q-174 -46 -389 -46t-356 130t-141 355z" />
<glyph unicode="D" horiz-adv-x="1514" d="M21 13q0 20 11 38t17 18q89 0 130 15q63 25 85 102l283 986q5 22 5 36q0 74 -162 74q-8 0 -8 21t11 38t17 17q133 -4 252 -4t199.5 2t155.5 2q247 0 398 -119t151 -335q0 -327 -266.5 -619t-627.5 -292q-96 0 -206.5 3.5t-207 3.5t-229.5 -7q-8 0 -8 20zM416 177 q0 -124 205 -124q306 0 544.5 264.5t238.5 562.5q0 182 -123.5 299t-365.5 117q-95 0 -128 -7t-56 -33t-38 -77l-254 -881q-23 -78 -23 -121z" />
<glyph unicode="E" horiz-adv-x="1255" d="M21 11q0 18 11 38t17 20q95 0 143 21t70 96l283 986q4 14 4 33q0 77 -157 77q-8 0 -8 19.5t11 38t17 18.5q133 -4 275.5 -4t327 2t328.5 2q62 0 62 -22q0 -5 -3 -16l-88 -310q-4 -14 -43.5 -14t-36.5 14q11 56 11 78q0 95 -64 142t-127 50q-213 9 -303 9q-29 0 -35 -22 l-160 -554q-2 -9 -2 -15q0 -22 29 -22h192q69 0 91 12q35 18 51 76l27 100q4 15 40 15t33 -15q-88 -251 -123 -428q-4 -15 -37.5 -15t-29.5 16l25 90q7 25 7 39q0 41 -103 41h-198q-33 0 -40 -26l-81 -281q-27 -94 -27 -140q0 -99 114 -99l240 8q233 8 328 275q5 14 46 14 t37 -14l-94 -325q-8 -26 -28 -26q-45 0 -289.5 3.5t-423 3.5t-311.5 -7q-8 0 -8 18z" />
<glyph unicode="F" horiz-adv-x="1217" d="M21 11q0 18 11 38t17 20q95 0 135 18q56 24 78 99l283 986q4 14 4 33q0 77 -157 77q-8 0 -8 19.5t11 38t17 18.5q126 -4 222.5 -4t348 2t360.5 2q62 0 62 -22q0 -5 -3 -16l-88 -310q-4 -14 -43.5 -14t-36.5 14q11 56 11 78q0 92 -64 140.5t-127 51.5q-213 9 -303 9 q-29 0 -35 -22l-149 -514q-2 -7 -2 -19q0 -18 29 -18h155q121 0 157 130l32 117q4 14 37 14t31 -14q-28 -73 -87.5 -284.5t-74.5 -283.5q-4 -15 -39.5 -15t-31.5 15l35 117q7 23 7 47q0 81 -87 81h-161q-32 0 -40 -27l-120 -427q-6 -21 -6 -38q0 -79 164 -79q7 0 7 -21.5 t-10.5 -38t-16.5 -16.5q-86 7 -247 7t-269 -7q-8 0 -8 18z" />
<glyph unicode="G" horiz-adv-x="1476" d="M217 454q0 342 286.5 636.5t626.5 294.5q170 0 298 -29t145 -29q0 -105 -59 -308q-5 -18 -38.5 -18t-31.5 13q5 31 5 62q0 124 -90 181t-256 57q-299 0 -511 -267.5t-212 -571.5q0 -173 103.5 -300t296.5 -127q305 0 340 125l53 190q9 32 9 49q0 42 -43 54t-161 12 q-7 0 -7 20.5t11.5 38t18.5 17.5q75 -5 260 -5t246 5q8 0 8 -19.5t-12 -38t-19 -18.5q-94 0 -124 -21.5t-50 -93.5l-65 -230q-6 -21 -6 -36.5t17.5 -18.5t17.5 -15q0 -32 -22 -32q-37 0 -177 -20t-205 -29t-149 -9q-221 0 -362.5 130.5t-141.5 350.5z" />
<glyph unicode="H" horiz-adv-x="1503" d="M21 11q0 18 11 38t17 20q118 0 157.5 31t55.5 86l283 986q5 17 5 35q0 80 -156 80q-8 0 -8 19.5t11 38t17 18.5q46 -5 255 -5t255 5q8 0 8 -19.5t-11 -38t-17 -18.5q-117 0 -158 -29.5t-57 -85.5l-112 -392q-5 -19 -5 -30t28 -11h546q34 0 46 41l113 392q5 17 5 35 q0 80 -156 80q-8 0 -8 21.5t11 38t18 16.5q75 -5 253 -5t256 5q8 0 8 -21t-11 -38t-17 -17q-107 0 -152 -26t-63 -89l-282 -986q-6 -21 -6 -34q0 -83 157 -83q8 0 8 -18t-11 -38t-18 -20q-88 7 -247.5 7t-260.5 -7q-7 0 -7 19.5t11 38t17 18.5q107 0 150.5 27t61.5 90 l126 441q4 15 4 25.5t-29 10.5h-547q-32 0 -42 -36l-127 -441q-6 -21 -6 -35q0 -82 157 -82q7 0 7 -21.5t-11 -38t-18 -16.5q-85 7 -257 7t-250 -7q-8 0 -8 18z" />
<glyph unicode="I" horiz-adv-x="729" d="M21 13q0 20 11 38t17 18q88 0 140 21.5t73 95.5l283 986q5 22 5 35q0 80 -156 80q-8 0 -8 21t11 38t17 17q46 -5 255 -5t255 5q8 0 8 -21t-11 -38t-17 -17q-114 0 -156 -27.5t-59 -87.5l-282 -986q-6 -20 -6 -34q0 -83 157 -83q7 0 7 -21.5t-11 -38t-18 -16.5 q-86 7 -253.5 7t-253.5 -7q-8 0 -8 20z" />
<glyph unicode="J" horiz-adv-x="720" d="M-265 -330.5q0 45.5 37 80t105 34.5q54 0 86.5 -34t32.5 -67q80 25 144.5 127.5t269.5 823.5l153 538q5 18 5 29q0 86 -161 86q-8 0 -8 21.5t11 38t18 16.5q47 -5 241.5 -5t266.5 5q8 0 8 -20.5t-11 -38t-18 -17.5q-99 0 -143 -26.5t-63 -88.5l-300 -1012 q-86 -289 -246.5 -434t-322.5 -145q-31 0 -68 21.5t-37 67z" />
<glyph unicode="K" horiz-adv-x="1301" d="M21 13q0 20 11 38t17 18q123 0 161 33t52 84l283 986q6 21 6 39q0 76 -159 76q-9 0 -9 22.5t10.5 38t16.5 15.5q48 -5 257 -5t255 5q8 0 8 -21t-11 -38t-17 -17q-120 0 -159 -30.5t-54 -84.5l-128 -443q-2 -6 -2 -11t10 -5q41 0 147 97l400 365q62 57 62 87q0 25 -48 25 q-7 0 -7 21.5t11 38t18 16.5q46 -5 192 -5t192 5q8 0 8 -20.5t-11 -38t-18 -17.5q-100 0 -162 -27.5t-154 -109.5l-446 -403q-10 -8 -10 -19q0 -10 4 -19l265 -536q32 -64 82.5 -84t145.5 -20q13 0 13 -22.5t-11 -38t-17 -15.5q-87 7 -239 7t-239 -7q-7 0 -7 21t11 38t17 17 q102 0 102 47q0 25 -22 70l-170 353q-25 51 -61 78.5t-59 27.5t-27 -20l-124 -439q-7 -21 -7 -40q0 -77 150 -77q7 0 7 -22t-11 -38t-17 -16q-87 7 -250.5 7t-249.5 -7q-8 0 -8 20z" />
<glyph unicode="L" horiz-adv-x="1312" d="M21 14.5q0 21.5 13 38t21 16.5q97 0 141.5 20.5t63.5 87.5l287 995q4 17 4 33q0 82 -159 82q-9 0 -9 22.5t10.5 38t16.5 15.5q48 -5 261 -5t261 5q7 0 7 -21t-11 -38t-17 -17q-103 0 -150.5 -20t-69.5 -95l-257 -895q-22 -77 -22 -118q0 -97 122 -97l333 13 q258 11 344 304q3 14 41.5 14t38.5 -14l-101 -352q-7 -26 -18.5 -30t-72.5 -4q-173 0 -381 3.5t-395.5 3.5t-293.5 -7q-8 0 -8 21.5z" />
<glyph unicode="M" horiz-adv-x="1928" d="M4 13.5q0 20.5 11 38t18 17.5q70 0 119 27.5t71 89.5l324 924q17 47 17 83q0 94 -155 94q-8 0 -8 21.5t11 38t18 16.5q46 -5 137.5 -5t109.5 -6q43 -12 52 -67l192 -1008q4 -26 19 -26q14 0 32 24l780 1016q39 51 86 62q20 5 103 5t130 5q7 0 7 -21t-10.5 -37t-17.5 -18 q-96 0 -138.5 -36.5t-74.5 -144.5l-264 -920q-5 -22 -5 -36q0 -81 138 -81q7 0 7 -21.5t-11.5 -38t-17.5 -16.5q-86 7 -223 7t-223 -7q-8 0 -8 20.5t11 38t18 17.5q71 0 113 30.5t59 86.5l242 853q1 3 1 7q0 12 -9.5 12t-20.5 -13l-798 -1041q-9 -12 -20.5 -12t-14.5 14 l-170 1035q-5 30 -20.5 30t-26.5 -30l-296 -855q-8 -22 -8 -39q0 -78 140 -78q8 0 8 -20.5t-11.5 -38t-17.5 -17.5q-87 7 -199 7t-199 -7q-7 0 -7 20.5z" />
<glyph unicode="N" horiz-adv-x="1539" d="M21 13q0 20 11 38t17 18q90 0 138 21t69 96l264 928q14 50 14 98t-48 65q-30 10 -96 10q-8 0 -8 21t11 38t17 17q48 -5 130.5 -5t111 -4.5t46.5 -41.5l490 -1024q14 -28 30 -28t23 30l257 882q7 24 7 44q0 71 -149 71q-7 0 -7 20t12 38t18 18q47 -5 193 -5t193 5 q7 0 7 -21t-11 -38t-17 -17q-78 0 -117 -19.5t-61 -95.5l-334 -1168q-9 -33 -25.5 -33t-31.5 29l-539 1117q-9 20 -25.5 20t-23.5 -31l-262 -920q-8 -27 -8 -45q0 -72 133 -72q8 0 8 -21t-11 -38t-17 -17q-86 7 -200.5 7t-200.5 -7q-8 0 -8 20z" />
<glyph unicode="O" horiz-adv-x="1478" d="M217 441q0 361 276.5 652.5t585.5 291.5q219 0 337 -144.5t118 -354.5q0 -350 -275 -631.5t-587 -281.5q-177 0 -316 112t-139 356zM380 456q0 -179 100.5 -294.5t226.5 -115.5q211 0 361.5 148t226.5 344t76 368q0 173 -96.5 290t-243.5 118q-157 0 -314.5 -133 t-247 -328.5t-89.5 -396.5z" />
<glyph unicode="P" horiz-adv-x="1184" d="M23 14q0 21 11 38t17 17q90 0 141.5 24t71.5 93l283 986q4 14 4 29q0 81 -159 81q-8 0 -8 21t11 38t17 17q100 -3 228.5 -3t190 1.5t138.5 1.5q159 0 258.5 -75t99.5 -202q0 -213 -185.5 -352.5t-410.5 -139.5q-71 0 -179 13q-25 3 -31 -19l-112 -397q-6 -21 -6 -38 q0 -79 157 -79q7 0 7 -21t-11 -38t-17 -17q-86 7 -254 7t-254 -7q-8 0 -8 21zM554 698q-1 -6 -1 -10q0 -14 14 -17q64 -13 120 -13q205 0 341.5 114t136.5 296q0 103 -76 165.5t-220 62.5t-153 -31z" />
<glyph unicode="Q" horiz-adv-x="1478" d="M217 443q0 353 275.5 647.5t586.5 294.5q216 0 335.5 -142t119.5 -357q0 -155 -69.5 -325t-216.5 -319.5t-304 -212.5q-8 -3 -8 -9t4 -11q52 -63 213 -150.5t364 -142.5q9 -3 9 -21.5t-17 -36.5q-15 -17 -25 -17h-2q-272 57 -533 158t-431.5 184.5t-235.5 183.5t-65 276z M380 448q0 -163 96.5 -282t230.5 -119q273 0 468.5 267.5t195.5 571.5q0 194 -94 310.5t-242 117.5q-157 0 -314 -130t-249 -332t-92 -404z" />
<glyph unicode="R" horiz-adv-x="1358" d="M21 13q0 20 11 38t17 18q103 0 149.5 25t65.5 92l283 986q5 17 5 43q0 67 -162 67q-8 0 -8 21t11 38t17 17q100 -3 243 -3t198 1.5t133 1.5q163 0 270 -72.5t107 -202.5t-99 -261.5t-332 -196.5q-18 -5 -18 -20.5t5 -31.5q85 -277 229 -453q86 -105 197 -105q9 0 9 -10 q0 -24 -21 -26q-41 -3 -79 -3q-113 0 -177.5 23.5t-129 101t-89.5 144.5l-92 242q-20 52 -50 87q-19 22 -67.5 22t-78.5 3.5t-37 -1.5q-8 -6 -10 -15l-112 -397q-7 -25 -7 -43q0 -74 161 -74q7 0 7 -21.5t-10.5 -38t-16.5 -16.5q-87 7 -257.5 7t-256.5 -7q-8 0 -8 20z M553 684.5q0 -9.5 17 -13.5q69 -13 117 -13q210 0 361 109t151 299q0 102 -84.5 166t-252.5 64q-94 0 -117.5 -7.5t-28.5 -23.5l-162 -567q-1 -4 -1 -13.5z" />
<glyph unicode="S" horiz-adv-x="1042" d="M116 73l1 72q11 173 34 220q9 16 39 16t31 -7q-7 -38 -7 -67q0 -129 85 -194t223 -65q114 0 206.5 106.5t92.5 230.5q0 156 -153 222l-178 76q-152 64 -152 251q-1 186 153.5 318.5t347.5 132.5q107 0 189 -20t105 -20q-2 -97 -35 -264q-5 -19 -37.5 -19t-34.5 17l-1 56 q-18 183 -224 183q-131 0 -222 -95t-91 -227q0 -106 130 -163l242 -103q131 -56 131 -226q0 -201 -161.5 -366t-365.5 -165q-115 0 -178.5 20t-169.5 80z" />
<glyph unicode="T" horiz-adv-x="1275" d="M275 1006l92 321q9 31 78 31q112 0 243 -2t248 -2t252.5 2t285.5 2q72 0 72 -20l-97 -332q-4 -14 -43.5 -14t-36.5 14q15 70 15 98q0 178 -196 178h-134q-41 0 -52 -37l-303 -1059q-5 -17 -5 -37q0 -80 157 -80q7 0 7 -21.5t-10.5 -38t-16.5 -16.5q-88 7 -264.5 7 t-262.5 -7q-8 0 -8 21t11 38t17 17q116 0 165.5 28t66.5 89l301 1054q5 18 5 23q0 19 -37 19h-138q-255 0 -334 -276q-4 -14 -40 -14t-38 14z" />
<glyph unicode="U" horiz-adv-x="1482" d="M295 263q0 102 49 276l181 633q8 29 8 46q0 44 -35.5 56.5t-105.5 12.5q-9 0 -9 22.5t10.5 38t16.5 15.5q48 -5 245 -5t243 5q7 0 7 -21.5t-11 -38t-17 -16.5q-127 0 -159 -31t-47 -84l-140 -485q-89 -316 -89 -419t70.5 -161t197.5 -58q199 0 328.5 104t195.5 334 l197 685q6 22 6 41q0 74 -138 74q-7 0 -7 21t11 38t17 17q70 -5 228.5 -5t204.5 5q8 0 8 -21t-11 -38t-17 -17q-88 0 -132.5 -22t-64.5 -93l-80 -282q-110 -387 -183 -544t-226 -265t-382 -108q-183 0 -276.5 69.5t-93.5 220.5z" />
<glyph unicode="V" horiz-adv-x="1206" d="M208 1308.5q0 21.5 11 38t18 16.5q56 -5 219.5 -5t241.5 5q7 0 7 -20.5t-11 -38t-18 -17.5q-107 1 -139 -29q-29 -27 -29 -67v-7l55 -903q2 -28 13 -28t27 24l335 498q53 78 245 388q31 50 31 79q0 45 -104 45q-8 0 -8 19.5t11 38t17 18.5q43 -5 208.5 -5t220.5 5 q7 0 7 -21t-11 -38t-17 -17q-149 -2 -213 -86q-153 -201 -372 -525l-466 -689q-17 -25 -32 -25t-18 44l-74 1166q-4 70 -35.5 92.5t-112.5 22.5q-7 0 -7 21.5z" />
<glyph unicode="W" horiz-adv-x="1944" d="M215 1306.5q0 19.5 11 38t17 18.5q46 -5 208.5 -5t235.5 5q8 0 8 -19.5t-11 -38t-17 -18.5q-161 0 -161 -78q0 -19 4 -37l199 -920q6 -26 21 -26q14 0 32 24l240 340q24 34 24 62q0 29 -4 48l-100 472q-16 77 -39 96t-88 19q-8 0 -8 19.5t11 38t17 18.5q46 -5 205 -5 t221 5q8 0 8 -21t-10.5 -37t-17.5 -18q-161 0 -161 -78q0 -18 4 -37l70 -325q6 -32 13 -32t26 32l206 316q33 49 33 83q0 41 -105 41q-8 0 -8 19.5t11 38t17 18.5q47 -5 205.5 -5t222.5 5q8 0 8 -21t-10.5 -37t-17.5 -18q-151 0 -213 -86l-317 -438q-30 -41 -30 -71t3 -45 l85 -395q6 -27 20 -27t33 25q186 244 617 913q33 54 33 83q0 41 -105 41q-8 0 -8 19.5t11 38t17 18.5q47 -5 213 -5t215 5q8 0 8 -21t-11 -38t-17 -17q-147 0 -213 -86q-156 -201 -373 -515l-484 -699q-16 -23 -28 -23q-13 0 -22 42l-107 505q-4 25 -11 25t-24 -25 l-362 -524q-14 -23 -29 -23q-14 0 -21 42l-247 1166q-15 73 -45.5 94t-100.5 21q-7 0 -7 19.5z" />
<glyph unicode="X" horiz-adv-x="1356" d="M-90 11q0 18 11 38t17 20q158 0 249 86l533 503q17 15 17 32t-6 32l-177 457q-26 66 -67 87t-126 21q-8 0 -8 21.5t11.5 38t17.5 16.5q78 -5 220 -5t280 5q7 0 7 -21.5t-10.5 -38t-16.5 -16.5q-162 0 -162 -74q0 -19 9 -42l124 -347q7 -18 18 -18t28 16l355 341 q65 62 65 93t-76 31q-8 0 -8 19.5t11 38t17 18.5q58 -5 192.5 -5t206.5 5q8 0 8 -21t-10.5 -37t-17.5 -18q-95 0 -170 -39.5t-197 -155.5l-361 -343q-16 -15 -16 -32t4 -28l184 -503q42 -117 206 -117q7 0 7 -24t-11 -38t-17 -14q-89 7 -221.5 7t-236.5 -7q-8 0 -8 19.5 t11 38t17 18.5q136 0 136 64q0 24 -13 58l-153 398q-7 19 -17 19q-11 0 -28 -16l-302 -290q-137 -131 -137 -187q0 -46 93 -46q7 0 7 -21.5t-11 -38t-18 -16.5q-82 7 -219 7t-233 -7q-8 0 -8 18z" />
<glyph unicode="Y" horiz-adv-x="1228" d="M264 1308q0 21 11 38t17 17q46 -5 216 -5t218 5q7 0 7 -21t-11 -38t-17 -17q-97 0 -120 -20t-23 -45q0 -21 9 -50l151 -483q6 -18 16 -18t24 15l445 477q50 54 50 84q0 40 -100 40q-7 0 -7 21.5t11 38t18 16.5q67 -5 193 -5t201 5q7 0 7 -20.5t-11 -38t-18 -17.5 q-92 0 -143.5 -28.5t-211.5 -199.5l-381 -406q-57 -61 -87 -166l-86 -301q-9 -32 -9 -60t34.5 -42.5t105.5 -14.5q8 0 8 -21t-11 -38t-17 -17q-87 7 -238.5 7t-237.5 -7q-7 0 -7 21t11 38t17 17q94 0 136.5 20t64.5 97l76 266q27 94 27 128.5t-23 108.5l-151 483 q-24 78 -64.5 96.5t-92.5 18.5q-7 0 -7 21z" />
<glyph unicode="Z" horiz-adv-x="1199" d="M-55 20q0 20 11 31l1236 1216q9 9 9 15.5t-20 6.5h-572q-43 0 -92 -35.5t-117 -128.5q-64 -87 -98 -151q-6 -12 -27 -5t-16 19q72 169 133 357q7 22 29 22q3 0 7 -1l28 -4q79 -12 241 -12h13q172 0 333 4l374 8q17 0 17 -15t-16 -31l-1217 -1205q-8 -8 -8 -25t22 -17 q429 0 645 13q120 7 288 270q5 8 27 1t17 -17q-85 -161 -144 -343q-8 -26 -21 -26h-3l-52 12q-91 21 -655 21h-352q-20 0 -20 20z" />
<glyph unicode="[" horiz-adv-x="725" d="M83 -341q0 4 1 9l528 1843q4 19 27 19h420q7 0 7 -19t-13 -39t-21 -20h-276q-23 0 -29 -22l-479 -1678q-8 -28 6 -28h301q8 0 8 -22t-12 -39t-19 -17h-432q-17 0 -17 13z" />
<glyph unicode="\" horiz-adv-x="717" d="M2 1441q0 26 42 42q18 7 37 7t25 -15l607 -1450q1 -2 1 -6q0 -22 -48 -36q-17 -5 -33.5 -5t-20.5 10l-608 1444q-2 6 -2 9z" />
<glyph unicode="]" horiz-adv-x="725" d="M-240 -333.5q0 20.5 8 39t19 18.5h305q14 0 21 24l483 1682q6 22 -12 22h-279q-9 0 -9 23.5t11 39t17 15.5h419q16 0 16 -12q0 -3 -1 -7l-529 -1843q-6 -22 -28 -22h-432q-9 0 -9 20.5z" />
<glyph unicode="^" horiz-adv-x="1227" d="M213 535l387 837h106l385 -837h-136l-302 681l-302 -681h-138z" />
<glyph unicode="_" horiz-adv-x="1024" d="M0 -154h1024v-102h-1024v102z" />
<glyph unicode="`" horiz-adv-x="569" d="M201 1265q0 20 33 41t54 21t28 -16l145 -325q5 -12 5 -20q0 -37 -36 -37q-24 0 -41 27l-186 301q-2 2 -2 8z" />
<glyph unicode="a" horiz-adv-x="918" d="M63 141q0 211 173.5 457t367.5 246q72 0 133 -56l24 70q9 24 67 24q52 0 52 -19q0 -2 -1 -5l-189 -655q-10 -35 -10 -59q0 -41 32 -41q34 0 130 94q9 9 28 -11q14 -13 14 -22q0 -5 -3 -8q-66 -81 -145.5 -132t-139.5 -51q-61 0 -61 79q0 56 24 120l43 115l-12 4 q-238 -318 -404 -318q-60 0 -91.5 48t-31.5 120zM211 176q0 -94 59 -94q55 0 155 100.5t156.5 186.5t82.5 174l45 151q-43 84 -131 84q-136 0 -251.5 -220t-115.5 -382z" />
<glyph unicode="b" horiz-adv-x="852" d="M97 133q0 39 12 92l227 975q16 67 16 99q0 79 -78 79q-15 0 -15 26t15 26q55 0 137 27.5t95 27.5q12 0 12 -13q0 -7 -2 -14l-199 -860l21 -6q198 260 346 260q166 0 166 -193q0 -253 -180 -469.5t-428 -216.5q-145 0 -145 160zM227 163q0 -118 99 -118q142 0 261.5 197.5 t119.5 359.5q0 152 -84 152q-97 0 -214 -160t-149.5 -262.5t-32.5 -168.5z" />
<glyph unicode="c" horiz-adv-x="674" d="M98 256q0 203 143.5 399.5t315.5 196.5q62 0 113 -29.5t51 -68.5q0 -32 -25 -54.5t-51 -22.5q-27 0 -37 19q-9 57 -15 66q-20 26 -89 26q-90 0 -180 -161.5t-91 -302.5q0 -121 37.5 -191t98.5 -70q62 0 100.5 21.5t81.5 60.5q5 4 18 0.5t16.5 -15t-1.5 -17.5 q-140 -140 -283 -140q-92 0 -147.5 79.5t-55.5 203.5z" />
<glyph unicode="d" horiz-adv-x="958" d="M63 145q0 213 173 460t368 247q80 0 131 -63l92 411q16 67 16 96q0 82 -77 82q-15 0 -15 26t15 26q70 0 148 27.5t83 27.5q13 0 13 -13q0 -3 -2 -12l-287 -1251q-7 -29 -7 -47q0 -49 25 -49q51 0 133 94q3 3 16 -2t21 -18t4 -17q-173 -197 -276 -197q-60 0 -60 107 q0 26 7 55l40 178l-14 11q-102 -149 -213.5 -250t-210.5 -101q-60 0 -91.5 51.5t-31.5 120.5zM211 180q0 -98 59 -98q70 0 199 144.5t199 277.5l42 184q-44 98 -132 98q-136 0 -251.5 -223t-115.5 -383z" />
<glyph unicode="e" horiz-adv-x="696" d="M96 215q0 191 160 414t336 223q131 0 131 -115q0 -135 -163.5 -244t-317.5 -137q-15 -75 -15 -118q0 -166 111 -166q40 0 84 21t141 104q7 6 18.5 0.5t13 -17t-2.5 -16.5q-156 -191 -293 -191q-203 0 -203 242zM260 420q123 26 221.5 104t98.5 187q0 61 -54 61 q-74 0 -146.5 -102.5t-119.5 -249.5z" />
<glyph unicode="f" horiz-adv-x="479" d="M-305 -446q0 36 21 57.5t42 21.5q60 0 87 -50t73 -50q41 0 77 49.5t50 120.5l204 1060h-182q-7 0 -7 12q0 27 18 54q8 13 16 13h170q73 373 183.5 497.5t295.5 124.5q87 0 138 -47.5t51 -118.5q0 -96 -66 -96q-34 0 -54.5 22.5t-20.5 49.5q0 121 -105 121 q-102 0 -170 -111.5t-130 -441.5h282q7 0 7 -12q0 -25 -19 -53q-9 -14 -17 -14h-269l-169 -874q-30 -156 -79.5 -254.5t-119.5 -142t-150 -43.5q-71 0 -114 36t-43 69z" />
<glyph unicode="g" horiz-adv-x="766" d="M-117 -351.5q0 91.5 100.5 166t241.5 119.5q-92 44 -92 92q0 58 106 161q-163 42 -163 214.5t138 311.5t316 139q24 0 62 -18t57 -20q57 -6 103 -6t121 5q17 1 17 -27q0 -59 -23 -59q-89 0 -194 29q28 -47 28 -125.5t-42.5 -166.5t-117 -158t-193.5 -107q-26 -8 -38 -14 q-62 -32 -62 -80.5t123 -114.5q39 -21 194.5 -108t155.5 -201.5t-156.5 -177t-340.5 -62.5q-147 0 -244 58t-97 149.5zM26 -327.5q0 -77.5 97 -120t193.5 -42.5t182.5 37.5t86 100.5t-121 150t-193 87t-158.5 -67.5t-86.5 -145zM193 321q0 -73 79 -73q114 0 214.5 163.5 t100.5 308.5q0 71 -79 71q-107 0 -211 -161t-104 -309z" />
<glyph unicode="h" horiz-adv-x="879" d="M76 0l279 1201q16 69 16 103q0 73 -77 73q-15 0 -15 26t15 26q76 0 151.5 27.5t79.5 27.5q17 0 13 -18l-212 -921l10 -10q188 317 371 317q163 0 163 -234q0 -182 -107 -413.5t-267 -231.5q-48 0 -81.5 29.5t-33.5 58.5q0 54 19 77.5t44 23.5q63 0 74 -51.5t44 -51.5 t71 70.5t69 202t31 237.5q0 174 -76 174q-117 0 -313 -282q-50 -72 -92 -240l-55 -221q-7 -27 -62 -27q-59 0 -59 23v4z" />
<glyph unicode="i" horiz-adv-x="528" d="M111 657q0 3 2 6q37 59 125.5 124t146.5 65q56 0 56 -86q0 -37 -11 -76l-137 -487q-11 -39 -11 -61q0 -40 28.5 -40t131.5 93q9 8 27 -9q14 -13 14 -22q0 -3 -2 -6q-20 -35 -117.5 -110t-168.5 -75q-54 0 -54 87q0 38 11 77l137 488q5 18 5 36q0 50 -24.5 50t-117.5 -88 q-9 -9 -28 11q-13 14 -13 23zM341 1100q0 52 35 88.5t79 36.5q85 0 85 -90q0 -57 -33.5 -91t-78.5 -34q-87 0 -87 90z" />
<glyph unicode="j" horiz-adv-x="420" d="M-305 -477q0 29 26.5 44t55.5 15q31 0 59 -24.5t51 -24.5q69 0 118.5 66t66.5 141l202 883q5 22 5 36q0 43 -31.5 43t-104.5 -92q-12 -14 -36 20q-5 7 -4 13q0 3 1 6q152 203 254 203q61 0 61 -97q0 -30 -7 -61l-127 -555q-26 -112 -78 -282.5t-161.5 -290t-276.5 -119.5 q-32 0 -53 25.5t-21 50.5zM341 1100q0 52 35 88.5t79 36.5q85 0 85 -90q0 -57 -33.5 -91t-78.5 -34q-87 0 -87 90z" />
<glyph unicode="k" horiz-adv-x="893" d="M82 -4l277 1201q16 69 16 98q0 82 -77 82q-15 0 -15 26t15 26q70 0 149 27.5t84 27.5q17 0 14 -13l-193 -832l13 -6q68 100 156.5 159.5t160.5 59.5q68 0 98 -45t30 -98q0 -81 -97.5 -174t-227.5 -158q-8 -4 -8 -10q0 -8 8 -19l148 -207q60 -84 115 -84q42 0 94 49 q3 3 8 3q16 0 23.5 -8t7.5 -22q0 -3 -2 -7q-83 -99 -162 -99q-76 0 -116.5 24.5t-84.5 96.5l-137 221q-15 25 -64 25q-32 0 -41 -39l-71 -305q-5 -23 -65.5 -23t-55.5 23zM295 398q0 -11 22 -11q123 0 241.5 96t118.5 189q0 80 -67 80q-111 0 -252 -177q-33 -42 -41 -75 l-20 -88q-2 -8 -2 -14z" />
<glyph unicode="l" horiz-adv-x="496" d="M114 80q0 24 7 55l243 1062q15 66 15 98q0 82 -77 82q-15 0 -15 26t15 26q73 0 149.5 27.5t82.5 27.5q13 0 13 -9q0 -2 -1 -5l-288 -1261q-7 -31 -7 -47q0 -49 25 -49q52 0 134 94q2 3 6 3q11 0 24 -13t13 -21q0 -4 -2 -6q-170 -197 -277 -197q-60 0 -60 107z" />
<glyph unicode="m" horiz-adv-x="1507" d="M113 6l176 619q6 21 6 39q0 47 -28.5 47t-110.5 -86q-3 -3 -8 -3q-14 0 -24.5 13t-10.5 21q0 4 2 6q154 190 268 190q59 0 59 -90q0 -38 -10 -72l-90 -307l8 -4q88 199 217.5 336t237.5 137q110 0 110 -129q0 -57 -20 -127l-61 -213l12 -4q246 473 454 473 q107 0 107 -125q0 -65 -27 -160l-104 -364q-10 -35 -10 -56q0 -45 31.5 -45t123.5 93q4 4 9 4q11 0 22.5 -12.5t11.5 -24.5q0 -4 -2 -6q-159 -183 -284 -183q-54 0 -54 88q0 37 11 76l125 445q32 114 32 147q0 43 -32 43q-51 0 -119.5 -71t-185 -246.5t-230.5 -452.5 q-12 -29 -71 -29q-51 0 -51 25q0 4 1 8l150 526q41 144 41 193q0 47 -41 47q-45 0 -137 -95.5t-198 -279.5t-186 -395q-11 -29 -70 -29q-51 0 -51 25q0 4 1 8z" />
<glyph unicode="n" horiz-adv-x="1008" d="M113 6l176 619q6 21 6 39q0 47 -32 47t-107 -86q-3 -3 -7 -3q-12 0 -24 12.5t-12 21.5q0 4 2 6q154 190 268 190q57 0 57 -90q0 -42 -29 -138l-69 -241l8 -4q246 473 449 473q106 0 106 -125q0 -61 -28 -160l-103 -364q-10 -34 -10 -62q0 -39 34 -39t124 93q3 3 7 3 q12 0 24 -13t12 -20t-2 -9q-161 -183 -285 -183q-56 0 -56 84q0 39 11 80l125 445q30 106 30 145q0 45 -30 45q-86 0 -244.5 -231t-280.5 -539q-11 -29 -70 -29q-51 0 -51 25q0 4 1 8z" />
<glyph unicode="o" horiz-adv-x="838" d="M96 305q0 195 151 371t331 176q120 0 180.5 -85t60.5 -230q0 -213 -137 -388.5t-344 -175.5q-123 0 -182.5 91.5t-59.5 240.5zM213 231q0 -163 133 -163q109 0 235 186.5t126 333.5q0 180 -129 180q-117 0 -241 -190.5t-124 -346.5z" />
<glyph unicode="p" horiz-adv-x="877" d="M-140 -546q0 12 7 27t20 15q126 0 144 76l266 1133q-88 -45 -147 -99q-3 -3 -9 -3q-15 0 -29 13t-14 24q0 5 4 9q105 96 215 146l43 209q5 25 47 51t72 26q24 0 21 -13l-56 -239q38 13 119 13q132 0 216.5 -90t84.5 -242q0 -203 -167 -370t-365 -167q-36 0 -84 13 l-94 -406q-4 -17 -4 -28q0 -56 124 -56q9 0 9 -12t-7 -27.5t-20 -15.5q-90 8 -193.5 8t-193.5 -8q-9 0 -9 13zM274 98q0 -59 76 -59q146 0 260.5 135t114.5 303q0 118 -60 198.5t-149 80.5q-47 0 -92 -13l-148 -626q-2 -14 -2 -19z" />
<glyph unicode="q" horiz-adv-x="952" d="M94 133q0 225 183 472t430 247q91 0 122 -123l89 166q4 8 19 8q40 0 40 -19q0 -3 -1 -6l-85 -346l-213 -919q-2 -9 -2 -19q0 -48 69 -48q19 0 41 3q11 2 11 -17q0 -42 -18 -42q-145 0 -390 -49q-11 0 -11 16q0 41 23 43q133 10 156 109l176 774l-10 -2 q-80 -138 -228 -273t-268 -135q-61 0 -97 44t-36 116zM242 141q0 -78 49 -78q46 0 163 95.5t201 216.5q101 148 101 268q0 145 -82 145q-138 0 -285 -246t-147 -401z" />
<glyph unicode="r" horiz-adv-x="754" d="M107 644q0 5 2 7q123 134 176 167.5t96 33.5q54 0 54 -82q0 -16 -34 -143l-45 -168l10 -2q209 395 373 395q50 0 71.5 -21.5t21.5 -58.5q0 -36 -28 -62t-58 -26q-36 0 -53 14.5t-47 14.5q-60 0 -204.5 -237t-205.5 -472q-8 -31 -65.5 -31t-57.5 25q0 2 1 6l165 623 q7 26 7 35q0 43 -24 43t-115 -91q-3 -3 -8 -3q-16 0 -28 20q-4 7 -4 13z" />
<glyph unicode="s" horiz-adv-x="524" d="M23 82q0 36 14.5 58t40.5 22q66 0 92.5 -53.5t85.5 -53.5q82 0 82 121q0 64 -90 190t-90 226q0 105 65 182.5t189 77.5q52 0 91.5 -40t39.5 -81q0 -23 -19 -41t-37 -18q-52 0 -71.5 58t-81.5 58q-35 0 -57.5 -38t-22.5 -72q0 -70 97.5 -211t97.5 -231 q0 -112 -87.5 -187.5t-203.5 -75.5q-54 0 -94.5 35.5t-40.5 73.5z" />
<glyph unicode="t" horiz-adv-x="604" d="M122 76q0 44 8 72l168 582h-156q-12 0 -12 19q0 36 22 40l167 29l103 203q6 12 30 12q40 0 40 -19q0 -2 -1 -6l-49 -200h224q8 0 8 -20.5t-11 -39t-18 -18.5h-224l-145 -505q-12 -42 -12 -71q0 -52 35 -52q63 0 223 199q2 3 6 3q16 0 28 -22q7 -13 1 -22 q-116 -162 -192.5 -224.5t-156.5 -62.5q-40 0 -63 30.5t-23 72.5z" />
<glyph unicode="u" horiz-adv-x="991" d="M115 656q0 4 2 6q154 190 268 190q55 0 55 -82q0 -47 -25 -134l-87 -302q-41 -142 -41 -187t28 -45q44 0 159 122t228 317q58 100 121 288q8 23 60 23q63 0 63 -21q0 -2 -1 -5l-177 -623q-12 -42 -12 -62q0 -39 34 -39t125 93q3 3 8 3q13 0 24 -12q12 -14 12 -22 q0 -5 -3 -8q-164 -183 -284 -183q-58 0 -58 90q0 35 11 74l82 287q-244 -308 -334.5 -379.5t-146.5 -71.5q-84 0 -84 99q0 38 20 108l127 445q6 21 6 41q0 45 -28.5 45t-52.5 -27q-26 -29 -56 -59q-3 -3 -8 -3q-18 0 -31 22q-4 7 -4 12z" />
<glyph unicode="v" horiz-adv-x="823" d="M113 657q0 3 2 5q155 190 270 190q28 0 41.5 -22t13.5 -62q0 -42 -11 -79l-136 -482q-10 -35 -10 -60q0 -71 81 -71q82 0 210 162.5t128 345.5q0 119 -36 194q0 74 69 74q50 0 73 -49t23 -98q0 -125 -79 -304t-220 -303.5t-274 -124.5q-58 0 -85 38.5t-27 73.5t6 56 l137 484q6 21 6 37q0 49 -32 49q-31 0 -107 -86q-8 -8 -28 10q-15 14 -15 22z" />
<glyph unicode="w" horiz-adv-x="1239" d="M113 656q0 4 2 6q154 190 270 190q55 0 55 -84q0 -45 -28 -143l-119 -418q-10 -35 -10 -60q0 -71 81 -71q48 0 102 46t96 100.5t68 146.5l126 448q10 35 66 35t56 -26q0 -5 -1 -9l-168 -610q-10 -36 -10 -60q0 -71 81.5 -71t209.5 162.5t128 345.5q0 119 -37 194 q0 74 70 74q47 0 71.5 -45t24.5 -102q0 -117 -78.5 -300.5t-220.5 -307.5t-274 -124q-112 0 -112 124q0 10 2 28q-164 -152 -306 -152q-57 0 -84.5 38t-27.5 79q0 30 6 51l137 484q6 21 6 37q0 49 -30.5 49t-108.5 -86q-3 -3 -9.5 -3t-20 14t-13.5 20z" />
<glyph unicode="x" horiz-adv-x="963" d="M51 45q0 55 23.5 97t53.5 42q29 0 52.5 -37.5t32.5 -37.5q27 0 78 65l162 207l-146 299q-13 27 -31 27q-19 0 -41.5 -33t-41.5 -74q-2 -4 -14.5 -4t-23.5 13.5t-8 19.5q94 223 172 223q55 0 103 -107l110 -245l127 170q136 182 222 182q38 0 65 -29t27 -69 q0 -109 -68 -109q-31 0 -50 39t-36 39q-44 0 -102 -78l-156 -209l94 -200q56 -119 86 -119q41 0 88 125q3 8 15 8t22 -4.5t9 -12.5q-40 -260 -158 -260q-63 0 -135 144l-99 198l-137 -180q-123 -162 -211 -162q-40 0 -62 23.5t-22 48.5z" />
<glyph unicode="y" horiz-adv-x="793" d="M-113 -459q0 40 17 64t58 24q40 0 60.5 -34.5t59.5 -34.5q65 0 139 92.5t105.5 204.5t31.5 278q0 228 -34 405t-84 177q-46 0 -111 -131q-4 -7 -18.5 -5.5t-23.5 8.5t-5 15q104 248 221 248q85 0 129.5 -183t44.5 -442q0 -87 -8 -188h10q74 130 131.5 322.5t57.5 277.5 q0 69 -19 145q0 68 72 68t72 -64q0 -74 -44 -254.5t-155.5 -401.5t-161 -303.5t-177 -233t-253.5 -150.5q-52 0 -83.5 30.5t-31.5 65.5z" />
<glyph unicode="z" horiz-adv-x="891" d="M33 23q0 5 3 8l564 628q9 10 9 18q0 16 -40 28q-132 40 -241 40q-90 0 -90 -57q0 -13 19 -38t19 -54q0 -64 -61 -64q-78 0 -78 80q0 68 78.5 149t204.5 81q62 0 152 -28t135 -28q52 0 75 25l41 45q5 5 14 5q22 0 35 -21q5 -8 5 -15q0 -5 -3 -8l-591 -655l2 -8l43 -3 q61 -4 189.5 -57t166.5 -53q84 0 84 88q0 22 -27.5 46.5t-27.5 55.5q0 64 69 64q40 0 63 -33.5t23 -71.5q0 -106 -79 -177.5t-160 -71.5q-44 0 -107 22.5t-149 62.5t-125 40q-62 0 -142 -89q-4 -6 -14 -6q-24 0 -50 33q-9 13 -9 19z" />
<glyph unicode="{" horiz-adv-x="573" d="M74 -164q0 96 93 307t93 295q0 85 -139 94q-7 1 -7 8q0 37 17 38q105 10 152.5 42t67 87.5t65.5 291t116 321.5q95 116 280 116q10 0 10 -17.5t-15 -19.5q-186 -27 -231 -203q-23 -88 -54 -274t-85.5 -261t-161.5 -102l-2 -8q104 -26 104 -143q0 -63 -95 -275t-95 -283 q0 -115 125 -141q6 -1 5 -18t-16 -19q-227 0 -227 164z" />
<glyph unicode="|" horiz-adv-x="537" d="M233 -313v1747h82v-1747h-82z" />
<glyph unicode="}" horiz-adv-x="598" d="M-141 -310q0 17 15 19q190 30 231 203q29 125 57 294t84 243t160 100l2 8q-104 26 -104 143q0 63 95 275t95 283q0 115 -125 141q-6 1 -6 19t17 18q227 0 227 -164q0 -96 -93 -307t-93 -301q0 -79 139 -88q7 -1 7 -8q0 -37 -17 -38q-106 -10 -155 -43.5t-66.5 -90.5 t-63.5 -288t-116 -320q-93 -117 -280 -116q-10 0 -10 18z" />
<glyph unicode="~" horiz-adv-x="676" d="M23 365q0 6 1 7q100 151 178 151t165.5 -32t136 -32t120.5 72q2 2 5 2q24 0 24 -20q0 -43 -83.5 -103t-128.5 -60t-133 33.5t-142.5 33.5t-116.5 -65q-3 -3 -7 -3t-11.5 5t-7.5 11z" />
<glyph unicode="&#xa1;" horiz-adv-x="520" d="M-128 -485q0 27 9 51l317 842q6 17 36.5 17t30.5 -13l-185 -854q-9 -38 -47.5 -75.5t-81.5 -37.5q-79 0 -79 70zM205 754q0 52 34.5 83.5t81.5 31.5t88 -28.5t41 -79t-31 -89.5t-87 -39t-91.5 34.5t-35.5 86.5z" />
<glyph unicode="&#xa2;" horiz-adv-x="866" d="M161 590q0 121 63.5 230.5t190.5 179t263 73.5l53 180q3 10 21.5 10t38 -7.5t16.5 -18.5l-50 -169q163 -24 183 -84q5 -15 5 -30q0 -27 -21 -52.5t-39 -25.5q-14 0 -41 32.5t-47 53t-61 37.5l-202 -685q28 -7 76 -7q67 0 208 57q9 4 19.5 -12.5t10.5 -27t-4 -13.5 q-130 -91 -320 -91h-18l-62 -212q-4 -14 -24 -14t-37 9.5t-14 19.5l61 208q-122 32 -195.5 135.5t-73.5 223.5zM317 623q0 -195 146 -281l197 669q-139 -6 -241 -126t-102 -262z" />
<glyph unicode="&#xa3;" horiz-adv-x="1081" d="M-8 20q0 54 74.5 92t160.5 51t145 117t76 304h-231q-8 0 -8 18.5t6 32.5t20 14h222q19 180 61 327.5t152 247t237 99.5q98 0 147 -47.5t49 -121.5q0 -34 -13.5 -62.5t-52.5 -28.5q-73 0 -75 82q-2 110 -113 110q-55 0 -116.5 -59.5t-109.5 -546.5h292q11 0 11 -17 t-7 -32.5t-16 -15.5h-291q-53 -304 -276 -422v-4q90 0 226.5 -61.5t201.5 -61.5q51 0 69.5 23.5t18.5 117.5q0 74 47 74q35 0 55.5 -28t20.5 -64q0 -98 -106.5 -154.5t-206.5 -56.5q-116 0 -227 57t-200 92q-41 -6 -71 -65.5t-101 -59.5t-71 49z" />
<glyph unicode="&#xa4;" horiz-adv-x="1024" d="M80 667q0 145 87 261l-79 80q-2 2 -2 5q0 12 33 46.5t47 34.5q4 0 6 -2l79 -79q115 88 261.5 88t261.5 -88l78 79q3 3 7 3q15 0 47 -33.5t32 -47.5q0 -4 -2 -6l-78 -78q88 -115 88 -262t-88 -262l78 -79q2 -2 2 -5q0 -14 -32 -48t-47 -34q-4 0 -7 3l-78 79 q-115 -88 -260 -88t-263 89l-79 -80q-3 -3 -7 -3q-14 0 -46.5 33.5t-32.5 47.5q0 4 2 6l79 80q-87 115 -87 260zM167 668.5q0 -143.5 102 -245.5t245 -102t244.5 101.5t101.5 245.5t-101 245t-245.5 101t-245.5 -101t-101 -244.5z" />
<glyph unicode="&#xa5;" horiz-adv-x="1317" d="M268 522q0 50 15 50h356q13 64 -18 165h-277q-15 0 -15 51t15 51h246l-131 418q-22 69 -60 96t-108 27q-8 0 -8 18.5t10.5 41t19.5 22.5q102 -6 218 -6t247 6q8 0 8 -18.5t-10 -41t-20 -22.5q-74 0 -103 -9q-50 -17 -50 -66q0 -21 9 -48l162 -518q6 -20 17 -20t26 16 l477 512q54 59 54 90q0 43 -107 43q-8 0 -8 17.5t10.5 41t20.5 23.5q86 -6 214.5 -6t207.5 6q8 0 8 -17.5t-10 -41t-21 -23.5q-114 0 -185 -50q-39 -27 -196 -195l-278 -296h231q15 0 15 -51t-15 -51h-325l-36 -37q-51 -52 -78 -128h378q15 0 15 -50t-15 -50h-408l-78 -273 q-9 -31 -9 -53q0 -50 54 -65q24 -7 96 -7q8 0 8 -18.5t-10.5 -41t-19.5 -22.5q-66 8 -244 8t-266 -8q-8 0 -8 18.5t10.5 41t19.5 22.5q102 0 148 22t68 103l78 273h-330q-15 0 -15 50z" />
<glyph unicode="&#xa6;" horiz-adv-x="555" d="M312 -33v623h120v-623h-120zM312 817v582h120v-582h-120z" />
<glyph unicode="&#xa7;" horiz-adv-x="989" d="M14 -115q0 39 35 39q10 0 87 -47t150 -47q74 0 126.5 47t52.5 127q0 132 -107.5 384t-107.5 388q0 137 112.5 288t275 264.5t257.5 113.5q58 0 101.5 -39.5t43.5 -95.5q0 -80 -55 -80q-2 0 -48 59.5t-120 59.5t-126 -48.5t-52 -128.5q0 -137 111.5 -402t111.5 -383 t-61 -212q-90 -139 -281.5 -292.5t-327.5 -153.5q-73 0 -125.5 44.5t-52.5 114.5zM373 866q0 -154 101 -395t101 -328t-6 -133l4 -4q158 143 158 326q0 114 -100.5 365.5t-100.5 293.5q0 144 19 183l-8 4q-168 -158 -168 -312z" />
<glyph unicode="&#xa8;" horiz-adv-x="909" d="M402 1100q0 52 35 88.5t79 36.5q85 0 85 -90q0 -57 -33.5 -91t-78.5 -34q-87 0 -87 90zM759 1100q0 52 35 88.5t79 36.5q85 0 85 -90q0 -57 -33.5 -91t-78.5 -34q-87 0 -87 90z" />
<glyph unicode="&#xa9;" horiz-adv-x="1565" d="M74 748q0 299 211 509.5t510 210.5t510 -210.5t211 -509.5t-211 -510t-510 -211t-510 211t-211 510zM144 747q0 -268 191 -459t461 -191t459.5 189.5t189.5 460t-190.5 461t-459 190.5t-460 -191.5t-191.5 -459.5zM430 737q0 173 108 284.5t267 111.5q75 0 150 -15.5 t86 -15.5q16 -35 16 -166q0 -8 -18 -8.5t-19 6.5q-17 161 -218 161q-115 0 -191.5 -102.5t-76.5 -223.5q2 -176 87.5 -264.5t178.5 -88.5q196 0 242 144q1 6 17.5 6t18.5 -12q-8 -82 -48 -144q-28 -6 -41 -10q-78 -24 -196 -24q-155 0 -259 105t-104 256z" />
<glyph unicode="&#xaa;" horiz-adv-x="642" d="M51 936q0 148 122 320.5t258 172.5q51 0 94 -39l16 49q6 17 47 17q37 0 37 -13q0 -2 -1 -4l-132 -460q-7 -24 -7 -41q0 -29 22 -29q24 0 91 66q7 7 20 -7q10 -10 10 -16q0 -3 -2 -6q-46 -56 -102.5 -92t-97.5 -36q-43 0 -43 55q0 40 17 85l30 80l-9 3 q-167 -223 -283 -223q-42 0 -64.5 33.5t-22.5 84.5zM155 961q0 -66 42 -66q38 0 108.5 70.5t110 131t57.5 121.5l32 106q-30 59 -92 59q-96 0 -177 -154.5t-81 -267.5z" />
<glyph unicode="&#xab;" horiz-adv-x="887" d="M96 417.5q0 26.5 42 60.5l383 312q4 3 9 3q23 0 23 -24q0 -5 -4 -9l-276 -294q-25 -27 -25 -52t7 -41l117 -279q4 -10 -11.5 -23.5t-24 -13.5t-11.5 3l-216 312q-13 19 -13 45.5zM447 417.5q0 26.5 42 60.5l383 312q4 3 9 3q23 0 23 -24q0 -5 -3 -9l-277 -294 q-25 -27 -25 -52t7 -41l117 -279q4 -10 -11 -23.5t-24 -13.5t-12 3l-216 312q-13 19 -13 45.5z" />
<glyph unicode="&#xac;" horiz-adv-x="1366" d="M0 537v120h1366v-657h-123v537h-1243z" />
<glyph unicode="&#xad;" horiz-adv-x="827" d="M166 506q0 19 14 57.5t25 38.5h573q6 0 6 -18.5t-14.5 -57.5t-26.5 -39h-571q-6 0 -6 19z" />
<glyph unicode="&#xae;" horiz-adv-x="1565" d="M74 748q0 299 211 509.5t510 210.5t510 -210.5t211 -509.5t-211 -510t-510 -211t-510 211t-211 510zM144 747q0 -268 191 -459t461 -191t459.5 189.5t189.5 460t-190.5 461t-459 190.5t-460 -191.5t-191.5 -459.5zM488 1097.5q0 20.5 8 20.5q70 -4 144 -4t165 3 q128 0 203 -52.5t75 -146.5q0 -144 -157 -187q-9 -2 -9 -9.5t9 -21.5q75 -134 192 -245q60 -57 100 -57q8 0 8 -8.5t-8 -10.5q-112 -7 -173 32.5t-119 121.5l-80 118q-37 46 -45.5 52.5t-39.5 6.5t-50 1.5t-20 -11.5v-211q0 -62 104 -62q8 0 8 -20.5t-8 -20.5q-45 4 -145 4 t-149 -4q-8 0 -8 20.5t8 20.5q96 0 96 62v530q0 58 -101 58q-8 0 -8 20.5zM691 768q0 -26 78 -26q206 0 206 176q0 70 -56.5 118t-142 48t-85.5 -16v-300z" />
<glyph unicode="&#xaf;" horiz-adv-x="608" d="M271 1081.5q0 17.5 12 47t23 29.5h451q6 0 6 -15t-13.5 -47t-25.5 -32h-446q-7 0 -7 17.5z" />
<glyph unicode="&#xb0;" horiz-adv-x="629" d="M215 1045q0 119 79.5 192.5t194.5 73.5t195 -73.5t80 -192.5t-78.5 -191t-196 -72t-196 72t-78.5 191zM330 1047q0 -87 45 -140t114 -53t114.5 53t45.5 140t-46 139.5t-114.5 52.5t-113.5 -52.5t-45 -139.5z" />
<glyph unicode="&#xb1;" horiz-adv-x="1024" d="M119 2v100h788v-100h-788zM119 596v100h334v336h120v-336h334v-100h-334v-371h-120v371h-334z" />
<glyph unicode="&#xb2;" horiz-adv-x="728" d="M53 555q0 10 9 17q187 154 315 280t194 219t66 161q0 53 -30.5 78.5t-75.5 25.5q-97 0 -195 -120q-3 -3 -12 -3t-15.5 7.5t-6.5 10.5t2 5q58 77 139.5 130.5t167.5 53.5q71 0 111.5 -43t40.5 -110q0 -93 -78.5 -194.5t-449.5 -413.5q-15 -13 -15 -21t18 -8h196 q105 0 156 38q23 17 43 44q3 4 19 4t16 -12q0 -2 -1 -3l-104 -145q-16 -21 -40 -21q-81 5 -221.5 5t-226.5 -5q-22 0 -22 20z" />
<glyph unicode="&#xb3;" horiz-adv-x="720" d="M115 607q0 31 25 48.5t46 17.5t52 -49t83 -49q84 0 150.5 96.5t66.5 187.5q0 136 -142 136q-43 0 -77 -10q-5 0 -5 15t7 26.5t12 11.5q108 0 195 60t87 158q0 47 -27 70.5t-67 23.5q-79 0 -161 -91q-2 -2 -9.5 -2t-13.5 10t-6 13t2 6q125 134 251 134q64 0 100.5 -37.5 t36.5 -94.5q0 -148 -175 -232q-26 -12 -26 -17t16 -9q120 -27 120 -144q0 -140 -120.5 -250.5t-270.5 -110.5t-150 82z" />
<glyph unicode="&#xb4;" horiz-adv-x="918" d="M325 948q0 19 13 37l248 339q6 9 26 9t42 -27t22 -36t-3 -12l-274 -303q-24 -26 -49 -26t-25 19z" />
<glyph unicode="&#xb5;" horiz-adv-x="991" d="M-32 -528q0 29 12 69l309 1084q6 21 6 41q0 45 -29 45q-22 0 -108 -86q-9 -9 -30 7t-11 30q154 190 268 190q55 0 55 -82q0 -45 -10 -80l-102 -356q-41 -143 -41 -188q0 -44 28 -44q44 0 158 120t205.5 277.5t144.5 329.5q7 23 68 23t54 -24l-177 -625q-12 -42 -12 -62 q0 -39 30 -39q36 0 129 93q9 9 31 -10q21 -16 11 -28q-163 -184 -285 -184q-58 0 -58 90q0 35 11 74l82 287q-160 -202 -213 -259q-176 -192 -263 -192q-14 0 -29 4q-28 -62 -42 -142.5t-10 -134t4 -97.5q0 -160 -146 -160q-40 0 -40 29z" />
<glyph unicode="&#xb6;" horiz-adv-x="997" d="M86 970q0 205 179 345.5t389 140.5q237 -4 323 -4t166 4q10 0 10 -13.5t-5 -29.5t-20 -15q-119 0 -139 -74l-434 -1607q-4 -16 -50.5 -16t-42.5 14l436 1609q3 11 3 24q0 50 -59 50q-88 0 -108 -74l-436 -1609q-4 -14 -50 -14t-42 14l263 962q-208 0 -295.5 80.5 t-87.5 212.5z" />
<glyph unicode="&#xb7;" horiz-adv-x="520" d="M195 515.5q0 52.5 33.5 87t88.5 34.5t88 -35t33 -87t-35 -84t-83 -32t-86.5 32t-38.5 84.5z" />
<glyph unicode="&#xb8;" horiz-adv-x="737" d="M72 -358q0 49 51 49q20 0 50 -30t42 -30q57 0 57 71q0 63 -91 111q-21 12 -8 30l118 157h67l-61 -80q-18 -23 10 -45q76 -61 76 -131q0 -71 -66 -119.5t-143 -48.5q-102 0 -102 66z" />
<glyph unicode="&#xb9;" horiz-adv-x="676" d="M139 545q0 10 3.5 18.5t13.5 8.5q83 0 112 22.5t54 117.5l154 574q3 12 3 18q0 12 -8.5 12t-17.5 -4l-94 -38q-10 -4 -12 10.5t7 19.5q106 46 248 138q10 5 16 5t6 -7q-23 -65 -37 -116l-163 -611q-18 -66 -18 -95t20.5 -37.5t76.5 -8.5q7 0 7 -10t-3 -18.5t-13 -8.5 q-57 5 -174.5 5t-173.5 -5q-7 0 -7 10z" />
<glyph unicode="&#xba;" horiz-adv-x="586" d="M62 1051q0 137 106 261t233 124q85 0 127.5 -60t42.5 -162q0 -150 -96.5 -273.5t-242.5 -123.5q-87 0 -128.5 64.5t-41.5 169.5zM144 999q0 -115 94 -115q77 0 165.5 131.5t88.5 234.5q0 127 -91 127q-82 0 -169.5 -134t-87.5 -244z" />
<glyph unicode="&#xbb;" horiz-adv-x="803" d="M32 81q0 5 4 9l277 294q25 26 25 51.5t-7 41.5l-117 279q-5 10 10.5 23.5t24.5 13.5t11 -3l216 -312q14 -19 14 -45.5t-42 -60.5l-383 -312q-5 -3 -10 -3q-23 0 -23 24zM384 81q0 5 3 9l277 294q25 26 25 51.5t-7 41.5l-117 279q-4 10 11 23.5t24 13.5t12 -3l216 -312 q13 -19 13 -45.5t-42 -60.5l-383 -312q-4 -3 -10 -3q-22 0 -22 24z" />
<glyph unicode="&#xbc;" horiz-adv-x="1690" d="M124 529.5q0 9.5 3 17.5t13 8q78 0 105 21.5t51 109.5l144 540q3 11 3 17q0 11 -7.5 11t-17.5 -4l-88 -36q-9 -3 -11 10.5t6 17.5q100 44 234 130q9 5 15 5t6 -6q-22 -61 -35 -109l-154 -575q-17 -62 -17 -89t19.5 -35t72.5 -8q6 0 6 -9t-2.5 -17.5t-12.5 -8.5 q-53 5 -163.5 5t-163.5 -5q-6 0 -6 9.5zM269 -44.5q0 11.5 4 15.5l1141 1368q4 4 14.5 4t29 -16.5t18.5 -25.5t-3 -13l-1144 -1370q-5 -6 -17 -6t-27.5 16t-15.5 27.5zM1001 264q0 18 45 63l192 191q233 234 368 382q9 8 34 8t25 -15q0 -3 -1 -4l-561 -568q-9 -9 -9 -15 t14 -6h247q12 0 16 13l75 282q3 9 50.5 9t47.5 -9l-75 -282q-4 -13 9 -13h75q5 0 5 -14.5t-7.5 -27t-12.5 -12.5h-75q-13 0 -16 -13l-42 -155q-2 -7 -2 -13q0 -36 64 -36q7 0 7 -10t-3 -18t-13 -8q-54 5 -136.5 5t-135.5 -5q-7 0 -7 10t3.5 18t12.5 8q100 0 113 49l42 155 q3 13 -10 13h-302q-37 0 -37 18z" />
<glyph unicode="&#xbd;" horiz-adv-x="1690" d="M127 528.5q0 9.5 3 18t13 8.5q79 0 106 21t51 111l146 547q4 11 4 16q0 12 -8 12t-18 -5l-89 -35q-9 -4 -11 10t6 18q101 44 237 131q9 5 14.5 5t5.5 -6q-22 -62 -35 -111l-155 -581q-17 -62 -17 -90t19.5 -35.5t73.5 -7.5q6 0 6 -9.5t-3 -18t-13 -8.5q-53 5 -165 5 t-165 -5q-6 0 -6 9.5zM232 -44.5q0 11.5 4 15.5l1141 1368q4 4 14.5 4t29 -16.5t18.5 -25.5t-3 -13l-1144 -1370q-5 -6 -17 -6t-27.5 16t-15.5 27.5zM973 12q0 10 9 16q177 145 297 263.5t182.5 206.5t62.5 152q0 50 -29 74t-72 24q-90 0 -183 -113q-3 -3 -11 -3t-14.5 7.5 t-6.5 10t2 3.5q55 73 131.5 123.5t157.5 50.5q67 0 105 -40.5t38 -103.5q0 -88 -73.5 -183.5t-423.5 -389.5q-14 -12 -14 -19.5t16 -7.5h185q99 0 147 36q22 15 41 41q2 4 17.5 4t15.5 -12q0 -2 -1 -2l-98 -136q-15 -21 -38 -21q-76 5 -208.5 5t-213.5 -5q-21 0 -21 19z" />
<glyph unicode="&#xbe;" horiz-adv-x="1690" d="M71 525q0 32 25.5 49t46.5 17t53 -49.5t84 -49.5q85 0 152.5 98t67.5 190q0 138 -144 138q-44 0 -78 -10q-5 0 -5 15t7 26.5t12 11.5q110 0 198 61t88 161q0 47 -27 71t-68 24q-80 0 -163 -92q-2 -2 -9.5 -2t-14 9.5t-6.5 13t2 6.5q127 136 254 136q65 0 102 -38t37 -96 q0 -150 -177 -235q-27 -13 -27 -18t17 -9q122 -27 122 -146q0 -141 -122 -253t-274.5 -112t-152.5 83zM276 -44.5q0 11.5 4 15.5l1141 1368q4 4 14.5 4t29 -16.5t18.5 -25.5t-3 -13l-1144 -1370q-5 -6 -17 -6t-27.5 16t-15.5 27.5zM936 288.5q0 19.5 42 68.5l174 207 q212 254 335 415q8 8 30.5 8t22.5 -16v-4l-511 -617q-8 -9 -8 -15.5t13 -6.5h224q12 0 15 14l69 305q2 11 45 11t43 -11l-68 -305q-3 -14 8 -14h68q5 0 5 -16t-7 -29.5t-11 -13.5h-68q-12 0 -15 -14l-38 -168q-1 -7 -1 -14q0 -39 58 -39q5 0 5 -11t-2.5 -19.5t-11.5 -8.5 q-49 5 -124 5t-124 -5q-5 0 -5 11t3 19.5t11 8.5q91 0 103 53l38 168q3 14 -9 14h-275q-34 0 -34 19.5z" />
<glyph unicode="&#xbf;" horiz-adv-x="678" d="M-104 -219q0 115 52.5 206t98.5 112l191 88q88 40 100 90q16 45 17 125q0 13 22.5 17.5t24.5 -5.5q24 -88 24 -149q0 -137 -166 -213l-120 -56q-170 -78 -170 -211q0 -139 243 -139q16 0 32.5 -19.5t16.5 -46.5q0 -44 -36 -73t-76 -29q-103 0 -178.5 94t-75.5 209z M350 754.5q0 48.5 33.5 79.5t90.5 31t88 -37t31 -80t-32 -81t-92 -38t-89.5 38.5t-29.5 87z" />
<glyph unicode="&#xc0;" horiz-adv-x="1108" d="M-132 13q0 20 11 38t17 18q76 0 126 22t110 110l674 998q16 23 16 38q0 7 -8 18t-8 18q0 10 25 20q98 39 145.5 65.5t63.5 26.5q15 0 15 -18q0 -7 -8.5 -45t-20.5 -143l-117 -993q-1 -7 -1 -21q0 -96 144 -96q8 0 8 -21t-11.5 -38t-16.5 -17q-88 7 -213 7t-212 -7 q-8 0 -7.5 20.5t11.5 38t18 17.5q81 0 109 30.5t35 86.5l37 310q4 35 -28 35h-310q-31 0 -48 -25l-210 -324q-23 -35 -23 -58q0 -55 132 -55q7 0 7 -21t-11 -38t-17 -17q-86 7 -213 7t-213 -7q-8 0 -8 20zM495 609.5q0 -9.5 19 -9.5h275q32 0 35 29l62 530q1 9 -12 9 q-12 0 -18 -9l-353 -530q-8 -10 -8 -19.5zM537 1800q0 16 10 37q21 41 46 41q11 0 22 -7l464 -279q32 -19 32 -40q0 -6 -3 -12q-8 -16 -25 -16q-12 0 -29 8l-487 226q-30 14 -30 42z" />
<glyph unicode="&#xc1;" horiz-adv-x="1108" d="M-132 13q0 20 11 38t17 18q76 0 126 22t110 110l674 998q16 23 16 38q0 7 -8 18t-8 18q0 10 25 20q98 39 145.5 65.5t63.5 26.5q15 0 15 -18q0 -7 -8.5 -45t-20.5 -143l-117 -993q-1 -7 -1 -21q0 -96 144 -96q8 0 8 -21t-11.5 -38t-16.5 -17q-88 7 -213 7t-212 -7 q-8 0 -7.5 20.5t11.5 38t18 17.5q81 0 109 30.5t35 86.5l37 310q4 35 -28 35h-310q-31 0 -48 -25l-210 -324q-23 -35 -23 -58q0 -55 132 -55q7 0 7 -21t-11 -38t-17 -17q-86 7 -213 7t-213 -7q-8 0 -8 20zM495 609.5q0 -9.5 19 -9.5h275q32 0 35 29l62 530q1 9 -12 9 q-12 0 -18 -9l-353 -530q-8 -10 -8 -19.5zM789 1553q0 20 32 39l465 279q11 7 21 7q25 0 45 -41q11 -21 11 -38q0 -27 -29 -41l-488 -226q-17 -8 -29 -8q-17 0 -24 16q-4 6 -4 13z" />
<glyph unicode="&#xc2;" horiz-adv-x="1108" d="M-132 13q0 20 11 38t17 18q76 0 126 22t110 110l674 998q16 23 16 38q0 7 -8 18t-8 18q0 10 25 20q98 39 145.5 65.5t63.5 26.5q15 0 15 -18q0 -7 -8.5 -45t-20.5 -143l-117 -993q-1 -7 -1 -21q0 -96 144 -96q8 0 8 -21t-11.5 -38t-16.5 -17q-88 7 -213 7t-212 -7 q-8 0 -7.5 20.5t11.5 38t18 17.5q81 0 109 30.5t35 86.5l37 310q4 35 -28 35h-310q-31 0 -48 -25l-210 -324q-23 -35 -23 -58q0 -55 132 -55q7 0 7 -21t-11 -38t-17 -17q-86 7 -213 7t-213 -7q-8 0 -8 20zM495 609.5q0 -9.5 19 -9.5h275q32 0 35 29l62 530q1 9 -12 9 q-12 0 -18 -9l-353 -530q-8 -10 -8 -19.5zM710 1544q0 6 4 11l304 233q26 20 46.5 20t35.5 -20l182 -233q2 -3 2 -5q0 -7 -10 -17q-10 -9 -17 -9q-3 0 -6 2l-195 130q-17 12 -28.5 12t-34.5 -12l-260 -130l-7 -2q-8 0 -13 9q-3 6 -3 11z" />
<glyph unicode="&#xc3;" horiz-adv-x="1108" d="M-132 13q0 20 11 38t17 18q76 0 126 22t110 110l674 998q16 23 16 38q0 7 -8 18t-8 18q0 10 25 20q98 39 145.5 65.5t63.5 26.5q15 0 15 -18q0 -7 -8.5 -45t-20.5 -143l-117 -993q-1 -7 -1 -21q0 -96 144 -96q8 0 8 -21t-11.5 -38t-16.5 -17q-88 7 -213 7t-212 -7 q-8 0 -7.5 20.5t11.5 38t18 17.5q81 0 109 30.5t35 86.5l37 310q4 35 -28 35h-310q-31 0 -48 -25l-210 -324q-23 -35 -23 -58q0 -55 132 -55q7 0 7 -21t-11 -38t-17 -17q-86 7 -213 7t-213 -7q-8 0 -8 20zM495 609.5q0 -9.5 19 -9.5h275q32 0 35 29l62 530q1 9 -12 9 q-12 0 -18 -9l-353 -530q-8 -10 -8 -19.5zM673 1546q38 197 181 197q48 0 146.5 -43t142.5 -43q33 0 60.5 30.5t31.5 63.5h49q-19 -79 -64.5 -140t-114.5 -61q-46 0 -146.5 44t-136.5 44q-40 0 -66 -26t-34 -66h-49z" />
<glyph unicode="&#xc4;" horiz-adv-x="1108" d="M-132 13q0 20 11 38t17 18q76 0 126 22t110 110l674 998q16 23 16 38q0 7 -8 18t-8 18q0 10 25 20q98 39 145.5 65.5t63.5 26.5q15 0 15 -18q0 -7 -8.5 -45t-20.5 -143l-117 -993q-1 -7 -1 -21q0 -96 144 -96q8 0 8 -21t-11.5 -38t-16.5 -17q-88 7 -213 7t-212 -7 q-8 0 -7.5 20.5t11.5 38t18 17.5q81 0 109 30.5t35 86.5l37 310q4 35 -28 35h-310q-31 0 -48 -25l-210 -324q-23 -35 -23 -58q0 -55 132 -55q7 0 7 -21t-11 -38t-17 -17q-86 7 -213 7t-213 -7q-8 0 -8 20zM495 609.5q0 -9.5 19 -9.5h275q32 0 35 29l62 530q1 9 -12 9 q-12 0 -18 -9l-353 -530q-8 -10 -8 -19.5zM698 1639q0 53 35 89.5t80 36.5q85 0 85 -90q0 -57 -34 -91t-79 -34q-87 0 -87 89zM1098 1639q0 53 34.5 89.5t79.5 36.5q85 0 85 -90q0 -57 -33.5 -91t-78.5 -34q-87 0 -87 89z" />
<glyph unicode="&#xc5;" horiz-adv-x="1108" d="M-132 13q0 20 11 38t17 18q76 0 126 22t110 110l782 1158q-86 53 -86 153q0 71 55 125.5t141 54.5q84 0 135 -54.5t51 -137.5q0 -60 -47.5 -109.5t-112.5 -58.5q-15 -89 -24 -153l-117 -993q-1 -7 -1 -21q0 -96 144 -96q8 0 8 -21t-10.5 -36.5t-17.5 -18.5q-88 7 -213 7 t-212 -7q-7 0 -7 20.5t11 38t18 17.5q76 0 106.5 28.5t37.5 88.5l37 310q4 35 -28 35h-310q-31 0 -48 -25l-210 -324q-23 -35 -23 -58q0 -55 132 -55q7 0 7 -21t-11 -38t-17 -17q-86 7 -213 7t-213 -7q-8 0 -8 20zM503 629q-19 -29 11 -29h275q31 0 35 29l62 530q0 9 -12 9 t-18 -9zM918 1512q0 -54 30.5 -86.5t70.5 -32.5q50 0 75.5 35.5t25.5 83.5t-27 83t-74 35t-74 -35.5t-27 -82.5z" />
<glyph unicode="&#xc6;" horiz-adv-x="1780" d="M-159 13.5q0 20.5 11 38t18 17.5q83 0 122.5 25t104.5 101l852 1001q33 39 33 58q0 28 -74 28q-10 0 -10 21t11.5 38t18.5 17q155 -4 264 -4q272 0 649 4q62 0 62 -20q0 -6 -2 -13l-93 -319q-4 -14 -45 -14t-37 14q18 72 18 111q0 162 -199 166l-277 6q-21 0 -27 -22 l-160 -559q-3 -11 -3 -18q0 -14 21 -14h221q64 0 86 14t38 74l27 100q4 15 40 15t33 -15q-85 -247 -123 -428q-3 -15 -37 -15t-31 12l26 94q11 40 11 48q0 32 -91 32h-220q-27 0 -34 -24l-81 -283q-27 -94 -27 -139q0 -99 113 -99h12l229 7q251 8 329 275q5 14 45.5 13.5 t36.5 -13.5l-94 -325q-8 -26 -28 -26h-75q-407 7 -677 7q-150 0 -265 -7q-7 0 -7 21.5t10.5 38t16.5 16.5q95 0 138.5 20t63.5 88l113 393q5 16 5 25q0 12 -23 12h-328q-25 0 -38 -17l-332 -422q-31 -39 -31 -64.5t33 -30t106 -4.5q8 0 8 -21t-11 -38t-17 -17q-87 7 -207 7 t-214 -7q-8 0 -8 20.5zM602.5 682.5q0.5 -7.5 14.5 -6.5h287q26 0 32 24l141 496q3 9 3 20.5t-13 11.5t-34 -25l-424 -505q-7 -8 -6.5 -15.5z" />
<glyph unicode="&#xc7;" horiz-adv-x="1470" d="M215 458q0 355 290.5 641t643.5 286q147 0 238.5 -21.5t185.5 -36.5q-15 -158 -59 -308q-8 -17 -39.5 -17t-30.5 12q8 60 8 78q0 102 -75 162t-243 60q-318 0 -537 -273t-219 -582q0 -176 102 -293.5t275 -117.5q175 0 293 55t166 115.5t71 98.5q7 10 36 10t29 -19 q0 -20 -71 -132t-96 -140q-34 -5 -82 -17q-174 -46 -389 -46t-356 130t-141 355zM522 -358q0 49 51 49q20 0 50 -30t42 -30q57 0 57 71q0 63 -91 111q-21 12 -8 30l118 157h67l-61 -80q-18 -23 10 -45q76 -61 76 -131q0 -71 -66 -119.5t-143 -48.5q-102 0 -102 66z" />
<glyph unicode="&#xc8;" horiz-adv-x="1255" d="M21 11q0 18 11 38t17 20q95 0 143 21t70 96l283 986q4 14 4 33q0 77 -157 77q-8 0 -8 19.5t11 38t17 18.5q133 -4 275.5 -4t327 2t328.5 2q62 0 62 -22q0 -5 -3 -16l-88 -310q-4 -14 -43.5 -14t-36.5 14q11 56 11 78q0 95 -64 142t-127 50q-213 9 -303 9q-29 0 -35 -22 l-160 -554q-2 -9 -2 -15q0 -22 29 -22h192q69 0 91 12q35 18 51 76l27 100q4 15 40 15t33 -15q-88 -251 -123 -428q-4 -15 -37.5 -15t-29.5 16l25 90q7 25 7 39q0 41 -103 41h-198q-33 0 -40 -26l-81 -281q-27 -94 -27 -140q0 -99 114 -99l240 8q233 8 328 275q5 14 46 14 t37 -14l-94 -325q-8 -26 -28 -26q-45 0 -289.5 3.5t-423 3.5t-311.5 -7q-8 0 -8 18zM662 1800q0 16 10 37q21 41 46 41q11 0 22 -7l464 -279q32 -19 32 -40q0 -6 -3 -12q-8 -16 -25 -16q-12 0 -29 8l-487 226q-30 14 -30 42z" />
<glyph unicode="&#xc9;" horiz-adv-x="1255" d="M21 11q0 18 11 38t17 20q95 0 143 21t70 96l283 986q4 14 4 33q0 77 -157 77q-8 0 -8 19.5t11 38t17 18.5q133 -4 275.5 -4t327 2t328.5 2q62 0 62 -22q0 -5 -3 -16l-88 -310q-4 -14 -43.5 -14t-36.5 14q11 56 11 78q0 95 -64 142t-127 50q-213 9 -303 9q-29 0 -35 -22 l-160 -554q-2 -9 -2 -15q0 -22 29 -22h192q69 0 91 12q35 18 51 76l27 100q4 15 40 15t33 -15q-88 -251 -123 -428q-4 -15 -37.5 -15t-29.5 16l25 90q7 25 7 39q0 41 -103 41h-198q-33 0 -40 -26l-81 -281q-27 -94 -27 -140q0 -99 114 -99l240 8q233 8 328 275q5 14 46 14 t37 -14l-94 -325q-8 -26 -28 -26q-45 0 -289.5 3.5t-423 3.5t-311.5 -7q-8 0 -8 18zM824 1553q0 20 32 39l465 279q11 7 21 7q25 0 45 -41q11 -21 11 -38q0 -27 -29 -41l-488 -226q-17 -8 -29 -8q-17 0 -24 16q-4 6 -4 13z" />
<glyph unicode="&#xca;" horiz-adv-x="1255" d="M21 11q0 18 11 38t17 20q95 0 143 21t70 96l283 986q4 14 4 33q0 77 -157 77q-8 0 -8 19.5t11 38t17 18.5q133 -4 275.5 -4t327 2t328.5 2q62 0 62 -22q0 -5 -3 -16l-88 -310q-4 -14 -43.5 -14t-36.5 14q11 56 11 78q0 95 -64 142t-127 50q-213 9 -303 9q-29 0 -35 -22 l-160 -554q-2 -9 -2 -15q0 -22 29 -22h192q69 0 91 12q35 18 51 76l27 100q4 15 40 15t33 -15q-88 -251 -123 -428q-4 -15 -37.5 -15t-29.5 16l25 90q7 25 7 39q0 41 -103 41h-198q-33 0 -40 -26l-81 -281q-27 -94 -27 -140q0 -99 114 -99l240 8q233 8 328 275q5 14 46 14 t37 -14l-94 -325q-8 -26 -28 -26q-45 0 -289.5 3.5t-423 3.5t-311.5 -7q-8 0 -8 18zM690 1544q0 6 4 11l304 233q26 20 46.5 20t35.5 -20l182 -233q2 -3 2 -5q0 -7 -10 -17q-10 -9 -17 -9q-3 0 -6 2l-195 130q-17 12 -28.5 12t-34.5 -12l-260 -130l-7 -2q-8 0 -13 9 q-3 6 -3 11z" />
<glyph unicode="&#xcb;" horiz-adv-x="1255" d="M21 11q0 18 11 38t17 20q95 0 143 21t70 96l283 986q4 14 4 33q0 77 -157 77q-8 0 -8 19.5t11 38t17 18.5q133 -4 275.5 -4t327 2t328.5 2q62 0 62 -22q0 -5 -3 -16l-88 -310q-4 -14 -43.5 -14t-36.5 14q11 56 11 78q0 95 -64 142t-127 50q-213 9 -303 9q-29 0 -35 -22 l-160 -554q-2 -9 -2 -15q0 -22 29 -22h192q69 0 91 12q35 18 51 76l27 100q4 15 40 15t33 -15q-88 -251 -123 -428q-4 -15 -37.5 -15t-29.5 16l25 90q7 25 7 39q0 41 -103 41h-198q-33 0 -40 -26l-81 -281q-27 -94 -27 -140q0 -99 114 -99l240 8q233 8 328 275q5 14 46 14 t37 -14l-94 -325q-8 -26 -28 -26q-45 0 -289.5 3.5t-423 3.5t-311.5 -7q-8 0 -8 18zM716 1639q0 53 35 89.5t80 36.5q85 0 85 -90q0 -57 -34 -91t-79 -34q-87 0 -87 89zM1116 1639q0 53 34.5 89.5t79.5 36.5q85 0 85 -90q0 -57 -33.5 -91t-78.5 -34q-87 0 -87 89z" />
<glyph unicode="&#xcc;" horiz-adv-x="729" d="M21 13q0 20 11 38t17 18q88 0 140 21.5t73 95.5l283 986q5 22 5 35q0 80 -156 80q-8 0 -8 21t11 38t17 17q46 -5 255 -5t255 5q8 0 8 -21t-11 -38t-17 -17q-114 0 -156 -27.5t-59 -87.5l-282 -986q-6 -20 -6 -34q0 -83 157 -83q7 0 7 -21.5t-11 -38t-18 -16.5 q-86 7 -253.5 7t-253.5 -7q-8 0 -8 20zM322 1800q0 16 10 37q21 41 46 41q11 0 22 -7l464 -279q32 -19 32 -40q0 -6 -3 -12q-8 -16 -25 -16q-12 0 -29 8l-487 226q-30 14 -30 42z" />
<glyph unicode="&#xcd;" horiz-adv-x="729" d="M21 13q0 20 11 38t17 18q88 0 140 21.5t73 95.5l283 986q5 22 5 35q0 80 -156 80q-8 0 -8 21t11 38t17 17q46 -5 255 -5t255 5q8 0 8 -21t-11 -38t-17 -17q-114 0 -156 -27.5t-59 -87.5l-282 -986q-6 -20 -6 -34q0 -83 157 -83q7 0 7 -21.5t-11 -38t-18 -16.5 q-86 7 -253.5 7t-253.5 -7q-8 0 -8 20zM549 1553q0 20 32 39l465 279q11 7 21 7q25 0 45 -41q11 -21 11 -38q0 -27 -29 -41l-488 -226q-17 -8 -29 -8q-17 0 -24 16q-4 6 -4 13z" />
<glyph unicode="&#xce;" horiz-adv-x="729" d="M21 13q0 20 11 38t17 18q88 0 140 21.5t73 95.5l283 986q5 22 5 35q0 80 -156 80q-8 0 -8 21t11 38t17 17q46 -5 255 -5t255 5q8 0 8 -21t-11 -38t-17 -17q-114 0 -156 -27.5t-59 -87.5l-282 -986q-6 -20 -6 -34q0 -83 157 -83q7 0 7 -21.5t-11 -38t-18 -16.5 q-86 7 -253.5 7t-253.5 -7q-8 0 -8 20zM425 1544q0 6 4 11l304 233q26 20 46.5 20t35.5 -20l182 -233q2 -3 2 -5q0 -7 -10 -17q-10 -9 -17 -9q-3 0 -6 2l-195 130q-17 12 -28.5 12t-34.5 -12l-260 -130l-7 -2q-8 0 -13 9q-3 6 -3 11z" />
<glyph unicode="&#xcf;" horiz-adv-x="729" d="M21 13q0 20 11 38t17 18q88 0 140 21.5t73 95.5l283 986q5 22 5 35q0 80 -156 80q-8 0 -8 21t11 38t17 17q46 -5 255 -5t255 5q8 0 8 -21t-11 -38t-17 -17q-114 0 -156 -27.5t-59 -87.5l-282 -986q-6 -20 -6 -34q0 -83 157 -83q7 0 7 -21.5t-11 -38t-18 -16.5 q-86 7 -253.5 7t-253.5 -7q-8 0 -8 20zM406 1639q0 53 35 89.5t80 36.5q85 0 85 -90q0 -57 -34 -91t-79 -34q-87 0 -87 89zM806 1639q0 53 34.5 89.5t79.5 36.5q85 0 85 -90q0 -57 -33.5 -91t-78.5 -34q-87 0 -87 89z" />
<glyph unicode="&#xd0;" horiz-adv-x="1514" d="M21 13q0 20 11 38t17 18q94 0 144 22t71 95l122 423q7 25 -18 25h-195q-14 0 -14 27t14 38t22 11h195q23 0 31 23l126 439q5 23 5 37q0 73 -162 73q-8 0 -8 21t11 38t17 17q133 -4 248.5 -4t358.5 4q247 0 398 -119t151 -335q0 -327 -266.5 -619t-627.5 -292 q-241 7 -380 7t-263 -7q-8 0 -8 20zM420 181q0 -67 44.5 -97.5t156.5 -30.5q306 0 544.5 264.5t238.5 562.5q0 187 -126 302t-363 115q-121 0 -161.5 -24t-60.5 -92l-130 -448q-7 -23 20 -23h230q18 0 18 -25t-15 -38t-23 -13h-232q-27 0 -34 -27l-88 -309q-19 -70 -19 -117 z" />
<glyph unicode="&#xd1;" horiz-adv-x="1539" d="M21 13q0 20 11 38t17 18q90 0 138 21t69 96l264 928q14 50 14 98t-48 65q-30 10 -96 10q-8 0 -8 21t11 38t17 17q48 -5 130.5 -5t111 -4.5t46.5 -41.5l490 -1024q14 -28 30 -28t23 30l257 882q7 24 7 44q0 71 -149 71q-7 0 -7 20t12 38t18 18q47 -5 193 -5t193 5 q7 0 7 -21t-11 -38t-17 -17q-78 0 -117 -19.5t-61 -95.5l-334 -1168q-9 -33 -25.5 -33t-31.5 29l-539 1117q-9 20 -25.5 20t-23.5 -31l-262 -920q-8 -27 -8 -45q0 -72 133 -72q8 0 8 -21t-11 -38t-17 -17q-86 7 -200.5 7t-200.5 -7q-8 0 -8 20zM785 1546q38 197 181 197 q48 0 146.5 -43t142.5 -43q33 0 60.5 30.5t31.5 63.5h49q-19 -79 -64.5 -140t-114.5 -61q-46 0 -146.5 44t-136.5 44q-40 0 -66 -26t-34 -66h-49z" />
<glyph unicode="&#xd2;" horiz-adv-x="1478" d="M217 441q0 361 276.5 652.5t585.5 291.5q219 0 337 -144.5t118 -354.5q0 -350 -275 -631.5t-587 -281.5q-177 0 -316 112t-139 356zM380 456q0 -179 100.5 -294.5t226.5 -115.5q211 0 361.5 148t226.5 344t76 368q0 173 -96.5 290t-243.5 118q-157 0 -314.5 -133 t-247 -328.5t-89.5 -396.5zM712 1800q0 16 10 37q21 41 46 41q11 0 22 -7l464 -279q32 -19 32 -40q0 -6 -3 -12q-8 -16 -25 -16q-12 0 -29 8l-487 226q-30 14 -30 42z" />
<glyph unicode="&#xd3;" horiz-adv-x="1478" d="M217 441q0 361 276.5 652.5t585.5 291.5q219 0 337 -144.5t118 -354.5q0 -350 -275 -631.5t-587 -281.5q-177 0 -316 112t-139 356zM380 456q0 -179 100.5 -294.5t226.5 -115.5q211 0 361.5 148t226.5 344t76 368q0 173 -96.5 290t-243.5 118q-157 0 -314.5 -133 t-247 -328.5t-89.5 -396.5zM929 1553q0 20 32 39l465 279q11 7 21 7q25 0 45 -41q11 -21 11 -38q0 -27 -29 -41l-488 -226q-17 -8 -29 -8q-17 0 -24 16q-4 6 -4 13z" />
<glyph unicode="&#xd4;" horiz-adv-x="1478" d="M217 441q0 361 276.5 652.5t585.5 291.5q219 0 337 -144.5t118 -354.5q0 -350 -275 -631.5t-587 -281.5q-177 0 -316 112t-139 356zM380 456q0 -179 100.5 -294.5t226.5 -115.5q211 0 361.5 148t226.5 344t76 368q0 173 -96.5 290t-243.5 118q-157 0 -314.5 -133 t-247 -328.5t-89.5 -396.5zM825 1544q0 6 4 11l304 233q26 20 46.5 20t35.5 -20l182 -233q2 -3 2 -5q0 -7 -10 -17q-10 -9 -17 -9q-3 0 -6 2l-195 130q-17 12 -28.5 12t-34.5 -12l-260 -130l-7 -2q-8 0 -13 9q-3 6 -3 11z" />
<glyph unicode="&#xd5;" horiz-adv-x="1478" d="M217 441q0 361 276.5 652.5t585.5 291.5q219 0 337 -144.5t118 -354.5q0 -350 -275 -631.5t-587 -281.5q-177 0 -316 112t-139 356zM380 456q0 -179 100.5 -294.5t226.5 -115.5q211 0 361.5 148t226.5 344t76 368q0 173 -96.5 290t-243.5 118q-157 0 -314.5 -133 t-247 -328.5t-89.5 -396.5zM827 1546q38 197 181 197q48 0 146.5 -43t142.5 -43q33 0 60.5 30.5t31.5 63.5h49q-19 -79 -64.5 -140t-114.5 -61q-46 0 -146.5 44t-136.5 44q-40 0 -66 -26t-34 -66h-49z" />
<glyph unicode="&#xd6;" horiz-adv-x="1478" d="M217 441q0 361 276.5 652.5t585.5 291.5q219 0 337 -144.5t118 -354.5q0 -350 -275 -631.5t-587 -281.5q-177 0 -316 112t-139 356zM380 456q0 -179 100.5 -294.5t226.5 -115.5q211 0 361.5 148t226.5 344t76 368q0 173 -96.5 290t-243.5 118q-157 0 -314.5 -133 t-247 -328.5t-89.5 -396.5zM820 1639q0 53 35 89.5t80 36.5q85 0 85 -90q0 -57 -34 -91t-79 -34q-87 0 -87 89zM1220 1639q0 53 34.5 89.5t79.5 36.5q85 0 85 -90q0 -57 -33.5 -91t-78.5 -34q-87 0 -87 89z" />
<glyph unicode="&#xd7;" horiz-adv-x="973" d="M164 104l301 308l-301 303l76 82l303 -308l305 312l76 -80l-303 -309l303 -308l-76 -81l-305 311l-303 -311z" />
<glyph unicode="&#xd8;" horiz-adv-x="1478" d="M128 -37q0 3 2 5l168 180q-81 116 -81 293q0 390 326 702q254 242 536 242q172 0 284 -91l125 133q2 2 5 2q13 0 33 -19q19 -16 19 -29q0 -4 -1 -5l-127 -136l6 -8q111 -135 111 -346q0 -350 -285 -642q-265 -271 -577 -271q-186 0 -323 118l-163 -175q-3 -3 -7 -3 q-13 0 -32 19q-19 18 -19 31zM380 464q0 -103 33 -191l861 925q-93 115 -235 117q-155 0 -299 -116q-177 -142 -275 -355q-85 -191 -85 -380zM450 201q48 -76 127 -119q66 -36 130 -36q211 0 374 159q138 137 219 347q71 182 71 334q0 137 -55 245z" />
<glyph unicode="&#xd9;" horiz-adv-x="1482" d="M295 263q0 102 49 276l181 633q8 29 8 46q0 44 -35.5 56.5t-105.5 12.5q-9 0 -9 22.5t10.5 38t16.5 15.5q48 -5 245 -5t243 5q7 0 7 -21.5t-11 -38t-17 -16.5q-127 0 -159 -31t-47 -84l-140 -485q-89 -316 -89 -419t70.5 -161t197.5 -58q199 0 328.5 104t195.5 334 l197 685q6 22 6 41q0 74 -138 74q-7 0 -7 21t11 38t17 17q70 -5 228.5 -5t204.5 5q8 0 8 -21t-11 -38t-17 -17q-88 0 -132.5 -22t-64.5 -93l-80 -282q-110 -387 -183 -544t-226 -265t-382 -108q-183 0 -276.5 69.5t-93.5 220.5zM668 1800q0 16 10 37q21 41 46 41q11 0 22 -7 l464 -279q32 -19 32 -40q0 -6 -3 -12q-8 -16 -25 -16q-12 0 -29 8l-487 226q-30 14 -30 42z" />
<glyph unicode="&#xda;" horiz-adv-x="1482" d="M295 263q0 102 49 276l181 633q8 29 8 46q0 44 -35.5 56.5t-105.5 12.5q-9 0 -9 22.5t10.5 38t16.5 15.5q48 -5 245 -5t243 5q7 0 7 -21.5t-11 -38t-17 -16.5q-127 0 -159 -31t-47 -84l-140 -485q-89 -316 -89 -419t70.5 -161t197.5 -58q199 0 328.5 104t195.5 334 l197 685q6 22 6 41q0 74 -138 74q-7 0 -7 21t11 38t17 17q70 -5 228.5 -5t204.5 5q8 0 8 -21t-11 -38t-17 -17q-88 0 -132.5 -22t-64.5 -93l-80 -282q-110 -387 -183 -544t-226 -265t-382 -108q-183 0 -276.5 69.5t-93.5 220.5zM973 1553q0 20 32 39l465 279q11 7 21 7 q25 0 45 -41q11 -21 11 -38q0 -27 -29 -41l-488 -226q-17 -8 -29 -8q-17 0 -24 16q-4 6 -4 13z" />
<glyph unicode="&#xdb;" horiz-adv-x="1482" d="M295 263q0 102 49 276l181 633q8 29 8 46q0 44 -35.5 56.5t-105.5 12.5q-9 0 -9 22.5t10.5 38t16.5 15.5q48 -5 245 -5t243 5q7 0 7 -21.5t-11 -38t-17 -16.5q-127 0 -159 -31t-47 -84l-140 -485q-89 -316 -89 -419t70.5 -161t197.5 -58q199 0 328.5 104t195.5 334 l197 685q6 22 6 41q0 74 -138 74q-7 0 -7 21t11 38t17 17q70 -5 228.5 -5t204.5 5q8 0 8 -21t-11 -38t-17 -17q-88 0 -132.5 -22t-64.5 -93l-80 -282q-110 -387 -183 -544t-226 -265t-382 -108q-183 0 -276.5 69.5t-93.5 220.5zM849 1544q0 6 4 11l304 233q26 20 46.5 20 t35.5 -20l182 -233q2 -3 2 -5q0 -7 -10 -17q-10 -9 -17 -9q-3 0 -6 2l-195 130q-17 12 -28.5 12t-34.5 -12l-260 -130l-7 -2q-8 0 -13 9q-3 6 -3 11z" />
<glyph unicode="&#xdc;" horiz-adv-x="1482" d="M295 263q0 102 49 276l181 633q8 29 8 46q0 44 -35.5 56.5t-105.5 12.5q-9 0 -9 22.5t10.5 38t16.5 15.5q48 -5 245 -5t243 5q7 0 7 -21.5t-11 -38t-17 -16.5q-127 0 -159 -31t-47 -84l-140 -485q-89 -316 -89 -419t70.5 -161t197.5 -58q199 0 328.5 104t195.5 334 l197 685q6 22 6 41q0 74 -138 74q-7 0 -7 21t11 38t17 17q70 -5 228.5 -5t204.5 5q8 0 8 -21t-11 -38t-17 -17q-88 0 -132.5 -22t-64.5 -93l-80 -282q-110 -387 -183 -544t-226 -265t-382 -108q-183 0 -276.5 69.5t-93.5 220.5zM862 1639q0 53 35 89.5t80 36.5q85 0 85 -90 q0 -57 -34 -91t-79 -34q-87 0 -87 89zM1262 1639q0 53 34.5 89.5t79.5 36.5q85 0 85 -90q0 -57 -33.5 -91t-78.5 -34q-87 0 -87 89z" />
<glyph unicode="&#xdd;" horiz-adv-x="1337" d="M264 1308q0 21 11 38t17 17q46 -5 216 -5t218 5q7 0 7 -21t-11 -38t-17 -17q-97 0 -120 -20t-23 -45q0 -21 9 -50l151 -483q6 -18 16 -18t24 15l445 477q50 54 50 84q0 40 -100 40q-7 0 -7 21.5t11 38t18 16.5q67 -5 193 -5t201 5q7 0 7 -20.5t-11 -38t-18 -17.5 q-92 0 -143.5 -28.5t-211.5 -199.5l-381 -406q-57 -61 -87 -166l-86 -301q-9 -32 -9 -60t34.5 -42.5t105.5 -14.5q8 0 8 -21t-11 -38t-17 -17q-87 7 -238.5 7t-237.5 -7q-7 0 -7 21t11 38t17 17q94 0 136.5 20t64.5 97l76 266q27 94 27 128.5t-23 108.5l-151 483 q-24 78 -64.5 96.5t-92.5 18.5q-7 0 -7 21zM849 1553q0 20 32 39l465 279q11 7 21 7q25 0 45 -41q11 -21 11 -38q0 -27 -29 -41l-488 -226q-17 -8 -29 -8q-17 0 -24 16q-4 6 -4 13z" />
<glyph unicode="&#xde;" horiz-adv-x="1159" d="M-128 -455q0 19 17 31l136 89q65 49 80 102l383 1336q8 27 8 49q0 87 -143 87q-8 0 -8 21t11 38t17 17q106 0 283 60q26 9 43.5 9t17.5 -19q0 -7 -10 -37l-63 -193q-4 -12 -4 -20.5t7.5 -8.5t55 26t141.5 89t137 85t96 22q81 0 121 -103.5t40 -221.5 q0 -273 -143.5 -500.5t-359 -372t-397.5 -157.5q-28 -1 -36 -26l-61 -222q-15 -50 -125 -124l-187 -117q-6 -5 -16 -5q-25 0 -37 35q-4 12 -4 31zM336 57q0 -9 19 -9q164 7 356 157t278 355.5t86 345.5q0 94 -36 199.5t-88 105.5q-19 0 -43 -15q-66 -50 -259 -163 q-41 -21 -57 -76l-254 -884q-2 -7 -2 -16z" />
<glyph unicode="&#xdf;" horiz-adv-x="926" d="M-305 -441.5q0 37.5 23 56t40 18.5q61 0 87 -50t65 -50q43 0 83.5 56.5t51.5 113.5l180 930q45 235 134.5 405.5t196 260.5t194.5 127.5t190 37.5t163.5 -55t61.5 -125q0 -116 -121 -188l-233 -138q-139 -82 -139 -274q0 -99 89 -228.5t89 -233.5t-88 -176.5t-203 -72.5 q-60 0 -97.5 37.5t-37.5 71.5q0 80 56 80t84 -42.5t43 -53.5t50 -11q82 0 82 121q0 64 -90 190t-90 226q0 133 52 235.5t176.5 183t180.5 134t56 128.5q0 60 -38.5 91t-91.5 31q-64 0 -117.5 -28.5t-147 -109.5t-174 -278t-109.5 -346l-145 -744q-26 -132 -66 -229.5 t-112.5 -154t-176.5 -56.5q-67 0 -109 36t-42 73.5z" />
<glyph unicode="&#xe0;" horiz-adv-x="918" d="M63 141q0 211 173.5 457t367.5 246q72 0 133 -56l24 70q8 24 66.5 24t51.5 -24l-189 -655q-10 -35 -10 -59q0 -41 32 -41q34 0 130 94q9 9 28 -11q14 -13 14 -22q0 -5 -3 -8q-66 -81 -145.5 -132t-139.5 -51q-61 0 -61 79q0 56 24 120l43 115l-12 4q-238 -318 -404 -318 q-60 0 -91.5 48t-31.5 120zM211 176q0 -94 59 -94q55 0 155 100.5t156.5 186.5t82.5 174l45 151q-43 84 -131 84q-136 0 -251.5 -220t-115.5 -382zM441 1265q0 20 33 41t54 21t28 -16l145 -325q5 -12 5 -20q0 -37 -36 -37q-24 0 -41 27l-186 301q-2 2 -2 8z" />
<glyph unicode="&#xe1;" horiz-adv-x="918" d="M63 141q0 211 173.5 457t367.5 246q72 0 133 -56l24 70q8 24 66.5 24t51.5 -24l-189 -655q-10 -35 -10 -59q0 -41 32 -41q34 0 130 94q9 9 28 -11q14 -13 14 -22q0 -5 -3 -8q-66 -81 -145.5 -132t-139.5 -51q-61 0 -61 79q0 56 24 120l43 115l-12 4q-238 -318 -404 -318 q-60 0 -91.5 48t-31.5 120zM211 176q0 -94 59 -94q55 0 155 100.5t156.5 186.5t82.5 174l45 151q-43 84 -131 84q-136 0 -251.5 -220t-115.5 -382zM525 948q0 19 13 37l248 339q6 9 26 9t42 -27t22 -36t-3 -12l-274 -303q-24 -26 -49 -26t-25 19z" />
<glyph unicode="&#xe2;" horiz-adv-x="918" d="M63 141q0 211 173.5 457t367.5 246q72 0 133 -56l24 70q8 24 66.5 24t51.5 -24l-189 -655q-10 -35 -10 -59q0 -41 32 -41q34 0 130 94q9 9 28 -11q14 -13 14 -22q0 -5 -3 -8q-66 -81 -145.5 -132t-139.5 -51q-61 0 -61 79q0 56 24 120l43 115l-12 4q-238 -318 -404 -318 q-60 0 -91.5 48t-31.5 120zM211 176q0 -94 59 -94q55 0 155 100.5t156.5 186.5t82.5 174l45 151q-43 84 -131 84q-136 0 -251.5 -220t-115.5 -382zM391 980q0 3 2 7l260 354q26 35 49 35q22 0 37 -41l125 -352l-1 -9q-6 -15 -30 -18q-7 0 -10 5l-123 215q-16 30 -25 30 q-8 0 -34 -26l-211 -224q-3 -3 -9 -3q-30 0 -30 27z" />
<glyph unicode="&#xe3;" horiz-adv-x="918" d="M63 141q0 211 173.5 457t367.5 246q72 0 133 -56l24 70q8 24 66.5 24t51.5 -24l-189 -655q-10 -35 -10 -59q0 -41 32 -41q34 0 130 94q9 9 28 -11q14 -13 14 -22q0 -5 -3 -8q-66 -81 -145.5 -132t-139.5 -51q-61 0 -61 79q0 56 24 120l43 115l-12 4q-238 -318 -404 -318 q-60 0 -91.5 48t-31.5 120zM211 176q0 -94 59 -94q55 0 155 100.5t156.5 186.5t82.5 174l45 151q-43 84 -131 84q-136 0 -251.5 -220t-115.5 -382zM348 1006q42 211 194 211q54 0 159 -46.5t145 -46.5t70 33.5t34 67.5q0 10 27 10t26 -10q-20 -85 -69.5 -150t-123.5 -65 q-45 0 -156 47t-151 47t-66.5 -24.5t-35.5 -73.5q-2 -10 -28.5 -10t-24.5 10z" />
<glyph unicode="&#xe4;" horiz-adv-x="918" d="M63 141q0 211 173.5 457t367.5 246q72 0 133 -56l24 70q8 24 66.5 24t51.5 -24l-189 -655q-10 -35 -10 -59q0 -41 32 -41q34 0 130 94q9 9 28 -11q14 -13 14 -22q0 -5 -3 -8q-66 -81 -145.5 -132t-139.5 -51q-61 0 -61 79q0 56 24 120l43 115l-12 4q-238 -318 -404 -318 q-60 0 -91.5 48t-31.5 120zM211 176q0 -94 59 -94q55 0 155 100.5t156.5 186.5t82.5 174l45 151q-43 84 -131 84q-136 0 -251.5 -220t-115.5 -382zM422 1100q0 52 35 88.5t79 36.5q85 0 85 -90q0 -57 -33.5 -91t-78.5 -34q-87 0 -87 90zM779 1100q0 52 35 88.5t79 36.5 q85 0 85 -90q0 -57 -33.5 -91t-78.5 -34q-87 0 -87 90z" />
<glyph unicode="&#xe5;" horiz-adv-x="918" d="M63 141q0 211 173.5 457t367.5 246q72 0 133 -56l24 70q8 24 66.5 24t51.5 -24l-189 -655q-10 -35 -10 -59q0 -41 32 -41q34 0 130 94q9 9 28 -11q14 -13 14 -22q0 -5 -3 -8q-66 -81 -145.5 -132t-139.5 -51q-61 0 -61 79q0 56 24 120l43 115l-12 4q-238 -318 -404 -318 q-60 0 -91.5 48t-31.5 120zM211 176q0 -94 59 -94q55 0 155 100.5t156.5 186.5t82.5 174l45 151q-43 84 -131 84q-136 0 -251.5 -220t-115.5 -382zM479 1139q0 93 72 150q56 44 133 44q101 0 160 -72l20 -28l14 -32l9 -38q1 -12 1 -24q0 -94 -73 -151l-30 -20 q-46 -24 -101 -24q-101 0 -161 71q-44 53 -44 124zM575 1139q0 -73 50 -108q26 -19 59 -19q64 0 93 60q15 30 15 67q0 74 -49 109l-23 12q-17 6 -36 6q-62 0 -93 -58q-16 -31 -16 -69z" />
<glyph unicode="&#xe6;" horiz-adv-x="1004" d="M31 141q0 255 296.5 483t567.5 228q135 0 135 -115q0 -137 -164.5 -245t-316.5 -136q-14 -73 -14 -118q0 -166 110 -166q37 0 73.5 16t149.5 109q4 3 8 3q26 0 26 -28q0 -5 -3 -8q-149 -191 -293 -191q-132 0 -178 103q-130 -103 -274 -103q-58 0 -90.5 47.5t-32.5 120.5 zM178 176q0 -94 60 -94q81 0 170 65q-5 62 -5 68q0 116 71.5 262t178.5 250l-6 6q-190 -84 -329.5 -249.5t-139.5 -307.5zM567 420q119 25 219.5 102.5t100.5 188.5q0 61 -53 61q-73 0 -148.5 -105t-118.5 -247z" />
<glyph unicode="&#xe7;" horiz-adv-x="674" d="M72 -358q0 49 51 49q20 0 50 -30t42 -30q57 0 57 71q0 63 -91 111q-21 12 -8 30l118 157h67l-61 -80q-18 -23 10 -45q76 -61 76 -131q0 -71 -66 -119.5t-143 -48.5q-102 0 -102 66zM98 256q0 203 143.5 399.5t315.5 196.5q62 0 113 -29.5t51 -68.5q0 -32 -25 -54.5 t-51 -22.5q-27 0 -37 19q-9 57 -15 66q-20 26 -89 26q-90 0 -180 -161.5t-91 -302.5q0 -121 37.5 -191t98.5 -70q62 0 100.5 21.5t81.5 60.5q5 4 18 0.5t16.5 -15t-1.5 -17.5q-140 -140 -283 -140q-92 0 -147.5 79.5t-55.5 203.5z" />
<glyph unicode="&#xe8;" horiz-adv-x="696" d="M96 215q0 191 160 414t336 223q131 0 131 -115q0 -135 -163.5 -244t-317.5 -137q-15 -75 -15 -118q0 -166 111 -166q40 0 84 21t141 104q7 6 18.5 0.5t13 -17t-2.5 -16.5q-156 -191 -293 -191q-203 0 -203 242zM260 420q123 26 221.5 104t98.5 187q0 61 -54 61 q-74 0 -146.5 -102.5t-119.5 -249.5zM401 1265q0 20 33 41t54 21t28 -16l145 -325q5 -12 5 -20q0 -37 -36 -37q-24 0 -41 27l-186 301q-2 2 -2 8z" />
<glyph unicode="&#xe9;" horiz-adv-x="696" d="M96 215q0 191 160 414t336 223q131 0 131 -115q0 -135 -163.5 -244t-317.5 -137q-15 -75 -15 -118q0 -166 111 -166q40 0 84 21t141 104q7 6 18.5 0.5t13 -17t-2.5 -16.5q-156 -191 -293 -191q-203 0 -203 242zM260 420q123 26 221.5 104t98.5 187q0 61 -54 61 q-74 0 -146.5 -102.5t-119.5 -249.5zM505 948q0 19 13 37l248 339q6 9 26 9t42 -27t22 -36t-3 -12l-274 -303q-24 -26 -49 -26t-25 19z" />
<glyph unicode="&#xea;" horiz-adv-x="696" d="M96 215q0 191 160 414t336 223q131 0 131 -115q0 -135 -163.5 -244t-317.5 -137q-15 -75 -15 -118q0 -166 111 -166q40 0 84 21t141 104q7 6 18.5 0.5t13 -17t-2.5 -16.5q-156 -191 -293 -191q-203 0 -203 242zM260 420q123 26 221.5 104t98.5 187q0 61 -54 61 q-74 0 -146.5 -102.5t-119.5 -249.5zM337 980q0 3 2 7l260 354q26 35 49 35q22 0 37 -41l125 -352l-1 -9q-6 -15 -30 -18q-7 0 -10 5l-123 215q-16 30 -25 30q-8 0 -34 -26l-211 -224q-3 -3 -9 -3q-30 0 -30 27z" />
<glyph unicode="&#xeb;" horiz-adv-x="696" d="M96 215q0 191 160 414t336 223q131 0 131 -115q0 -135 -163.5 -244t-317.5 -137q-15 -75 -15 -118q0 -166 111 -166q40 0 84 21t141 104q7 6 18.5 0.5t13 -17t-2.5 -16.5q-156 -191 -293 -191q-203 0 -203 242zM260 420q123 26 221.5 104t98.5 187q0 61 -54 61 q-74 0 -146.5 -102.5t-119.5 -249.5zM373 1100q0 52 35 88.5t79 36.5q85 0 85 -90q0 -57 -33.5 -91t-78.5 -34q-87 0 -87 90zM730 1100q0 52 35 88.5t79 36.5q85 0 85 -90q0 -57 -33.5 -91t-78.5 -34q-87 0 -87 90z" />
<glyph unicode="&#xec;" horiz-adv-x="528" d="M111 657q0 3 2 6q37 59 125.5 124t146.5 65q56 0 56 -86q0 -37 -11 -76l-137 -487q-11 -39 -11 -61q0 -40 28.5 -40t131.5 93q9 8 27 -9q14 -13 14 -22q0 -3 -2 -6q-20 -35 -117.5 -110t-168.5 -75q-54 0 -54 87q0 38 11 77l137 488q5 18 5 36q0 50 -24.5 50t-117.5 -88 q-9 -9 -28 11q-13 14 -13 23zM182 1265q0 20 33 41t54 21t28 -16l145 -325q5 -12 5 -20q0 -37 -36 -37q-24 0 -41 27l-186 301q-2 2 -2 8z" />
<glyph unicode="&#xed;" horiz-adv-x="528" d="M111 657q0 3 2 6q37 59 125.5 124t146.5 65q56 0 56 -86q0 -37 -11 -76l-137 -487q-11 -39 -11 -61q0 -40 28.5 -40t131.5 93q9 8 27 -9q14 -13 14 -22q0 -3 -2 -6q-20 -35 -117.5 -110t-168.5 -75q-54 0 -54 87q0 38 11 77l137 488q5 18 5 36q0 50 -24.5 50t-117.5 -88 q-9 -9 -28 11q-13 14 -13 23zM306 948q0 19 13 37l248 339q6 9 26 9t42 -27t22 -36t-3 -12l-274 -303q-24 -26 -49 -26t-25 19z" />
<glyph unicode="&#xee;" horiz-adv-x="528" d="M111 657q0 3 2 6q37 59 125.5 124t146.5 65q56 0 56 -86q0 -37 -11 -76l-137 -487q-11 -39 -11 -61q0 -40 28.5 -40t131.5 93q9 8 27 -9q14 -13 14 -22q0 -3 -2 -6q-20 -35 -117.5 -110t-168.5 -75q-54 0 -54 87q0 38 11 77l137 488q5 18 5 36q0 50 -24.5 50t-117.5 -88 q-9 -9 -28 11q-13 14 -13 23zM138 980q0 3 2 7l260 354q26 35 49 35q22 0 37 -41l125 -352l-1 -9q-6 -15 -30 -18q-7 0 -10 5l-123 215q-16 30 -25 30q-8 0 -34 -26l-211 -224q-3 -3 -9 -3q-30 0 -30 27z" />
<glyph unicode="&#xef;" horiz-adv-x="528" d="M111 657q0 3 2 6q37 59 125.5 124t146.5 65q56 0 56 -86q0 -37 -11 -76l-137 -487q-11 -39 -11 -61q0 -40 28.5 -40t131.5 93q9 8 27 -9q14 -13 14 -22q0 -3 -2 -6q-20 -35 -117.5 -110t-168.5 -75q-54 0 -54 87q0 38 11 77l137 488q5 18 5 36q0 50 -24.5 50t-117.5 -88 q-9 -9 -28 11q-13 14 -13 23zM133 1100q0 52 35 88.5t79 36.5q85 0 85 -90q0 -57 -33.5 -91t-78.5 -34q-87 0 -87 90zM490 1100q0 52 35 88.5t79 36.5q85 0 85 -90q0 -57 -33.5 -91t-78.5 -34q-87 0 -87 90z" />
<glyph unicode="&#xf0;" horiz-adv-x="827" d="M96 303q0 219 153 384t318 165q40 0 66 -8q-60 119 -170 209l-293 -189q-4 -2 -7 -2q-14 0 -46 105q-9 28 -2 28q2 0 33.5 -18t55.5 -18t42 12l176 114q-110 83 -297 160q-8 3 -8 18.5t15 31t24 12.5q206 -69 352 -166l301 198q4 2 7 2q19 0 57 -83q18 -39 8 -39 q-6 0 -44.5 12t-59.5 12t-34 -8l-190 -123q264 -198 264 -467q0 -305 -132 -488.5t-349 -183.5q-240 0 -240 330zM217 215q0 -158 141 -158q102 0 215 192t113 378q0 141 -133 141q-100 0 -218 -188t-118 -365z" />
<glyph unicode="&#xf1;" horiz-adv-x="1008" d="M113 6l176 619q6 21 6 39q0 47 -32 47t-107 -86q-3 -3 -7 -3q-12 0 -24 12.5t-12 21.5q0 4 2 6q154 190 268 190q57 0 57 -90q0 -42 -29 -138l-69 -241l8 -4q246 473 449 473q106 0 106 -125q0 -61 -28 -160l-103 -364q-10 -34 -10 -62q0 -39 34 -39t124 93q3 3 7 3 q12 0 24 -13t12 -20t-2 -9q-161 -183 -285 -183q-56 0 -56 84q0 39 11 80l125 445q30 106 30 145q0 45 -30 45q-86 0 -244.5 -231t-280.5 -539q-11 -29 -70 -29t-50 33zM378 1006q42 211 194 211q54 0 159 -46.5t145 -46.5t70 33.5t34 67.5q0 10 27 10t26 -10 q-20 -85 -69.5 -150t-123.5 -65q-45 0 -156 47t-151 47t-66.5 -24.5t-35.5 -73.5q-2 -10 -28.5 -10t-24.5 10z" />
<glyph unicode="&#xf2;" horiz-adv-x="838" d="M96 305q0 195 151 371t331 176q120 0 180.5 -85t60.5 -230q0 -213 -137 -388.5t-344 -175.5q-123 0 -182.5 91.5t-59.5 240.5zM213 231q0 -163 133 -163q109 0 235 186.5t126 333.5q0 180 -129 180q-117 0 -241 -190.5t-124 -346.5zM421 1265q0 20 33 41t54 21t28 -16 l145 -325q5 -12 5 -20q0 -37 -36 -37q-24 0 -41 27l-186 301q-2 2 -2 8z" />
<glyph unicode="&#xf3;" horiz-adv-x="838" d="M96 305q0 195 151 371t331 176q120 0 180.5 -85t60.5 -230q0 -213 -137 -388.5t-344 -175.5q-123 0 -182.5 91.5t-59.5 240.5zM213 231q0 -163 133 -163q109 0 235 186.5t126 333.5q0 180 -129 180q-117 0 -241 -190.5t-124 -346.5zM525 948q0 19 13 37l248 339q6 9 26 9 t42 -27t22 -36t-3 -12l-274 -303q-24 -26 -49 -26t-25 19z" />
<glyph unicode="&#xf4;" horiz-adv-x="838" d="M96 305q0 195 151 371t331 176q120 0 180.5 -85t60.5 -230q0 -213 -137 -388.5t-344 -175.5q-123 0 -182.5 91.5t-59.5 240.5zM213 231q0 -163 133 -163q109 0 235 186.5t126 333.5q0 180 -129 180q-117 0 -241 -190.5t-124 -346.5zM327 980q0 3 2 7l260 354q26 35 49 35 q22 0 37 -41l125 -352l-1 -9q-6 -15 -30 -18q-7 0 -10 5l-123 215q-16 30 -25 30q-8 0 -34 -26l-211 -224q-3 -3 -9 -3q-30 0 -30 27z" />
<glyph unicode="&#xf5;" horiz-adv-x="838" d="M96 305q0 195 151 371t331 176q120 0 180.5 -85t60.5 -230q0 -213 -137 -388.5t-344 -175.5q-123 0 -182.5 91.5t-59.5 240.5zM213 231q0 -163 133 -163q109 0 235 186.5t126 333.5q0 180 -129 180q-117 0 -241 -190.5t-124 -346.5zM310 1006q42 211 194 211 q54 0 159 -46.5t145 -46.5t70 33.5t34 67.5q0 10 27 10t26 -10q-20 -85 -69.5 -150t-123.5 -65q-45 0 -156 47t-151 47t-66.5 -24.5t-35.5 -73.5q-2 -10 -28.5 -10t-24.5 10z" />
<glyph unicode="&#xf6;" horiz-adv-x="838" d="M96 305q0 195 151 371t331 176q120 0 180.5 -85t60.5 -230q0 -213 -137 -388.5t-344 -175.5q-123 0 -182.5 91.5t-59.5 240.5zM213 231q0 -163 133 -163q109 0 235 186.5t126 333.5q0 180 -129 180q-117 0 -241 -190.5t-124 -346.5zM373 1100q0 52 35 88.5t79 36.5 q85 0 85 -90q0 -57 -33.5 -91t-78.5 -34q-87 0 -87 90zM730 1100q0 52 35 88.5t79 36.5q85 0 85 -90q0 -57 -33.5 -91t-78.5 -34q-87 0 -87 90z" />
<glyph unicode="&#xf7;" horiz-adv-x="1051" d="M119 371v100h815v-100h-815zM430 129.5q0 34.5 25.5 64.5t74 30t71.5 -30.5t23 -69.5t-26.5 -63.5t-72 -24.5t-70.5 29.5t-25 64zM430 708.5q0 34.5 25.5 65t74 30.5t71.5 -30.5t23 -70t-26.5 -64t-72 -24.5t-70.5 29.5t-25 64z" />
<glyph unicode="&#xf8;" horiz-adv-x="838" d="M96 305q0 196 151 371q152 176 331 176q62 0 111 -26l60 92q1 4 8 4q18 0 37 -19q8 -8 8 -14q0 -3 -1 -4l-63 -96q80 -83 81 -252l-3 -70q-18 -164 -123 -304q-141 -190 -355 -190q-63 0 -112 28l-68 -104q-4 -6 -12 -6q-18 0 -34 19q-7 8 -7 14l2 6l71 109 q-82 88 -82 266zM213 231q0 -62 23 -103l407 628q-24 12 -65 12q-95 0 -201 -132q-100 -126 -144 -279q-20 -70 -20 -126zM280 84q28 -16 66 -16q87 0 192 128q101 122 147 268q22 70 22 124q0 76 -20 121z" />
<glyph unicode="&#xf9;" horiz-adv-x="991" d="M115 656q0 4 2 6q154 190 268 190q55 0 55 -82q0 -47 -25 -134l-87 -302q-41 -142 -41 -187t28 -45q44 0 159 122t228 317q58 100 121 288q8 23 60 23q70 0 62 -26l-177 -623q-12 -42 -12 -62q0 -39 34 -39t125 93q3 3 8 3q13 0 24 -12q12 -14 12 -22q0 -5 -3 -8 q-164 -183 -284 -183q-58 0 -58 90q0 35 11 74l82 287q-244 -308 -334.5 -379.5t-146.5 -71.5q-84 0 -84 99q0 38 20 108l127 445q6 21 6 41q0 45 -28.5 45t-52.5 -27q-26 -29 -56 -59q-3 -3 -8 -3q-18 0 -31 22q-4 7 -4 12zM436 1265q0 20 33 41t54 21t28 -16l145 -325 q5 -12 5 -20q0 -37 -36 -37q-24 0 -41 27l-186 301q-2 2 -2 8z" />
<glyph unicode="&#xfa;" horiz-adv-x="991" d="M115 656q0 4 2 6q154 190 268 190q55 0 55 -82q0 -47 -25 -134l-87 -302q-41 -142 -41 -187t28 -45q44 0 159 122t228 317q58 100 121 288q8 23 60 23q70 0 62 -26l-177 -623q-12 -42 -12 -62q0 -39 34 -39t125 93q3 3 8 3q13 0 24 -12q12 -14 12 -22q0 -5 -3 -8 q-164 -183 -284 -183q-58 0 -58 90q0 35 11 74l82 287q-244 -308 -334.5 -379.5t-146.5 -71.5q-84 0 -84 99q0 38 20 108l127 445q6 21 6 41q0 45 -28.5 45t-52.5 -27q-26 -29 -56 -59q-3 -3 -8 -3q-18 0 -31 22q-4 7 -4 12zM555 948q0 19 13 37l248 339q6 9 26 9t42 -27 t22 -36t-3 -12l-274 -303q-24 -26 -49 -26t-25 19z" />
<glyph unicode="&#xfb;" horiz-adv-x="991" d="M115 656q0 4 2 6q154 190 268 190q55 0 55 -82q0 -47 -25 -134l-87 -302q-41 -142 -41 -187t28 -45q44 0 159 122t228 317q58 100 121 288q8 23 60 23q70 0 62 -26l-177 -623q-12 -42 -12 -62q0 -39 34 -39t125 93q3 3 8 3q13 0 24 -12q12 -14 12 -22q0 -5 -3 -8 q-164 -183 -284 -183q-58 0 -58 90q0 35 11 74l82 287q-244 -308 -334.5 -379.5t-146.5 -71.5q-84 0 -84 99q0 38 20 108l127 445q6 21 6 41q0 45 -28.5 45t-52.5 -27q-26 -29 -56 -59q-3 -3 -8 -3q-18 0 -31 22q-4 7 -4 12zM417 980q0 3 2 7l260 354q26 35 49 35 q22 0 37 -41l125 -352l-1 -9q-6 -15 -30 -18q-7 0 -10 5l-123 215q-16 30 -25 30q-8 0 -34 -26l-211 -224q-3 -3 -9 -3q-30 0 -30 27z" />
<glyph unicode="&#xfc;" horiz-adv-x="991" d="M115 656q0 4 2 6q154 190 268 190q55 0 55 -82q0 -47 -25 -134l-87 -302q-41 -142 -41 -187t28 -45q44 0 159 122t228 317q58 100 121 288q8 23 60 23q70 0 62 -26l-177 -623q-12 -42 -12 -62q0 -39 34 -39t125 93q3 3 8 3q13 0 24 -12q12 -14 12 -22q0 -5 -3 -8 q-164 -183 -284 -183q-58 0 -58 90q0 35 11 74l82 287q-244 -308 -334.5 -379.5t-146.5 -71.5q-84 0 -84 99q0 38 20 108l127 445q6 21 6 41q0 45 -28.5 45t-52.5 -27q-26 -29 -56 -59q-3 -3 -8 -3q-18 0 -31 22q-4 7 -4 12zM412 1100q0 52 35 88.5t79 36.5q85 0 85 -90 q0 -57 -33.5 -91t-78.5 -34q-87 0 -87 90zM769 1100q0 52 35 88.5t79 36.5q85 0 85 -90q0 -57 -33.5 -91t-78.5 -34q-87 0 -87 90z" />
<glyph unicode="&#xfd;" horiz-adv-x="793" d="M-113 -459q0 40 17 64t58 24q40 0 60.5 -34.5t59.5 -34.5q65 0 139 92.5t105.5 204.5t31.5 278q0 228 -34 405t-84 177q-46 0 -111 -131q-4 -7 -18.5 -5.5t-23.5 8.5t-5 15q104 248 221 248q85 0 129.5 -183t44.5 -442q0 -87 -8 -188h10q74 130 131.5 322.5t57.5 277.5 q0 69 -19 145q0 68 72 68t72 -64q0 -74 -44 -254.5t-155.5 -401.5t-161 -303.5t-177 -233t-253.5 -150.5q-52 0 -83.5 30.5t-31.5 65.5zM445 948q0 19 13 37l248 339q6 9 26 9t42 -27t22 -36t-3 -12l-274 -303q-24 -26 -49 -26t-25 19z" />
<glyph unicode="&#xfe;" horiz-adv-x="838" d="M-105 -522q0 9 5 10q41 12 86 51t53 82l298 1566q9 47 9 75q0 97 -87 97q-15 0 -15 26.5t15 26.5q68 0 148 36t86 36q15 0 12 -18l-157 -854q141 240 318 240q172 0 172 -170q0 -84 -37.5 -205.5t-151.5 -241.5t-229.5 -190t-190.5 -70l-75 -385q-7 -38 -36.5 -72.5 t-112.5 -55.5t-91 -21q-10 0 -16 21q-3 10 -3 16zM238 31q98 0 245.5 141.5t184.5 277t37 222.5q0 110 -95 110q-74 0 -173.5 -112.5t-121.5 -231.5z" />
<glyph unicode="&#xff;" horiz-adv-x="793" d="M-113 -459q0 40 17 64t58 24q40 0 60.5 -34.5t59.5 -34.5q65 0 139 92.5t105.5 204.5t31.5 278q0 228 -34 405t-84 177q-46 0 -111 -131q-4 -7 -18.5 -5.5t-23.5 8.5t-5 15q104 248 221 248q85 0 129.5 -183t44.5 -442q0 -87 -8 -188h10q74 130 131.5 322.5t57.5 277.5 q0 69 -19 145q0 68 72 68t72 -64q0 -74 -44 -254.5t-155.5 -401.5t-161 -303.5t-177 -233t-253.5 -150.5q-52 0 -83.5 30.5t-31.5 65.5zM293 1100q0 52 35 88.5t79 36.5q85 0 85 -90q0 -57 -33.5 -91t-78.5 -34q-87 0 -87 90zM650 1100q0 52 35 88.5t79 36.5q85 0 85 -90 q0 -57 -33.5 -91t-78.5 -34q-87 0 -87 90z" />
<glyph unicode="&#x152;" horiz-adv-x="2063" d="M217 450q0 229 125.5 439.5t308 342.5t412.5 132q242 -10 393.5 -10t694.5 4q62 0 62 -22q0 -7 -3 -16l-88 -310q-5 -14 -42.5 -14t-37.5 14q12 42 12 79q0 98 -79 153q-50 35 -114 38q-213 9 -304 9q-26 0 -35 -30l-158 -546q-11 -37 27 -37h193q83 0 106 22.5t35 65.5 l27 100q4 15 38 15t34 -15q-90 -266 -122 -428q-5 -15 -38 -15t-29 16l25 90q8 27 8 38q0 42 -104 42h-199q-33 0 -40 -26l-80 -281q-27 -93 -27 -139q0 -99 113 -99l242 7q252 9 328 275q5 14 43.5 14t38.5 -14l-94 -325q-8 -27 -27 -27l-287 3q-237 5 -460.5 5t-441.5 -13 q-220 0 -338 129t-118 334zM380 466q0 -178 96.5 -291.5t219.5 -113.5q184 0 224 8q123 23 150 117l282 986q4 13 4 27q0 81 -179 95q-52 4 -138 4q-181 0 -334.5 -129.5t-239 -319t-85.5 -383.5z" />
<glyph unicode="&#x153;" horiz-adv-x="1169" d="M96 305q0 194 147.5 370.5t306.5 176.5q160 0 211 -182q152 182 304 182q131 0 131 -115q0 -137 -166 -245t-315 -136q-15 -75 -15 -118q0 -166 111 -166q63 0 124 44t101 81q3 3 8 3q24 0 24 -27q0 -5 -3 -9q-156 -191 -295 -191q-140 0 -182 117q-126 -117 -266 -117 q-115 0 -170.5 92.5t-55.5 239.5zM213 231q0 -75 30.5 -119t82.5 -44q98 0 219 188t121 332q0 180 -106 180q-107 0 -227 -191t-120 -346zM733 420q131 27 225.5 107.5t94.5 183.5q0 61 -54 61q-57 0 -109 -55t-91.5 -134.5t-65.5 -162.5z" />
<glyph unicode="&#x178;" horiz-adv-x="1228" d="M264 1308q0 21 11 38t17 17q46 -5 216 -5t218 5q7 0 7 -21t-11 -38t-17 -17q-97 0 -120 -20t-23 -45q0 -21 9 -50l151 -483q6 -18 16 -18t24 15l445 477q50 54 50 84q0 40 -100 40q-7 0 -7 21.5t11 38t18 16.5q67 -5 193 -5t201 5q7 0 7 -20.5t-11 -38t-18 -17.5 q-92 0 -143.5 -28.5t-211.5 -199.5l-381 -406q-57 -61 -87 -166l-86 -301q-9 -32 -9 -60t34.5 -42.5t105.5 -14.5q8 0 8 -21t-11 -38t-17 -17q-87 7 -238.5 7t-237.5 -7q-7 0 -7 21t11 38t17 17q94 0 136.5 20t64.5 97l76 266q27 94 27 128.5t-23 108.5l-151 483 q-24 78 -64.5 96.5t-92.5 18.5q-7 0 -7 21zM694 1639q0 53 35 89.5t80 36.5q85 0 85 -90q0 -57 -34 -91t-79 -34q-87 0 -87 89zM1094 1639q0 53 34.5 89.5t79.5 36.5q85 0 85 -90q0 -57 -33.5 -91t-78.5 -34q-87 0 -87 89z" />
<glyph unicode="&#x2c6;" horiz-adv-x="737" d="M287 980q0 3 2 7l260 354q26 35 49 35q22 0 37 -41l125 -352l-1 -9q-6 -15 -30 -18q-7 0 -10 5l-123 215q-16 30 -25 30q-8 0 -34 -26l-211 -224q-3 -3 -9 -3q-30 0 -30 27z" />
<glyph unicode="&#x2dc;" horiz-adv-x="569" d="M158 1006q42 211 194 211q54 0 159 -46.5t145 -46.5t70 33.5t34 67.5q0 10 27 10t26 -10q-20 -85 -69.5 -150t-123.5 -65q-45 0 -156 47t-151 47t-66.5 -24.5t-35.5 -73.5q-2 -10 -28.5 -10t-24.5 10z" />
<glyph unicode="&#x2000;" horiz-adv-x="939" />
<glyph unicode="&#x2001;" horiz-adv-x="1878" />
<glyph unicode="&#x2002;" horiz-adv-x="939" />
<glyph unicode="&#x2003;" horiz-adv-x="1878" />
<glyph unicode="&#x2004;" horiz-adv-x="626" />
<glyph unicode="&#x2005;" horiz-adv-x="469" />
<glyph unicode="&#x2006;" horiz-adv-x="313" />
<glyph unicode="&#x2007;" horiz-adv-x="313" />
<glyph unicode="&#x2008;" horiz-adv-x="234" />
<glyph unicode="&#x2009;" horiz-adv-x="375" />
<glyph unicode="&#x200a;" horiz-adv-x="104" />
<glyph unicode="&#x2010;" horiz-adv-x="827" d="M166 506q0 19 14 57.5t25 38.5h573q6 0 6 -21.5t-15 -57.5t-24 -36h-573q-6 0 -6 19z" />
<glyph unicode="&#x2011;" horiz-adv-x="827" d="M166 506q0 19 14 57.5t25 38.5h573q6 0 6 -21.5t-15 -57.5t-24 -36h-573q-6 0 -6 19z" />
<glyph unicode="&#x2012;" horiz-adv-x="827" d="M166 506q0 19 14 57.5t25 38.5h573q6 0 6 -21.5t-15 -57.5t-24 -36h-573q-6 0 -6 19z" />
<glyph unicode="&#x2013;" horiz-adv-x="1024" d="M55 494.5q0 21.5 9 56.5t29 35h962q16 0 16 -21t-9 -56.5t-29 -35.5h-962q-16 0 -16 21.5z" />
<glyph unicode="&#x2014;" horiz-adv-x="2048" d="M77 495.5q0 22.5 9 56.5t29 34h1987q16 0 16 -21.5t-9 -56.5t-29 -35h-1987q-16 0 -16 22.5z" />
<glyph unicode="&#x2018;" horiz-adv-x="430" d="M211 1067q0 64 57 156t137.5 153.5t165.5 106.5q1 1 7 1t11 -9t5 -13t-2 -6q-224 -173 -224 -268q0 -32 24 -42.5t47 -31t23 -52.5q0 -51 -40 -85.5t-88 -34.5q-49 0 -86 34t-37 91z" />
<glyph unicode="&#x2019;" horiz-adv-x="430" d="M185 961q0 4 2 6q224 173 224 268q0 32 -24 42.5t-47 31t-23 51.5q0 52 40 86.5t89 34.5q48 0 85 -34t37 -91q0 -64 -57 -156t-137.5 -153.5t-165.5 -106.5q-1 -1 -7 -1t-11 9t-5 13z" />
<glyph unicode="&#x201a;" horiz-adv-x="430" d="M-158 -282q0 4 2 6q224 173 224 268q0 32 -24 42.5t-47 31t-23 52.5q0 51 40 85.5t88 34.5t85 -34t37 -91q0 -64 -57 -156t-137.5 -153.5t-165.5 -106.5q0 -1 -6 -1t-11 9t-5 13z" />
<glyph unicode="&#x201c;" horiz-adv-x="727" d="M178 1067q0 64 57 156t137.5 153.5t165.5 106.5q1 1 7 1t11 -9t5 -13t-2 -6q-224 -173 -224 -268q0 -32 24 -42.5t47 -31t23 -52.5q0 -51 -40 -85.5t-88 -34.5q-49 0 -86 34t-37 91zM514 1067q0 64 57 156t137.5 153.5t165.5 106.5q1 1 7 1t11 -9t5 -13t-2 -6 q-224 -173 -224 -268q0 -32 24 -42.5t47 -31t23 -52.5q0 -51 -40 -85.5t-88 -34.5q-49 0 -86 34t-37 91z" />
<glyph unicode="&#x201d;" horiz-adv-x="727" d="M148 961q0 4 2 6q224 173 224 268q0 32 -24 42.5t-47 31t-23 51.5q0 52 40 86.5t89 34.5q48 0 85 -34t37 -91q0 -64 -57 -156t-137.5 -153.5t-165.5 -106.5q-1 -1 -7 -1t-11 9t-5 13zM488 961q0 4 2 6q224 173 224 268q0 32 -24 42.5t-47 31t-23 51.5q0 52 40 86.5 t89 34.5q48 0 85 -34t37 -91q0 -64 -57 -156t-137.5 -153.5t-165.5 -106.5q-1 -1 -7 -1t-11 9t-5 13z" />
<glyph unicode="&#x201e;" horiz-adv-x="727" d="M-158 -282q0 4 2 6q224 173 224 268q0 32 -24 42.5t-47 31t-23 52.5q0 51 40 85.5t88 34.5t85 -34t37 -91q0 -64 -57 -156t-137.5 -153.5t-165.5 -106.5q0 -1 -6 -1t-11 9t-5 13zM182 -282q0 4 2 6q224 173 224 268q0 32 -24 42.5t-47 31t-23 52.5q0 51 40 85.5t88 34.5 t85 -34t37 -91q0 -64 -57 -156t-137.5 -153.5t-165.5 -106.5q0 -1 -6 -1t-11 9t-5 13z" />
<glyph unicode="&#x2022;" horiz-adv-x="815" d="M143 746q0 115 74.5 190.5t193.5 75.5t191 -76t72 -190t-73.5 -185.5t-180.5 -71.5t-192 71t-85 186z" />
<glyph unicode="&#x202f;" horiz-adv-x="375" />
<glyph unicode="&#x2039;" horiz-adv-x="557" d="M96 417.5q0 26.5 42 60.5l383 312q4 3 9 3q23 0 23 -24q0 -5 -4 -9l-276 -294q-25 -27 -25 -52t7 -41l117 -279q4 -10 -11.5 -23.5t-24 -13.5t-11.5 3l-216 312q-13 19 -13 45.5z" />
<glyph unicode="&#x203a;" horiz-adv-x="447" d="M10 81q0 5 3 9l277 294q25 26 25 51.5t-7 41.5l-117 279q-4 10 11 23.5t24 13.5t12 -3l216 -312q13 -19 13 -45.5t-42 -60.5l-383 -312q-4 -3 -10 -3q-22 0 -22 24z" />
<glyph unicode="&#x205f;" horiz-adv-x="469" />
<glyph unicode="&#x20ac;" horiz-adv-x="1470" d="M67 602.5q0 52.5 22 52.5h157q13 45 35 103h-131q-21 0 -21 52.5t21 52.5h178q116 219 323 370.5t434 151.5q99 0 200.5 -33.5t148 -80t46.5 -93.5q0 -37 -37 -66t-79 -29q-41 0 -57 29q-63 110 -112 156t-136 46q-181 0 -333.5 -129t-248.5 -322h626q22 0 22 -52.5 t-22 -52.5h-669q-8 -19 -28 -103h636q21 0 21 -52.5t-21 -52.5h-659q-9 -56 -9 -94q0 -177 98.5 -272.5t255.5 -95.5q115 0 206 29t225 103q6 3 12 3q25 0 25 -30q0 -15 -13 -25q-145 -97 -261 -147t-264 -50q-164 0 -305 116.5t-141 342.5q0 59 10 120h-133q-22 0 -22 52.5 z" />
<glyph unicode="&#x2122;" horiz-adv-x="2144" d="M217 1206v197q0 20 47 20q182 -6 400 -6t409 6q46 0 46 -20v-197q0 -10 -25 -10t-25 10q0 79 -52.5 117t-98.5 40l-160 6q-30 0 -30 -27v-620q0 -69 111 -69q9 0 9 -26.5t-9 -26.5q-36 4 -173 4t-173 -4q-9 0 -9 26.5t9 26.5q116 0 116 69v620q0 27 -28 27l-162 -6 q-48 -1 -99.5 -39.5t-51.5 -117.5q0 -10 -25.5 -10t-25.5 10zM1156 626.5q0 26.5 9 26.5q88 0 92 69l35 545v32q0 71 -111 71q-9 0 -9 26.5t9 26.5q36 -4 119 -4t106 -48l286 -602h2l294 605q22 45 89.5 45t127.5 4q9 0 9 -26.5t-9 -26.5q-113 0 -112 -105l5 -543 q1 -69 93 -69q9 0 9 -26.5t-9 -26.5q-36 4 -141.5 4t-141.5 -4q-9 0 -9 26.5t9 26.5q89 0 89 69l-3 504q0 8 -5 8t-7 -5l-307 -623q-2 -5 -18 -4t-17 4l-280 621q-4 9 -9.5 9t-6.5 -9l-30 -505q-4 -69 93 -69q9 0 9 -26.5t-9 -26.5q-36 4 -121 4t-121 -4q-9 0 -9 26.5z" />
<glyph unicode="&#x25fc;" horiz-adv-x="850" d="M0 0v850h850v-850h-850z" />
</font>
</defs>
</svg>
