<?xml version="1.0" standalone="no"?>
<!DOCTYPE svg PUBLIC "-//W3C//DTD SVG 1.1//EN" "http://www.w3.org/Graphics/SVG/1.1/DTD/svg11.dtd" >
<svg xmlns="http://www.w3.org/2000/svg">
<metadata></metadata>
<defs>
<font id="junicodebolditalic" horiz-adv-x="956" >
<font-face units-per-em="2048" ascent="1638" descent="-410" />
<missing-glyph horiz-adv-x="559" />
<glyph unicode="&#x2e;&#x2e;&#x2e;" horiz-adv-x="2074" d="M219 133q0 52 38 95q44 51 126 51q75 0 118 -59q31 -42 31 -101q0 -79 -63 -121q-38 -25 -86 -25q-74 0 -122 47q-42 42 -42 113zM895 133q0 52 38 95q44 51 126 51q75 0 118 -59q31 -42 31 -101q0 -79 -63 -121l-28 -14q-28 -11 -58 -11q-76 0 -123 48q-41 42 -41 112z M1571 133q0 52 38 95q44 51 126 51q73 0 117 -58q32 -43 32 -102q0 -79 -63 -121l-28 -14q-28 -11 -58 -11q-74 0 -121 46q-43 42 -43 114z" />
<glyph unicode="&#xfb01;" horiz-adv-x="1032" d="M-287 -424q0 45 29 75t63 30q60 0 86 -56q35 -71 66 -71q27 0 46.5 18t29.5 47t18 63.5t15 67.5l196 975h-186q-15 0 1.5 53t31.5 53h176q34 175 67 279t86 176q131 178 361 178q108 0 167.5 -55t59.5 -141q0 -119 -94 -119q-37 0 -70 22.5t-33 71.5q-2 31 1.5 62.5 t-16 54t-66.5 22.5q-70 0 -140 -104q-33 -51 -57.5 -127t-37.5 -152.5t-32 -167.5h348q54 0 101 10.5t61 10.5q31 0 19 -39l-181 -633q-10 -39 13 -39q30 0 98 80q10 15 38 -11t17 -36q-174 -201 -288 -201q-62 0 -82.5 68t2.5 127l141 485q10 31 0 51.5t-37 20.5h-270 l-166 -821q-21 -105 -64 -209.5t-75 -134.5q-119 -111 -252 -111q-88 0 -139.5 41t-51.5 86z" />
<glyph unicode="&#xfb02;" horiz-adv-x="1013" d="M-289 -424q0 45 29 75t63 30q58 0 86 -56q7 -10 11 -20.5t10 -19.5t12 -16t14.5 -11t18.5 -4q27 0 46 18t29.5 47t18.5 63.5t14 67.5l199 987h-182q-14 0 2 53.5t31 53.5h172q65 325 151 442q131 178 361 178q69 0 116 -22q48 8 109 26.5t74 18.5q20 0 12 -39l-299 -1268 q-10 -39 16 -39q31 0 93 86q8 15 38.5 -9.5t20.5 -35.5q-160 -211 -281 -211q-59 0 -80.5 58.5t-5.5 126.5l138 581h-287l-168 -833q-21 -105 -64 -209.5t-75 -134.5q-121 -111 -252 -111q-88 0 -139.5 41t-51.5 86zM481 844h291l78 336q18 80 -4.5 141t-100.5 61 q-71 0 -139 -104q-33 -51 -57.5 -129t-37.5 -151.5t-30 -153.5z" />
<glyph unicode="&#xfb03;" horiz-adv-x="1503" d="M-289 -424q0 45 29 75t63 30q58 0 86 -56q7 -10 11 -20.5t10 -19.5t12 -16t14.5 -11t18.5 -4q27 0 46 18t29.5 47t18.5 63.5t14 67.5l197 975h-182q-17 0 -0.5 53t33.5 53h172q65 318 149 433q131 178 363 178q125 0 186 -82q119 104 293 104q102 0 164.5 -55t62.5 -141 q0 -62 -27.5 -90.5t-66.5 -28.5t-70.5 22.5t-31.5 71.5q2 23 0 47.5t-6.5 45t-24 33.5t-51.5 13q-74 0 -142 -104q-32 -51 -57 -128t-37 -152.5t-31 -166.5h344q52 0 100 10.5t62 10.5q31 0 19 -39l-181 -633q-10 -39 13 -39q14 0 34.5 15.5t35 33t28.5 31.5q12 12 39 -12.5 t16 -34.5q-174 -201 -288 -201q-62 0 -82.5 68t2.5 127l141 485q10 23 1 47.5t-38 24.5h-266l-162 -795q-20 -104 -63 -208.5t-76 -133.5q-103 -110 -250 -110q-98 0 -149.5 47t-38.5 96q-35 -63 -113 -117.5t-182 -54.5q-88 0 -139.5 41t-51.5 86zM221 -322q29 29 64 29 q59 0 86 -53q37 -74 65 -74q19 0 34 8.5t24.5 22.5t18.5 34.5t14 42t10.5 45t9.5 46.5l190 946h-278l-166 -821q-25 -119 -72 -226zM479 831h281q57 283 110 386q-6 18 -10 37.5t-13 38t-21.5 33.5t-34 24.5t-50.5 9.5q-75 0 -139 -103q-24 -36 -43.5 -87.5t-32 -104.5 t-25 -113.5t-22.5 -120.5z" />
<glyph unicode="&#xfb04;" horiz-adv-x="1492" d="M-289 -424q0 45 29 75t63 30q58 0 86 -56q7 -10 11 -20.5t10 -19.5t12 -16t14.5 -11t18.5 -4q27 0 46 18t29.5 47t18.5 63.5t14 67.5l199 987h-182q-14 0 2 53.5t31 53.5h172q65 309 147 420q131 178 363 178q125 0 186 -82q119 104 293 104q63 0 115 -22q45 8 105 26.5 t75 18.5q28 0 18 -39l-299 -1268q-8 -39 19 -39q14 0 32.5 16.5t31.5 36t26 33.5q10 15 39.5 -8.5t19.5 -36.5q-158 -209 -280 -209q-62 0 -83.5 57.5t-5.5 125.5l138 581h-287l-164 -807q-20 -104 -63 -208.5t-76 -133.5q-103 -110 -250 -110q-98 0 -149.5 47t-38.5 96 q-35 -63 -113 -117.5t-182 -54.5q-88 0 -139.5 41t-51.5 86zM221 -322q29 29 64 29q59 0 86 -53q37 -74 65 -74q19 0 34 8.5t24.5 22.5t18.5 34.5t14 42t10.5 45t9.5 46.5l192 958h-278l-168 -833q-25 -119 -72 -226zM481 844h281q49 258 108 373q-6 18 -10 37.5t-13 38 t-21.5 33.5t-34 24.5t-50.5 9.5q-75 0 -139 -103q-31 -49 -55.5 -124.5t-37.5 -145t-28 -143.5zM958 844h291l78 336q21 77 -3 139.5t-101 62.5q-74 0 -142 -104q-45 -72 -76.5 -202t-46.5 -232z" />
<glyph horiz-adv-x="0" />
<glyph horiz-adv-x="0" />
<glyph unicode="&#xd;" horiz-adv-x="682" />
<glyph unicode=" "  horiz-adv-x="559" />
<glyph unicode="&#x09;" horiz-adv-x="559" />
<glyph unicode="&#xa0;" horiz-adv-x="559" />
<glyph unicode="!" horiz-adv-x="569" d="M68 135.5q0 64.5 50 108.5t115.5 44t108.5 -49.5t43 -115.5q-1 -66 -50.5 -108t-114.5 -42t-108.5 49t-43.5 113.5zM272 446l139 719q15 77 30 119.5t62.5 78.5t94.5 36q117 0 117 -92q0 -36 -15.5 -76.5t-158.5 -377.5t-172 -411q-9 -20 -51.5 -20t-45.5 24z" />
<glyph unicode="&#x22;" horiz-adv-x="794" d="M366 944q4 29 20.5 221.5t24.5 214.5q36 100 152 100t116 -68q0 -20 -8 -45t-99.5 -195.5t-117.5 -227.5h-88zM768 944q4 29 20.5 221.5t24.5 214.5q36 100 152 100t116 -68q0 -20 -8 -45t-99.5 -195.5t-117.5 -227.5h-88z" />
<glyph unicode="#" horiz-adv-x="1015" d="M72 381l22 133h230l127 289h-195l25 131h229l137 315h135l-139 -315h180l140 315h135l-140 -315h179l-23 -131h-213l-127 -289h178l-22 -133h-215l-164 -371h-135l164 371h-181l-163 -371h-136l164 371h-192zM459 514h180l127 289h-180z" />
<glyph unicode="$" horiz-adv-x="995" d="M74 136q-3 100 30 239q6 25 52.5 25t42.5 -22q-5 -30 -5 -53q0 -94 46.5 -154t117.5 -83l134 492q-162 69 -205 130.5t-43 153.5q0 175 129 309t319 156l37 137q4 16 66.5 16t58.5 -16l-37 -137q97 -5 132 -16.5t58 -11.5t40 2q0 -129 -23 -261q-5 -29 -49.5 -29 t-46.5 16l-2 41q-7 136 -133 171l-119 -444q155 -49 218.5 -114t63.5 -169q0 -94 -42 -198t-158 -210t-299 -122l-37 -134q-4 -15 -66.5 -15t-58.5 15l37 136q-100 9 -190 56l-66 34zM461 972q0 -85 100 -132l109 405q-90 -20 -149.5 -107.5t-59.5 -165.5zM481 74 q106 12 175 107t69 193q0 99 -121 158z" />
<glyph unicode="%" horiz-adv-x="1816" d="M195 848q0 170 171 336t359 166q203 0 248 -160q49 -12 104 -12q264 0 488 243h137l-1258 -1542h-165l1030 1256q-35 -19 -102.5 -31t-114.5 -12q-50 0 -107 10q-2 -115 -61.5 -243t-175 -224t-250.5 -96q-150 0 -226.5 87t-76.5 222zM401 774q0 -63 30 -106t83 -43 q135 0 246.5 173t111.5 318q0 4 -1 13.5t-1 13.5q-90 43 -137 114q-96 -26 -214 -204.5t-118 -278.5zM987 266q0 170 172 335t361 165q129 0 193 -68q65 -67 65 -174q0 -114 -59 -243q-58 -129 -175 -228q-117 -98 -254 -98q-149 0 -226 87t-77 224zM1194 190 q0 -63 30.5 -106t84.5 -43q133 0 244 174q112 174 112 317q0 68 -30 108q-29 40 -85 40q-92 0 -224 -190.5t-132 -299.5z" />
<glyph unicode="&#x26;" horiz-adv-x="1658" d="M104 401q0 103 49.5 230t195 256t294.5 129q51 0 88 -32t47 -73q109 86 214.5 222.5t105.5 220.5q0 18 -23.5 44.5t-23.5 65.5t33.5 74t92.5 35q58 0 90.5 -43t32.5 -98q0 -89 -80.5 -206.5t-188 -220t-261.5 -223t-251 -188.5l-204 -139q0 -138 91.5 -219.5t244.5 -81.5 q244 0 416 207.5t180 457.5q-26 23 -83 23q-56 0 -104 -30t-48 -55q0 -26 22.5 -41.5t45 -34.5t22.5 -58t-32 -62.5t-78 -23.5t-83 31.5t-37 82.5q0 119 122 226.5t259 107.5q160 0 276 -182q41 -66 62 -66t21 39t-15.5 65t-15.5 46q0 41 34 63.5t79 22.5t73.5 -46t28.5 -93 q0 -48 -9 -75.5t-32.5 -43t-40 -22.5t-57.5 -16t-52.5 -13.5t-53.5 -21.5t-66 -17q-25 0 -51 30q-37 47 -121 125q10 -57 10 -102q0 -151 -79.5 -307.5t-247.5 -278t-388 -121.5q-225 0 -364.5 112t-139.5 318zM315 532q66 46 256 205q19 47 19 81t-21.5 53.5t-42.5 19.5 q-80 0 -143.5 -132t-67.5 -227z" />
<glyph unicode="'" horiz-adv-x="440" d="M358 944q15 72 28 242t22 194q34 101 155 101q142 0 105 -115q-9 -23 -100 -191q-91 -169 -115 -231h-95z" />
<glyph unicode="(" horiz-adv-x="694" d="M162 330q-15 254 68 489q83 236 247 410q176 186 416 295q16 8 35 -15q18 -22 4 -30q-86 -49 -184 -155q-99 -105 -175 -234q-241 -416 -215 -889q9 -144 50 -286t98 -222q10 -15 -13 -34q-24 -19 -34 -9q-129 112 -208 301q-79 188 -89 379z" />
<glyph unicode=")" horiz-adv-x="694" d="M-121 -307q205 117 361 385q243 420 217 893q-17 299 -150 508q-8 14 14 33q21 20 33 10q131 -119 208 -302q77 -184 87 -376q15 -258 -67 -494q-82 -235 -244 -407q-82 -86 -158 -145q-76 -58 -132 -87q-56 -28 -126 -65q-16 -8 -38 15q-21 24 -5 32z" />
<glyph unicode="*" horiz-adv-x="829" d="M35 874l266 138l-207 135l76 96l207 -135l59 276h111l-60 -276l271 139l35 -96l-271 -139l211 -140l-76 -96l-211 139l-59 -274h-111l60 274l-266 -137z" />
<glyph unicode="+" horiz-adv-x="1064" d="M123 362v148h321v326h181v-326h319v-148h-319v-362h-181v362h-321z" />
<glyph unicode="," horiz-adv-x="557" d="M-35 -244q189 150 223 258q9 33 -14 41q-78 43 -78 125q0 60 51.5 106t121 46t114.5 -43t45 -121q0 -76 -52 -159t-127 -146.5t-142.5 -106.5t-108.5 -59q-16 -10 -31.5 18.5t-1.5 40.5z" />
<glyph unicode="-" horiz-adv-x="864" d="M156.5 544.5q13.5 65.5 48.5 65.5h610q27 0 11.5 -65.5t-46.5 -65.5h-608q-29 0 -15.5 65.5z" />
<glyph unicode="." horiz-adv-x="557" d="M92 133q0 47 38 96q38 50 126 50q61 0 105 -45q45 -44 45 -115q0 -64 -44 -105q-43 -41 -106 -41q-59 0 -112 38q-52 38 -52 122z" />
<glyph unicode="/" horiz-adv-x="530" d="M49 39l615 1442q10 24 75 -1q66 -26 54 -55l-615 -1441q-10 -13 -42 -6q-32 8 -62 27q-31 20 -25 34z" />
<glyph unicode="0" d="M84 345q0 221 94.5 464.5t237 383.5t338.5 140q164 0 234.5 -105.5t70.5 -269.5q0 -206 -85.5 -438t-240 -384t-342.5 -152q-166 0 -236.5 103t-70.5 258zM307 264q0 -188 99 -188q128 0 213 161.5t152 432t67 410.5q0 163 -107 163t-196 -155.5t-158.5 -423 t-69.5 -400.5z" />
<glyph unicode="1" d="M121 30q10 38 24 38q105 0 153 45t83 168l215 806q10 33 6 47.5t-27 6.5q-129 -47 -163 -60q-19 -6 -24 23t18 37q188 71 405 213q33 20 47 20q21 0 33 -14t2 -39q-29 -74 -49 -160l-236 -878q-35 -107 -14.5 -161t119.5 -54q16 0 6 -38t-27 -38q-82 8 -280 8 q-205 0 -287 -8q-14 0 -4 38z" />
<glyph unicode="2" d="M-74 20.5q-6 28.5 31 59.5q121 94 288 247.5t298 303.5q235 274 235 418q0 61 -32.5 98t-94.5 37q-147 0 -286 -164q-15 -21 -43.5 -2.5t-12.5 37.5q94 119 215 198.5t248 79.5q125 0 196.5 -68.5t71.5 -177.5q0 -124 -79.5 -239t-208.5 -238q-74 -71 -162 -145 t-199.5 -162t-140.5 -110h295q104 0 158.5 16t103.5 82q14 20 53 5t25 -36l-160 -229q-29 -39 -90 -39q-31 0 -111 4t-213 4q-129 0 -228 -4t-116 -4q-35 0 -41 28.5z" />
<glyph unicode="3" d="M12 117q0 53 45 88t101 35q37 0 61.5 -26t35.5 -55.5t39 -55t68 -25.5q107 0 197 144.5t90 262.5q0 86 -46 137.5t-138 51.5q-55 0 -111 -17q-26 0 -14 53.5t37 53.5q194 0 307 123q78 84 78 192q0 56 -27.5 90.5t-81.5 34.5q-67 0 -126.5 -35.5t-139.5 -119.5 q-18 -21 -44 3.5t-9 41.5q115 118 211 178.5t209 60.5q110 0 174.5 -63.5t64.5 -161.5q0 -113 -71.5 -202t-184.5 -146q166 -53 166 -230q0 -147 -95 -277t-238.5 -203t-286.5 -73q-101 0 -186 32t-85 108z" />
<glyph unicode="4" d="M22 414q0 50 89 137l393 383q278 272 457 479q36 31 83.5 10.5t28.5 -63.5l-833 -815q-41 -41 -2 -41h356l106 399q7 23 120.5 23t107.5 -23l-107 -399h123q14 0 -2 -66.5t-33 -66.5h-123l-59 -215q-14 -56 5.5 -72t74.5 -16q16 0 6 -38t-27 -38q-81 8 -235 8t-236 -8 q-16 0 -6 38t27 38q74 0 111.5 19t52.5 69l59 215h-461q-76 0 -76 43z" />
<glyph unicode="5" d="M4 106q0 56 47 91.5t103 33.5q49 0 100 -69.5t106 -69.5q125 0 230.5 133t105.5 264q0 99 -65.5 156t-179.5 57q-66 0 -144 -20q-43 -12 -51 7.5t8 43.5l236 529q26 55 84 55h501q17 0 -26 -93.5t-58 -93.5h-415q-33 0 -49 -30l-70 -154q-8 -20 -4 -27.5t18 -5.5 q54 5 66 5q188 0 281.5 -81t93.5 -206q0 -191 -144 -375q-96 -125 -235.5 -198.5t-294.5 -73.5q-244 0 -244 122z" />
<glyph unicode="6" d="M84 305q0 76 25 170q73 279 347.5 537t585.5 370q23 9 32 -21t-9 -40q-213 -102 -377 -274.5t-256 -360.5q117 111 248 111t196.5 -81t65.5 -200q0 -209 -172 -370.5t-383 -161.5q-160 0 -231.5 89t-71.5 232zM311 260q0 -172 127 -172q117 0 193 119t76 244 q0 77 -39 134.5t-109 57.5q-94 0 -182 -78q-66 -162 -66 -305z" />
<glyph unicode="7" d="M98 20q129 156 201 254l647 867h-297q-59 0 -97 -4t-100.5 -35t-103.5 -90q-8 -13 -31.5 -16t-42 3.5t-14.5 18.5l117 242q8 20 12 27t12.5 16.5t18.5 11.5t26 2h682q41 0 47.5 -17.5t-11 -39t-29.5 -41.5l-811 -1219q-9 -10 -37.5 -16.5t-64.5 -5t-68.5 5.5t-49 14 t-6.5 22z" />
<glyph unicode="8" d="M61 246q0 147 98.5 243.5t262.5 165.5q-146 111 -146 252q0 172 149.5 299t326.5 127q135 0 216 -58t81 -175q0 -125 -87.5 -223.5t-216.5 -157.5q166 -119 166 -287q0 -184 -164.5 -316t-355.5 -132q-143 0 -236.5 68.5t-93.5 193.5zM297 254q0 -76 38 -127t111 -51 q91 0 159.5 86t68.5 180q0 129 -176 254q-92 -49 -146.5 -142.5t-54.5 -199.5zM489 1014q0 -117 181 -232q159 109 159 301q0 150 -129 150q-79 0 -145 -69.5t-66 -149.5z" />
<glyph unicode="9" d="M90 13.5q0 23.5 12 29.5q224 109 355 238t254 346q-43 -33 -113 -62.5t-121 -29.5q-129 0 -202.5 75.5t-73.5 186.5q0 104 56 212.5t138 182.5q158 141 363 141q153 0 228 -90t75 -229q0 -320 -309 -637q-252 -258 -629 -418q-14 -6 -23.5 12.5t-9.5 42zM446 860 q0 -78 35 -132t99 -54q96 0 176 59q32 64 55 161t23 169q0 164 -134 164q-108 0 -181 -124t-73 -243z" />
<glyph unicode=":" horiz-adv-x="593" d="M152 131q0 64 46 110t109 46q64 0 110 -46t46 -110q0 -65 -46 -112q-46 -46 -110 -46q-63 0 -109 46q-46 47 -46 112zM319 707q0 63 48 110q47 47 110 47q64 0 110 -46t46 -111q0 -64 -46 -110t-110 -46q-63 0 -110 46q-48 46 -48 110z" />
<glyph unicode=";" horiz-adv-x="593" d="M20 -236q25 23 67 56t91 92t66 113q10 30 -13 41q-26 10 -52 43q-25 32 -25 81q0 60 50 105t120 45q69 0 114 -43t45 -121q0 -100 -90 -209q-90 -108 -183 -173q-93 -64 -157 -89q-16 -8 -31 20q-16 27 -2 39zM295 711q0 63 44 108t107 45q64 0 109 -45t45 -108 q0 -64 -45 -107t-109 -43q-63 0 -107 43t-44 107z" />
<glyph unicode="&#x3c;" horiz-adv-x="1024" d="M78 356v129l870 381v-184l-604 -260l604 -260v-185z" />
<glyph unicode="=" horiz-adv-x="1064" d="M119 268v142h829v-142h-829zM119 575v142h829v-142h-829z" />
<glyph unicode="&#x3e;" horiz-adv-x="1024" d="M76 -23v185l604 260l-604 260v184l870 -381v-129z" />
<glyph unicode="?" horiz-adv-x="694" d="M68 126q0 69 44 116t111.5 47t109.5 -48t42 -115t-43 -110t-108.5 -43t-110.5 42t-45 111zM254 584q0 88 41 141t123 88l121 53q174 76 174 176q0 103 -230 103q-24 0 -55 27.5t-31 70.5q0 45 44 89t106 44q115 0 188.5 -103.5t73.5 -246.5q0 -115 -47 -207t-115 -121 l-176 -75q-88 -37 -104.5 -75t-16.5 -106q0 -16 -31.5 -24t-35.5 8q-29 111 -29 158z" />
<glyph unicode="@" horiz-adv-x="1597" d="M72 602q0 234 117.5 415t305 274t406.5 93q287 0 456 -158.5t169 -377.5q0 -201 -151.5 -348.5t-399.5 -147.5q-144 0 -144 84q0 31 19 82l-10 6q-148 -166 -250 -166q-60 0 -86.5 41t-26.5 95q0 96 55.5 215.5t157 212t209.5 92.5q62 0 92 -31l21 51q6 19 53 19 q16 0 43 -13.5t20 -29.5l-141 -478q-29 -102 14 -102q166 0 281 116t115 294q0 198 -146.5 328t-367.5 130q-189 0 -335.5 -99t-220 -256t-73.5 -339q0 -74 17.5 -145.5t60.5 -145t107.5 -130t169 -92.5t235.5 -36q135 0 323 72q17 8 30 -17.5t-3 -33.5q-176 -109 -412 -109 q-133 0 -257 39t-226 115t-164.5 200.5t-62.5 280.5zM629 518q0 -69 30 -69q52 0 166 131q62 69 99 192l43 148q-19 47 -84 47q-62 0 -123.5 -87t-96 -191.5t-34.5 -170.5z" />
<glyph unicode="A" horiz-adv-x="1165" d="M-159 5.5q0 13.5 7 47t22 33.5q109 0 157 34.5t90 97.5l655 974q8 12 8 23t-9.5 22.5t-9.5 22.5q0 20 68 43q69 24 124.5 53.5t83.5 29.5q42 0 42 -50q0 -22 -14 -79.5t-20 -106.5l-117 -948q-2 -15 -2 -30q0 -86 126 -86q8 0 8 -19t-8.5 -47t-20.5 -28q-76 8 -230.5 8 t-231.5 -8q-8 0 -8 17.5t9.5 47t19.5 29.5q61 0 89 22t37 94l37 283q5 38 -37 38h-246q-30 0 -48 -28l-189 -294q-24 -38 -24 -60q0 -55 121 -55q8 0 8 -18.5t-8.5 -47t-20.5 -28.5q-76 8 -229.5 8t-230.5 -8q-8 0 -8 13.5zM509 617.5q0 -10.5 19 -10.5h204q37 0 42 42 l47 413v5q0 10 -6 10q-8 0 -17 -13l-283 -428q-6 -8 -6 -18.5z" />
<glyph unicode="B" horiz-adv-x="1245" d="M-25 4.5q0 12.5 8.5 47t24.5 34.5q111 0 144.5 32.5t48.5 83.5l286 954q8 26 8 52q0 25 -29.5 40.5t-119.5 15.5q-7 0 -7 12.5t10 47t23 34.5q139 -4 230 -4t171.5 2t154.5 2q167 0 262 -71.5t95 -188.5q0 -115 -75.5 -205t-183.5 -142q-20 -10 -20 -19.5t18 -20.5 q162 -105 162 -259q0 -164 -141.5 -311t-500.5 -147q-59 0 -134 3t-139.5 3t-287.5 -8q-8 0 -8 12.5zM433 164q0 -90 100 -90q197 0 299 104.5t102 300.5q0 107 -76.5 155t-253.5 48q-27 0 -35 -27l-127 -426q-9 -30 -9 -65zM610 776q0 -16 51 -16q174 0 281.5 90t107.5 243 q0 97 -53 142t-202 45q-36 0 -48 -40l-134 -444q-3 -8 -3 -20z" />
<glyph unicode="C" horiz-adv-x="1470" d="M178 469q0 351 299 633.5t671 282.5q108 0 242 -28t193 -28q-12 -181 -61 -334q-6 -17 -53 -17t-44 21q9 53 9 74q0 104 -93.5 165t-232.5 61q-274 0 -482 -259.5t-208 -585.5q0 -152 86 -271.5t264 -119.5q117 0 209.5 33.5t169 105t125.5 144.5q10 15 53 13t43 -17 q0 -38 -68 -154.5t-101 -151.5q-53 -7 -89 -19q-176 -44 -402 -44q-227 0 -378.5 133t-151.5 363z" />
<glyph unicode="D" horiz-adv-x="1554" d="M-24 5.5q0 13.5 8 47t22 33.5q79 0 113 12.5t52 39t30 64.5l286 952q8 28 8 51q0 24 -25 41.5t-122 17.5q-16 0 -4.5 47t25.5 47q90 -4 231 -4t249.5 2t158.5 2q274 0 437 -122t163 -344q0 -320 -278 -610t-665 -290q-44 0 -195.5 4t-223.5 4t-261 -8q-9 0 -9 13.5z M439 189q0 -118 176 -118q273 0 503 258.5t230 539.5q0 189 -116.5 300t-307.5 111q-66 0 -104.5 -4.5t-56 -24.5t-30.5 -61l-282 -926q-12 -42 -12 -75z" />
<glyph unicode="E" horiz-adv-x="1256" d="M-24 5.5q0 13.5 8 47t22 33.5q99 0 136.5 26t61.5 106l283 939q5 13 5 39q0 67 -146 67q-8 0 -8 14.5t9.5 47.5t21.5 33q102 -4 240 -4t386 2t348 2q63 0 63 -30q0 -13 -4 -27l-84 -289q-6 -19 -52 -19t-42 17q7 33 7 83t-41.5 104.5t-125.5 59.5q-132 7 -242 7h-27 q-38 0 -48 -32l-159 -508q-2 -8 -2 -13q0 -19 23 -19h180q48 0 70 10q22 9 31 37l48 145q6 19 51.5 19t38.5 -19q-74 -210 -138 -466q-4 -17 -46.5 -17t-37.5 17l34 128q8 29 -10 40q-18 12 -58 12h-201q-21 0 -29 -27l-103 -348q-10 -34 -10 -67q0 -78 89 -78h9l290 12 q165 7 268 292q5 17 52.5 17t42.5 -17l-101 -361q-8 -29 -58 -29q-100 0 -368 4t-379.5 4t-288.5 -8q-9 0 -9 13.5z" />
<glyph unicode="F" horiz-adv-x="1235" d="M-24 5.5q0 13.5 8 47t22 33.5q86 0 129 21q44 21 66 95l286 954q8 27 8 51q0 57 -147 57q-9 0 -9 15.5t9 47t21 31.5q143 -6 259.5 -6t364.5 3t348 3q66 0 66 -25q0 -16 -5 -34l-86 -287q-10 -17 -53.5 -17t-38.5 17q11 37 11 83q0 47 -50 103.5t-121 58.5q-199 7 -290 7 q-21 0 -31 -34l-140 -464q-3 -11 -3 -20q0 -20 21 -20h124q112 0 149 128l32 112q5 16 51 16t43 -16q-27 -63 -94 -294t-78 -280q-4 -14 -47 -14t-39 14l20 66q25 83 25 107q0 67 -83 67h-136q-24 0 -34 -34l-119 -396q-9 -29 -9 -55q0 -61 147 -61q8 0 8 -14.5t-9 -47 t-20 -32.5q-76 8 -283.5 8t-283.5 -8q-9 0 -9 13.5z" />
<glyph unicode="G" horiz-adv-x="1476" d="M178 448q0 352 296 644.5t655 292.5q119 0 254.5 -28t197.5 -28q0 -159 -59 -336q-5 -15 -51 -14t-44 20q5 57 5 59q0 124 -95 182.5t-233 58.5q-267 0 -476 -260.5t-209 -551.5q0 -204 92.5 -314t240.5 -110q278 0 323 157l48 166q6 19 6 31q0 18 -15.5 29.5 t-160.5 11.5q-8 0 -8 16t8 48t21 32q57 -6 265.5 -6t265.5 6q8 0 8 -15.5t-8.5 -48t-20.5 -32.5q-76 0 -100.5 -17.5t-40.5 -71.5l-69 -235q-4 -15 -4 -29.5t15 -18t15 -15.5q0 -42 -26 -42q-63 0 -196 -18.5t-222 -28t-136 -9.5q-246 0 -394 135.5t-148 339.5z" />
<glyph unicode="H" horiz-adv-x="1541" d="M-25 5q0 13 8.5 47t24.5 34q88 0 133 23.5t65 92.5l272 952q8 27 8 54q0 62 -140 62q-7 0 -7 13.5t10.5 47t22.5 33.5q58 -6 286 -6t286 6q8 0 8 -13.5t-11 -47t-24 -33.5q-107 0 -146 -27t-57 -89l-105 -369q-4 -14 -4 -25t27 -11h478q36 0 46 36l105 369q8 27 8 54 q0 62 -140 62q-7 0 -7 13t11 47t23 34q57 -6 285 -6t286 6q8 0 8 -12.5t-10 -47t-25 -34.5q-114 0 -150 -29t-53 -87l-273 -952q-7 -25 -7 -49q0 -67 149 -67q7 0 7 -14t-9.5 -47t-20.5 -33q-77 8 -289 8t-288 -8q-7 0 -7 14.5t9 47t23 32.5q88 0 133 23.5t65 92.5l117 412 q4 13 4 26t-27 13h-478q-34 0 -43 -32l-121 -419q-7 -25 -7 -49q0 -67 149 -67q7 0 7 -14t-9 -47t-21 -33q-77 8 -289 8t-288 -8q-8 0 -8 13z" />
<glyph unicode="I" horiz-adv-x="754" d="M-25 5q0 13 8.5 47t24.5 34q88 0 133 23.5t65 92.5l272 952q8 27 8 63q0 53 -140 53q-7 0 -7 13.5t11 47t22 33.5q58 -6 286 -6t286 6q8 0 8 -12.5t-10 -47t-25 -34.5q-110 0 -148.5 -29.5t-54.5 -86.5l-273 -952q-7 -25 -7 -52q0 -64 149 -64q7 0 7 -14.5t-9.5 -47 t-20.5 -32.5q-77 8 -289 8t-288 -8q-8 0 -8 13z" />
<glyph unicode="J" horiz-adv-x="658" d="M-338 -303q0 58 49 90t105 32q58 0 97 -35.5t43 -87.5q84 56 125.5 167t233.5 775l149 516q7 23 7 41q0 75 -125 75q-8 0 -8 15t9.5 47t23.5 32q57 -6 269 -6t269 6q9 0 9 -13.5t-8 -47t-24 -33.5q-82 0 -123.5 -21t-63.5 -95l-257 -881q-100 -349 -280.5 -520 t-339.5 -171q-72 0 -116 28.5t-44 86.5z" />
<glyph unicode="K" horiz-adv-x="1342" d="M-24 3.5q0 10.5 8 46.5t24 36q93 0 134.5 23.5t61.5 92.5l277 952q7 25 7 50q0 66 -140 66q-9 0 -9 14t10.5 47t22.5 33q71 -6 273.5 -6t275.5 6q8 0 8 -13.5t-11 -47t-24 -33.5q-84 0 -121 -19.5t-59 -96.5l-114 -396q-2 -6 -2 -12t6 -6q21 0 82 55l397 362q63 57 63 86 q0 27 -50 27q-8 0 -8 12.5t12.5 47t24.5 34.5q70 -6 213.5 -6t200.5 6q9 0 9 -12.5t-10 -47t-25 -34.5q-94 0 -154 -30.5t-161 -118.5l-394 -344q-16 -14 -16 -25t12 -34l281 -527q35 -65 82.5 -85t112.5 -20q10 0 10 -20t-6.5 -47t-18.5 -27q-92 8 -265.5 8t-265.5 -8 q-10 0 -10 16t9.5 47t21.5 31q84 0 84 50q0 21 -23 68l-176 359q-17 36 -32.5 49.5t-28 13.5t-19.5 -24l-117 -400q-7 -24 -7 -52q0 -64 131 -64q7 0 7 -15t-9 -47t-22 -32q-112 8 -273 8t-281 -7q-9 0 -9 10.5z" />
<glyph unicode="L" horiz-adv-x="1317" d="M-26 4q0 12 11 47t26 35q125 0 153.5 33t41.5 78l275 957q8 26 8 52q0 64 -143 64q-7 0 -7 14t11 47t22 33q58 -6 293 -6t292 6q6 0 6 -13t-10.5 -47t-22.5 -34q-122 0 -155.5 -26.5t-54.5 -89.5l-265 -913q-15 -47 -15 -81q0 -82 103 -82h7l317 14q257 11 338 290 q5 17 54 17t44 -17l-96 -334q-11 -42 -22.5 -49t-84.5 -7q-100 0 -393 4t-414 4t-312 -8q-7 0 -7 12z" />
<glyph unicode="M" horiz-adv-x="1929" d="M-28 4.5q0 12.5 8.5 47t23.5 34.5q86 0 129.5 24.5t74.5 109.5l325 880q18 48 18 83q0 87 -135 87q-7 0 -7 13t12.5 47t23.5 34q95 -6 179 -6t102 -20q23 -22 34 -75l180 -902q5 -26 18 -26t29 20l749 927q35 43 68 59q34 17 117.5 17t189.5 6q7 0 7 -12t-10.5 -47 t-23.5 -35q-111 0 -141.5 -32.5t-68.5 -160.5l-262 -878q-8 -25 -8 -50q0 -63 147 -63q8 0 8 -14t-9.5 -47t-20.5 -33q-77 8 -274.5 8t-274.5 -8q-8 0 -8 13.5t11 47t24 33.5q77 0 117 30.5t61 101.5l193 643q3 11 3 18q0 12 -9.5 12t-32.5 -28l-683 -841q-31 -39 -55.5 -39 t-32.5 42l-168 873q-5 28 -15.5 28t-19.5 -26l-256 -701q-10 -27 -10 -51q0 -62 119 -62q8 0 8 -15t-10 -47t-23 -32q-76 8 -207 8t-207 -8q-7 0 -7 12.5z" />
<glyph unicode="N" horiz-adv-x="1478" d="M-28 4.5q0 12.5 8.5 47t23.5 34.5q96 0 136.5 26t58.5 90l254 894q16 55 16 103t-46 62q-32 9 -85 9q-6 0 -6 13.5t10.5 47t24.5 33.5q75 -5 165 -5t116 -14.5t42 -47.5l445 -902q15 -31 30 -31q17 0 27 35l221 755q8 26 8 45q0 71 -128 71q-7 0 -7 13.5t11 47t25 33.5 q57 -6 204 -6t204 6q9 0 9 -12.5t-10 -47t-25 -34.5q-104 0 -137 -28t-45 -72l-330 -1143q-16 -54 -58 -54t-57 29l-504 1006q-12 23 -22.5 23t-17.5 -24l-229 -805q-9 -32 -9 -56q0 -60 123 -60q8 0 8 -14.5t-10 -47t-23 -32.5q-76 8 -207 8t-207 -8q-7 0 -7 12.5z" />
<glyph unicode="O" horiz-adv-x="1512" d="M178 451q0 345 263 639.5t638 294.5q241 0 365 -149t124 -361q0 -343 -261 -622.5t-635 -279.5q-206 0 -350 133.5t-144 344.5zM421 474q0 -188 85.5 -299.5t207.5 -111.5q178 0 312 116.5t219.5 308.5t85.5 386q0 176 -85 301.5t-204 125.5q-148 0 -284 -106.5 t-236.5 -299.5t-100.5 -421z" />
<glyph unicode="P" horiz-adv-x="1220" d="M-25 4.5q0 12.5 8.5 47t24.5 34.5q97 0 135 23.5t59 92.5l285 955q6 22 6 46q0 61 -147 61q-8 0 -8 15t9.5 47t23.5 32q143 -6 236 -6t193.5 3t150.5 3q185 0 301 -78.5t116 -217.5q0 -197 -188.5 -335.5t-451.5 -138.5q-71 0 -145 11q-29 4 -39 -32l-107 -365 q-7 -22 -7 -42q0 -74 158 -74q9 0 9 -15t-11 -47t-23 -32q-76 8 -290 8t-290 -8q-8 0 -8 12.5zM594 728q-3 -10 -3 -18q0 -25 27 -32q17 -4 66 -4q184 0 303 113.5t119 251.5q0 101 -61 170t-175 69t-119 -19z" />
<glyph unicode="Q" horiz-adv-x="1550" d="M178 451q0 363 273 648.5t622 285.5q247 0 371 -149t124 -361q0 -155 -68 -327t-209 -308t-267 -192q-23 -10 -23.5 -21.5t11.5 -22.5q84 -82 208.5 -158t294.5 -123q9 -3 9 -15.5t-14 -41.5q-13 -25 -29 -25h-5q-206 43 -440.5 120t-464 180.5t-311.5 222.5t-82 287z M421 481q0 -195 85.5 -306.5t207.5 -111.5q262 0 439.5 265.5t177.5 546.5q0 175 -85 300.5t-204 125.5q-130 0 -271 -99.5t-245.5 -301t-104.5 -419.5z" />
<glyph unicode="R" horiz-adv-x="1384" d="M-25 5q0 13 8.5 47t24.5 34q86 0 128 20t65 96l286 955q8 27 8 43q0 64 -149 64q-8 0 -8 14.5t9.5 47t23.5 32.5q143 -6 230 -6t191 3t236 3q133 0 252.5 -77.5t119.5 -223.5t-112.5 -261.5t-305.5 -169.5q-20 -6 -18 -26t3 -27q33 -144 173 -388q87 -153 191 -153 q16 0 15 -26q-1 -25 -20 -27q-51 -4 -96 -4q-135 0 -206.5 37.5t-122.5 97.5t-76 124l-97 248q-27 65 -53 90q-16 14 -44.5 14t-47 3t-27.5 -4q-8 -6 -12 -20l-110 -363q-8 -25 -8 -50q0 -66 157 -66q7 0 7 -14t-9.5 -47t-22.5 -33q-77 8 -288 8t-287 -8q-8 0 -8 13z M581 691.5q0 -5.5 5 -10.5q17 -17 94 -17q180 0 318 114t138 284q0 87 -73 151.5t-261 64.5q-36 0 -42.5 -8.5t-8.5 -14.5l-168 -552q-2 -6 -2 -11.5z" />
<glyph unicode="S" horiz-adv-x="1042" d="M105 71v46q0 144 36 267q7 24 55.5 24t44.5 -20q-7 -32 -7 -65q0 -99 63.5 -179.5t214.5 -80.5q105 0 192 102t87 213q0 122 -177 194l-91 36q-227 92 -227 276q0 205 160 353t384 148q116 0 185 -15.5t119 -15.5v-15q0 -122 -30 -269q-4 -20 -51.5 -20t-47.5 16v27 q-4 208 -213 208q-108 0 -191.5 -96t-83.5 -204q0 -107 166 -161l105 -34q239 -77 239 -273q0 -227 -173 -393.5t-396 -166.5q-120 0 -186 19t-177 79z" />
<glyph unicode="T" horiz-adv-x="1288" d="M242 1007l94 312q8 26 23 31t135 5q120 -3 470 -3t500 5q70 0 70 -29q0 -4 -2 -9l-92 -312q-4 -16 -54.5 -16t-45.5 16q16 53 16 93q0 54 -39 109t-150 55h-109q-24 0 -33 -29l-304 -1033q-6 -20 -6 -43.5t24.5 -48t123.5 -24.5q7 0 7 -15.5t-8 -46.5t-24 -31 q-96 7 -287 7t-293 -7q-7 0 -7 21.5t12.5 46.5t18.5 25q92 0 138 20t68 96l302 1027q16 34 -25 35h-95q-248 0 -326 -257q-5 -17 -56 -17t-46 17z" />
<glyph unicode="U" horiz-adv-x="1487" d="M241 262q0 130 49 292l182 602q10 32 10 56q0 27 -30 42.5t-106 15.5q-8 0 -8 14t9.5 47t23.5 33q57 -6 275.5 -6t276.5 6q7 0 7 -13.5t-9.5 -47t-22.5 -33.5q-115 0 -143.5 -27t-47.5 -89l-144 -476q-93 -308 -93 -417t80 -153.5t168 -44.5q176 0 299.5 95t199.5 348 l194 648q8 26 8 43q0 73 -145 73q-6 0 -6 13t10 47t23 34q57 -6 233.5 -6t234.5 6q8 0 8 -12.5t-10 -47t-23 -34.5q-106 0 -140 -32.5t-49 -83.5l-86 -283q-141 -465 -211 -587t-211.5 -216.5t-383.5 -94.5q-222 0 -322 77.5t-100 211.5z" />
<glyph unicode="V" horiz-adv-x="1350" d="M239 1284q0 14 6.5 47t19.5 33q58 -6 256.5 -6t255.5 6q9 0 9 -16.5t-6.5 -47t-19.5 -30.5q-96 0 -128 -27q-28 -24 -27 -75v-14l50 -772q1 -23 10 -23t19 15l288 415q132 190 239 357q38 59 38 84q0 40 -88 40q-8 0 -8 14t11 47t24 33q57 -6 226 -6t227 6q7 0 7 -12 t-10.5 -47t-23.5 -35q-155 0 -207 -68q-176 -231 -395 -545l-469 -672q-16 -23 -46 -23q-43 0 -48 72l-75 1120q-5 78 -31 97t-95 19q-9 0 -9 14z" />
<glyph unicode="W" horiz-adv-x="1994" d="M220 1284.5q0 14.5 6.5 47t19.5 32.5q58 -6 223 -6t222 6q10 0 10 -18t-8 -47t-19 -29q-94 0 -94 -47q0 -30 6 -69l123 -803q3 -23 20 -23q16 0 33 23l174 236q41 55 41 82q0 46 -5 78l-63 407q-11 74 -33 95t-78 21q-9 0 -9 17.5t7.5 47t19.5 29.5q57 -6 218.5 -6 t218.5 6q9 0 9 -16t-7 -47t-19 -31q-102 0 -102 -50q0 -31 6 -66l30 -192q4 -27 12 -27t28 27l135 184q54 73 54 100q0 24 -77 24q-9 0 -9 14t10.5 47t24.5 33q58 -6 204 -6t203 6q7 0 7 -12.5t-10.5 -47t-22.5 -34.5q-156 0 -201 -60l-289 -390q-31 -42 -31 -78 q0 -32 4 -64l51 -327q3 -23 17 -23q18 0 36 23q129 162 583 795q44 63 44 92q0 32 -85 32q-6 0 -6 12.5t10.5 47t22.5 34.5q57 -6 207 -6t208 6q8 0 8 -12.5t-10 -47t-25 -34.5q-141 0 -197 -71q-243 -309 -416 -547l-476 -654q-26 -36 -53 -36q-41 0 -52 72l-66 433 q-4 24 -11 24q-6 0 -25 -25l-347 -468q-27 -36 -53 -36q-41 0 -52 72l-170 1120q-12 77 -34.5 96.5t-91.5 19.5q-9 0 -9 14.5z" />
<glyph unicode="X" horiz-adv-x="1377" d="M-127 5.5q0 13.5 8 47t22 33.5q103 0 156.5 20t112.5 75l491 463q14 13 14 30q0 11 -5 23l-177 434q-30 73 -71.5 106t-127.5 33q-13 0 -3.5 47t22.5 47q57 -6 289.5 -6t289.5 6q15 0 3.5 -47t-24.5 -47q-146 0 -146 -65q0 -23 12 -55l103 -277q6 -16 18 -16q9 0 24 14 l296 281q69 66 69 94q0 24 -67 24q-13 0 -1.5 47t26.5 47q57 -6 216.5 -6t217.5 6q7 0 7 -12.5t-8.5 -47t-23.5 -34.5q-109 0 -170.5 -32.5t-196.5 -158.5l-325 -305q-20 -19 -20 -36q0 -14 5 -27l185 -491q32 -85 69.5 -109.5t137.5 -24.5q13 0 3.5 -47t-24.5 -47 q-77 8 -268 8t-267 -8q-15 0 -3.5 47t24.5 47q125 0 125 52q0 20 -18 64l-135 332q-8 20 -23 20q-13 0 -33 -19l-250 -239q-134 -128 -134 -174q0 -36 92 -36q15 0 3.5 -47t-24.5 -47q-77 8 -244 8t-243 -8q-9 0 -9 13.5z" />
<glyph unicode="Y" horiz-adv-x="1268" d="M198 1283.5q0 13.5 8 47t21 33.5q58 -6 253.5 -6t252.5 6q16 0 4.5 -47t-25.5 -47q-121 0 -121 -56q0 -24 11 -57l131 -403q8 -23 22 -23t32 20l386 406q47 52 47 78q0 35 -93 35q-15 0 -2 47t27 47q57 -6 212.5 -6t213.5 6q8 0 8 -13.5t-8 -47t-23 -33.5 q-103 0 -157.5 -34.5t-199.5 -190.5l-379 -403q-38 -40 -65 -134l-89 -307q-8 -27 -8 -51q0 -64 126 -64q15 0 2 -47t-27 -47q-76 8 -263 8t-264 -8q-13 0 -1.5 47t26.5 47q84 0 119.5 24t59.5 108l77 256q24 84 24 115t-20 89l-151 460q-27 81 -57.5 106.5t-101.5 25.5 q-8 0 -8 13.5z" />
<glyph unicode="Z" horiz-adv-x="1314" d="M-31 57q0 26 21 46l1202 1125q19 15 17 29.5t-29 14.5h-531q-49 0 -98 -33.5t-122.5 -124t-94.5 -138.5q-7 -17 -37 -11.5t-22 25.5q74 178 124 337q12 39 62 39q17 0 62.5 -7t586.5 -7l403 8q49 0 49 -43q0 -30 -26 -56l-1198 -1131q-17 -15 -13 -29.5t32 -14.5 q331 0 596 13q103 4 187 115q60 79 94 139q9 14 39 3.5t22 -22.5q-59 -102 -89.5 -187.5t-47.5 -142.5q-12 -36 -32 -36h-3q-115 21 -203 26.5t-507 5.5h-390q-54 0 -54 57z" />
<glyph unicode="[" horiz-adv-x="724" d="M53 -332l531 1843q5 18 24 19h496q14 0 -2.5 -48t-30.5 -48h-276q-19 0 -27 -23l-471 -1640q-8 -29 6 -29h301q14 0 2 -48t-28 -48h-506q-25 0 -19 22z" />
<glyph unicode="\" horiz-adv-x="716" d="M-12 1405q-13 25 54 54.5t77 4.5l629 -1409q4 -12 -28 -32.5t-63.5 -28.5t-42.5 2z" />
<glyph unicode="]" horiz-adv-x="724" d="M-233.5 -306q12.5 48 26.5 48h305q15 0 21 25l471 1644q8 23 -10 23h-281q-16 0 -4 48t29 48h493q21 0 14 -19l-528 -1843q-6 -22 -27 -22h-507q-15 0 -2.5 48z" />
<glyph unicode="^" horiz-adv-x="1024" d="M94 549l426 854h68l426 -854h-164l-293 616h-12l-295 -616h-156z" />
<glyph unicode="_" horiz-adv-x="1024" d="M-37 -145h1098v-121h-1098v121z" />
<glyph unicode="`" horiz-adv-x="917" d="M117 1218q-30 28 11 72q40 43 85 43q24 0 37 -19l209 -313q20 -31 13 -51q-9 -21 -32 -21t-42 18z" />
<glyph unicode="a" horiz-adv-x="966" d="M63 166q0 209 186 443.5t392 234.5q62 0 107 -31l20 49q9 22 93 22q91 0 91 -35q0 -7 -3 -18l-197 -651q-3 -10 -3 -19q1 -20 23 -20q36 0 102 66q12 12 40 -12q20 -17 20 -28q0 -5 -4 -9q-92 -90 -167.5 -137.5t-131.5 -47.5q-79 0 -79 89q0 61 40 146l4 7l-12 6 q-224 -248 -361 -248q-73 0 -116.5 54t-43.5 139zM285 227q0 -117 47 -117q52 0 126.5 81.5t127.5 177.5t80 184l49 160q-32 47 -101 47q-128 0 -228.5 -215.5t-100.5 -317.5z" />
<glyph unicode="b" horiz-adv-x="929" d="M89 174q0 42 11 88l228 952q9 40 9 69q0 77 -63 77q-20 0 -19 36t19 36q82 0 180.5 27.5t106.5 27.5q22 0 22 -22q0 -6 -3 -17l-189 -795l17 -8q167 207 303 207q204 0 204 -244q0 -248 -186 -441.5t-459 -193.5q-181 0 -181 201zM291 191q0 -128 69 -128 q137 0 236.5 183t99.5 372q0 113 -65 113q-78 0 -178.5 -138t-131 -246.5t-30.5 -155.5z" />
<glyph unicode="c" horiz-adv-x="743" d="M92 264q0 203 157 395.5t339 192.5q80 0 136 -33t56 -82q0 -37 -32.5 -65.5t-69.5 -28.5q-43 0 -60 31q-5 48 -27 72t-54 24q-97 0 -166.5 -145.5t-69.5 -294.5q0 -99 32 -169.5t95 -70.5q53 0 95 25.5t59 42.5q8 8 22.5 -0.5t23.5 -22t1 -22.5q-117 -140 -295 -140 q-107 0 -174.5 80t-67.5 211z" />
<glyph unicode="d" horiz-adv-x="985" d="M63 172q0 200 182.5 440t387.5 240q55 0 108 -31l93 389q10 43 10 75q0 75 -62 75q-19 0 -19 36t19 36q84 0 180.5 27.5t104.5 27.5q21 0 21 -19q0 -6 -3 -20l-291 -1220q-12 -48 -12 -64q0 -22 17 -22q28 0 94 85q7 9 22.5 0.5t27 -23.5t5.5 -24q-147 -207 -274 -207 q-58 0 -77 36t-19 102q0 20 18 104l-12 6q-86 -101 -179 -174.5t-182 -73.5q-84 0 -122 63.5t-38 135.5zM285 205q0 -94 47 -94q58 0 180 132t139 201l64 267q-41 59 -101 59q-114 0 -221.5 -201.5t-107.5 -363.5z" />
<glyph unicode="e" horiz-adv-x="751" d="M78 231q0 192 175 406.5t357 214.5q168 0 168 -139q0 -120 -142 -215.5t-337 -141.5q-16 -75 -16 -104q0 -148 92 -148q49 0 111.5 39t88.5 64q9 5 22.5 -2.5t23 -20t4.5 -20.5q-146 -191 -308 -191q-239 0 -239 258zM326 449q88 28 168.5 94.5t80.5 144.5q0 66 -44 66 q-52 0 -107.5 -87.5t-97.5 -217.5z" />
<glyph unicode="f" horiz-adv-x="624" d="M-287 -424q0 45 29 75t63 30q60 0 90.5 -63.5t61.5 -63.5q46 0 67 45.5t42 150.5l200 987h-180q-8 0 -8 14q0 32 21 73q10 20 20 20h168q67 359 189 489.5t323 130.5q102 0 164.5 -55t62.5 -141q0 -119 -94 -119q-42 0 -72.5 23.5t-30.5 102.5q0 107 -81 107 q-66 0 -136.5 -95t-126.5 -443h256q8 0 8 -12q0 -24 -23 -74q-9 -21 -19 -21h-244l-168 -833q-21 -106 -69.5 -223.5t-136.5 -174.5t-185 -57q-88 0 -139.5 41t-51.5 86z" />
<glyph unicode="g" horiz-adv-x="868" d="M-106 -327.5q0 90.5 119 154t225 97.5q-95 49 -95 109q0 67 150 164q-207 58 -207 232.5t146.5 298.5t345.5 124q45 0 109 -29.5t99 -29.5q17 0 65 10t69 10q53 0 53 -59q0 -90 -64 -90q-35 0 -139 41q14 -37 14 -107.5t-41 -163t-119 -157t-182 -84.5q-57 -12 -59 -14 q-52 -32 -52 -70.5t149 -103.5q112 -49 218.5 -122t106.5 -183.5t-163 -184.5t-372 -74q-176 0 -276 70.5t-100 161zM111 -307.5q0 -67.5 94.5 -105.5t188.5 -38t148 29.5t54 97.5q0 50 -114 122.5t-163.5 72.5t-128.5 -55.5t-79 -123zM268 319q0 -40 51 -40q97 0 192 150.5 t95 285.5q0 41 -41 41q-92 0 -194.5 -150.5t-102.5 -286.5z" />
<glyph unicode="h" horiz-adv-x="942" d="M57 10v4l289 1203q10 40 10 70q0 73 -63 73q-21 0 -20 36t20 36q86 0 183 27.5t106 27.5q25 0 16 -39l-188 -799l16 -10q154 213 305 213q201 0 201 -242q0 -170 -115.5 -403.5t-294.5 -233.5q-59 0 -101 36t-42 83q0 49 25.5 81t72.5 32q61 0 79.5 -57.5t47 -57.5 t55.5 77t48.5 199t21.5 222q0 133 -91 133t-237 -225q-39 -60 -88 -256l-61 -244q-6 -23 -100 -23q-95 0 -95 37z" />
<glyph unicode="i" horiz-adv-x="534" d="M108 648q0 3 3 7q63 77 142 137t134 60q104 0 104 -126q0 -25 -12 -64l-147 -482q-4 -14 -4 -22q0 -17 25.5 -17t88.5 80q11 14 38 -11q21 -17 21 -28q0 -5 -3 -8q-64 -79 -144 -140t-135 -61q-101 0 -101 125q0 34 11 70l147 479q4 13 4 21q0 20 -19 20t-97 -82 q-12 -12 -38 14q-18 17 -18 28zM354 1162q0 50 44 89t98 39q139 0 139 -150q0 -54 -43.5 -92t-95.5 -38q-142 0 -142 152z" />
<glyph unicode="j" horiz-adv-x="491" d="M-311 -461q0 41 31.5 66.5t72.5 25.5q31 0 68 -38.5t63 -38.5q35 0 71 56t60 161l209 876q3 12 3 20q0 21 -25 21t-92 -84q-10 -13 -37 12q-20 18 -20 28q0 4 3 7q166 201 285 201q91 0 91 -123q0 -31 -7 -63l-123 -523q-30 -144 -82 -293.5t-166 -276t-303 -126.5 q-41 0 -71.5 24.5t-30.5 67.5zM316 1162q0 50 44 89t98 39q139 0 139 -150q0 -54 -43.5 -92t-95.5 -38q-142 0 -142 152z" />
<glyph unicode="k" horiz-adv-x="929" d="M57 12l291 1202q9 39 9 57q0 89 -64 89q-21 0 -20 36t20 36q84 0 182 27.5t107 27.5q24 0 16 -39l-174 -731l16 -8q49 57 125 100t142 43q59 0 109 -32t50 -113q0 -76 -93 -163.5t-195 -139.5q-13 -7 -13 -18t10 -26l119 -165q76 -105 131 -105q34 0 74 41q3 3 8 3 q10 0 28 -15.5t18 -25.5q0 -4 -3 -7q-98 -113 -202 -113q-86 0 -132.5 28t-99.5 108l-137 210q-10 21 -35 21q-10 0 -16 -27l-76 -319q-6 -21 -104 -21q-91 0 -92 33q0 3 1 6zM352 408q0 -15 26 -15q102 0 191.5 98t89.5 193q0 55 -36 55q-96 0 -203 -129q-31 -37 -37 -63 l-29 -123q-2 -7 -2 -16z" />
<glyph unicode="l" horiz-adv-x="497" d="M85 101q0 26 7 55l248 1054q10 44 10 75q0 75 -61 75q-21 0 -20 36t20 36q84 0 180 27.5t104 27.5q21 0 21 -22q0 -7 -2 -17l-296 -1253q-5 -21 -5 -29q0 -25 20 -25q33 0 92 86q4 6 11 6q11 0 30.5 -16t19.5 -27q0 -4 -3 -8q-158 -209 -281 -209q-95 0 -95 128z" />
<glyph unicode="m" horiz-adv-x="1525" d="M74 3l190 611q12 39 12 50q0 24 -23.5 24t-88.5 -82q-4 -5 -9 -5q-11 0 -29 18t-18 29q0 4 3 7q164 197 280 197q90 0 90 -109q0 -33 -10 -67l-51 -172l10 -4q80 143 183.5 247.5t201.5 104.5q133 0 133 -133q0 -60 -38 -196l-5 -19l10 -4q203 352 398 352 q141 0 141 -141q0 -68 -29 -164l-95 -315q-21 -67 -21 -76q0 -17 24 -17t103 88q4 4 9 4q10 0 28.5 -17t18.5 -28q0 -5 -3 -8q-169 -205 -295 -205q-96 0 -96 135q0 21 12 60l127 412q25 81 25 122t-27 41q-50 0 -119 -85t-142.5 -211t-211.5 -455q-10 -24 -108 -24h-3 q-87 0 -87 27q0 3 1 6l164 534q43 140 43 172q0 36 -24 36q-39 0 -99.5 -64.5t-136.5 -183.5t-242 -499q-10 -23 -106.5 -23t-89.5 30z" />
<glyph unicode="n" horiz-adv-x="1024" d="M74 -2l194 623q11 35 11 45q0 22 -23 22t-92 -82q-4 -4 -9 -4q-11 0 -29 17.5t-18 28.5q0 4 3 7q171 197 282 197q88 0 88 -104q0 -37 -16 -82l-57 -162l12 -4q201 352 391 352q143 0 143 -141q0 -71 -28 -164l-95 -315q-20 -65 -20 -71q0 -20 23 -20t98 84q3 4 8 4 q10 0 30 -17.5t20 -28.5q0 -4 -3 -7q-162 -203 -297 -203q-90 0 -90 128q0 33 10 67l125 412q31 102 31 131q0 32 -18 32q-99 0 -249.5 -264.5t-226.5 -482.5q-8 -23 -107 -23q-92 0 -92 21q0 2 1 4z" />
<glyph unicode="o" horiz-adv-x="948" d="M113 315q0 191 162.5 364t355.5 173q139 0 208.5 -90t69.5 -234q0 -209 -148.5 -382t-369.5 -173q-139 0 -208.5 97.5t-69.5 244.5zM295 203q0 -117 96 -117q95 0 217.5 201t122.5 342q0 119 -90 119q-105 0 -225.5 -201t-120.5 -344z" />
<glyph unicode="p" horiz-adv-x="911" d="M-158 -548q0 15 8.5 39t22.5 24q98 0 117 75l262 1080q-44 -23 -115 -82q-3 -3 -8 -3q-11 0 -27.5 18t-16.5 29q0 4 3 7q88 87 186 137l52 236q7 32 70.5 50t102.5 18q43 0 38 -27l-50 -213q54 4 68 4q147 0 246.5 -88t99.5 -240q0 -209 -179 -376t-386 -167q-21 0 -57 4 l-93 -378q-4 -17 -4 -30q0 -54 117 -54q10 0 10 -14q0 -15 -9 -37.5t-21 -22.5q-82 8 -214.5 8t-214.5 -8q-8 0 -8 11zM305 80q0 -25 35 -25q139 0 242.5 138.5t103.5 287.5q0 111 -39 185.5t-131 74.5q-24 0 -55 -6l-152 -623q-4 -17 -4 -32z" />
<glyph unicode="q" horiz-adv-x="980" d="M63 160q0 216 187.5 454t454.5 238q73 0 124 -72l62 107q10 18 34 18q93 0 93 -49q0 -7 -2 -16l-86 -324l-213 -885q-3 -13 -3 -25q0 -42 52 -42q20 0 47 4q10 2 10 -18q0 -60 -32 -60q-161 0 -414 -49q-11 0 -11 16q0 61 44 65q86 7 110 105l152 631l-10 8 q-104 -122 -220 -207.5t-209 -85.5q-86 0 -128 56.5t-42 130.5zM285 150q0 -52 49 -52q47 0 154.5 94.5t169.5 194.5q81 134 81 240q0 143 -84 143q-124 0 -247 -232t-123 -388z" />
<glyph unicode="r" horiz-adv-x="768" d="M70 633q0 3 2 6q90 118 160 165.5t126 47.5q84 0 84 -96q0 -36 -8 -72l-26 -117l12 -4q143 289 293 289q55 0 96 -32t41 -81t-24.5 -76.5t-65.5 -27.5q-45 0 -77 28.5t-56 28.5q-58 0 -150 -195t-172 -501q-6 -23 -101 -23t-95 35v6l122 584q13 62 13 71q0 19 -22.5 19 t-90.5 -92q-3 -5 -10 -5q-10 0 -28 14q-23 17 -23 28z" />
<glyph unicode="s" horiz-adv-x="618" d="M41 107q0 42 23 75t69 33q73 0 114 -59.5t98 -59.5q63 0 63 64q0 44 -116 172t-116 243q0 129 83 203t208 74q68 0 119 -48t51 -97q0 -31 -25.5 -60t-54.5 -29q-78 0 -113.5 63.5t-97.5 63.5q-22 0 -36.5 -15t-14.5 -36q0 -52 124 -193t124 -251t-93.5 -193.5 t-234.5 -83.5q-74 0 -124 45t-50 89z" />
<glyph unicode="t" horiz-adv-x="604" d="M84 104q0 44 10 76l166 533h-160q-16 0 -11 37q5 38 30 43l176 36l139 197q5 7 29 7q80 0 80 -38q0 -8 -3 -15l-51 -161h240q9 0 9 -15t-8.5 -53t-22.5 -38h-248l-148 -480q-14 -45 -14 -71q0 -37 27 -37q64 0 227 192q3 4 8 4q10 0 27 -17q25 -25 16 -38 q-102 -144 -194.5 -218.5t-198.5 -74.5q-59 0 -92 41t-33 90z" />
<glyph unicode="u" horiz-adv-x="1019" d="M106 643q0 4 3 8q155 201 290 201q90 0 90 -125q0 -37 -16 -88l-96 -307q-37 -118 -37 -158q0 -41 22 -41q51 0 153.5 136.5t154.5 231.5q92 169 139 329q6 22 94 22q102 0 102 -29q0 -3 -1 -6l-181 -586q-20 -65 -20 -69q0 -21 26.5 -21t100.5 84q3 3 8 3q10 0 28 -16 q19 -19 19 -30q0 -3 -2 -6q-165 -203 -285 -203q-106 0 -106 121q0 35 12 76l45 152q-100 -138 -217 -243.5t-188 -105.5q-125 0 -125 123q0 49 20 113l127 407q15 48 15 54q0 18 -18.5 18t-44.5 -23q-26 -24 -56 -61q-4 -5 -9 -5q-10 0 -28 16q-19 17 -19 28z" />
<glyph unicode="v" horiz-adv-x="843" d="M108 648q0 4 3 7q172 197 288 197q45 0 67.5 -35t22.5 -88q0 -35 -10 -67l-139 -447q-9 -29 -9 -55q0 -15 3 -28q10 -44 53 -44q89 0 200 166t111 313q0 92 -49 183q0 102 99 102q59 0 89.5 -43t30.5 -102q0 -138 -82.5 -318t-232.5 -298t-281 -118q-64 0 -98 27.5 t-48 75.5q-6 22 -6 44q0 27 9 54l127 408q23 73 23 81q0 25 -17 25q-33 0 -98 -82q-11 -13 -37 12q-19 19 -19 30z" />
<glyph unicode="w" horiz-adv-x="1259" d="M109 649q0 5 4 10q170 193 286 193q90 0 90 -119q0 -42 -10 -74l-139 -446q-8 -26 -8 -55q0 -70 53 -70q47 0 85 39.5t76 104t64 149.5l133 442q9 29 103.5 29t94.5 -23q0 -3 -1 -6l-188 -612q-9 -29 -9 -50q0 -73 70.5 -73t184.5 161t114 312q0 96 -49 182 q0 109 102 109q66 0 92.5 -47t26.5 -98q0 -120 -84.5 -309.5t-234 -307t-277.5 -117.5q-56 0 -92 25q-37 26 -51 78q-146 -103 -273 -103q-73 0 -113 36t-40 95q0 31 12 70l125 406q23 75 23 92q0 16 -23 16t-92 -82q-4 -5 -12 -4.5t-25.5 17.5t-17.5 30z" />
<glyph unicode="x" horiz-adv-x="901" d="M4 61q0 56 26.5 97t61.5 41t57.5 -37t28.5 -37q34 0 74 55l133 182l-111 216q-40 92 -59 92q-15 0 -33 -30.5t-32 -59.5q-3 -6 -13 -6t-32 13.5t-17 26.5q104 238 197 238q75 0 135 -121l96 -194l90 125q137 190 240 190q57 0 82.5 -29t25.5 -80q0 -116 -86 -116 q-34 0 -50.5 39t-41.5 39q-38 0 -90 -70l-131 -178l98 -193q52 -102 76 -102q26 0 72 102q4 10 19 10t29 -6.5t11 -17.5q-53 -277 -178 -277q-87 0 -170 152l-86 158l-98 -136q-125 -174 -228 -174q-43 0 -69.5 23.5t-26.5 64.5z" />
<glyph unicode="y" horiz-adv-x="782" d="M-152 -446q0 51 27 79.5t74 28.5q41 0 69.5 -47t69.5 -47q40 0 108 71t94.5 178t26.5 255q0 260 -22.5 437t-77.5 177q-42 0 -100 -113q-3 -7 -14 -7t-33 13t-17 25q111 248 244 248q98 0 152.5 -166t54.5 -377q0 -98 -10 -190l12 -4q59 116 100 274t41 256q0 55 -26 115 q0 92 94 92t94 -88q0 -63 -48 -234.5t-130.5 -333.5t-199.5 -366t-223 -294.5t-212 -90.5q-62 0 -105 30.5t-43 78.5z" />
<glyph unicode="z" horiz-adv-x="917" d="M37 76q0 10 6 16l518 526q12 12 12 24q0 14 -20 22q-85 32 -189 32h-24q-53 -2 -53 -22q0 -8 32.5 -39t32.5 -68q0 -87 -96 -87q-102 0 -102 111q0 102 94.5 176.5t210.5 74.5q53 0 147 -28t137 -28q51 0 73 24l40 44q7 6 16 6q17 0 46 -29q28 -30 28 -46q0 -9 -6 -15 l-540 -561l3 -19l42 -7q106 -18 187 -64.5t97 -46.5q62 0 62 55q0 18 -30 48t-30 79q0 74 97 74q41 0 68.5 -34t27.5 -79q0 -104 -81 -189t-177 -85q-47 0 -121 29.5t-149.5 62.5t-110.5 33q-81 0 -138 -86q-5 -7 -17 -7q-20 0 -57 40q-36 41 -36 63z" />
<glyph unicode="{" horiz-adv-x="784" d="M232 -113.5q1 52.5 20 119.5l113 424q22 82 -3.5 119t-107.5 37q-16 0 -8 30.5t24 30.5q82 0 127 36t66 114l88 325q18 68 38.5 121t48.5 92t51.5 65.5t63.5 44t69.5 28t86 14.5t94 5t111.5 1q14 0 4 -38t-24 -38q-136 0 -206.5 -45t-109.5 -188l-63 -234 q-21 -76 -33 -112.5t-36.5 -84.5t-59.5 -79t-88 -58q65 -47 72.5 -123.5t-27.5 -187.5l-72 -266q-45 -180 -10 -231.5t188 -51.5q15 0 4.5 -37.5t-24.5 -37.5q-8 0 -22 -1q-68 1 -102 2t-89.5 7t-80 17t-56 34.5t-40 58.5t-7.5 87.5z" />
<glyph unicode="|" horiz-adv-x="536" d="M197 -334v1767h195v-1767h-195z" />
<glyph unicode="}" horiz-adv-x="784" d="M-11 -281.5q9 37.5 25 37.5q154 0 217.5 53.5t112.5 229.5l70 266q35 125 78 194.5t133 116.5q-72 50 -74 135t37 199l61 234q39 143 -7 188t-183 45q-15 0 -4.5 38t24.5 38q74 0 111 -1t91 -5t78.5 -14.5t55.5 -28t40 -44t16.5 -65.5t-1 -92t-26.5 -121l-86 -325 q-23 -78 3.5 -114t108.5 -36q15 0 6.5 -30.5t-22.5 -30.5q-82 0 -127 -37t-68 -119l-114 -424q-17 -59 -37.5 -107.5t-49 -81t-54 -57t-66.5 -39t-69.5 -23.5t-81 -12t-81 -4t-90.5 -2q-14 1 -22 1q-14 0 -5 37.5z" />
<glyph unicode="~" horiz-adv-x="743" d="M6 416q6 6 30.5 35.5t40 44t44.5 36t63.5 31.5t75.5 10q53 0 147.5 -45t133.5 -45q28 0 51.5 11.5t50.5 35t37 31.5q14 10 39.5 -10.5t15.5 -32.5q-8 -8 -40.5 -46t-56.5 -60.5t-67 -44t-90 -21.5q-51 0 -149.5 46t-143.5 46q-47 0 -129 -71q-14 -15 -39.5 9.5 t-13.5 39.5z" />
<glyph unicode="&#xa1;" horiz-adv-x="595" d="M-63 -391q6 20 151 362t182 432q6 15 31 19t46.5 -3t19.5 -20q-158 -800 -160 -811q-17 -59 -66 -100t-100 -41q-156 0 -104 162zM254 715q0 65 46 111t111.5 46t112.5 -46t47 -111.5t-47 -111.5t-112 -46q-64 0 -111 47t-47 111z" />
<glyph unicode="&#xa2;" horiz-adv-x="880" d="M119 522q0 103 52 211.5t132 190.5q170 176 377 194l84 193q6 14 58 3t48 -24l-77 -174q159 -18 182 -86q2 -26 -13.5 -64t-46.5 -61q-81 -65 -120 -6l-15 44q-14 44 -37 61l-276 -625q37 -21 72 -21q61 0 108 11.5t68.5 26t46.5 26.5q24 14 39.5 -30t-6.5 -54 q-4 -2 -50.5 -27.5t-82 -42t-105.5 -33t-141 -16.5h-21l-84 -190q-6 -13 -58 -2.5t-48 22.5l86 195q-78 35 -125 107.5t-47 170.5zM365 592q0 -66 26 -125l244 551q-103 -31 -186.5 -169t-83.5 -257z" />
<glyph unicode="&#xa3;" horiz-adv-x="1081" d="M-45 51q0 33 30.5 61.5t78 46t87 28t76.5 14.5q78 10 125 127.5t58 242.5h-217q-17 0 -4.5 46.5t26.5 46.5h207q14 114 28.5 188t54.5 171t99 161q133 139 303 139q232 0 232 -156q0 -28 -28 -74t-69 -46q-22 0 -40.5 29.5t-32 65.5t-47 65.5t-80.5 29.5 q-56 0 -95.5 -71.5t-53 -167t-24 -190.5t-10.5 -144h289q15 0 6.5 -46.5t-22.5 -46.5h-287q-16 -102 -87 -204.5t-165 -169.5q72 10 143.5 -24t132 -73t97.5 -39q29 0 41 29t9 61.5t-1 57.5q0 96 84 96q55 0 84 -39t29 -84q0 -80 -69 -137t-145.5 -77.5t-144.5 -20.5 q-69 0 -138 24.5t-150.5 65.5t-131.5 59q-32 -8 -49.5 -29.5t-23.5 -43t-30 -38t-67 -16.5q-40 0 -74 21.5t-34 60.5z" />
<glyph unicode="&#xa4;" horiz-adv-x="1024" d="M80 668q0 145 88 260l-80 80q-10 10 32 52t52 32l80 -80q117 90 260 90q145 0 262 -88l78 78q10 10 52 -32t32 -52l-78 -78q88 -117 88 -262q0 -146 -88 -262l78 -78q10 -11 -32 -53t-52 -31l-78 78q-117 -89 -260 -89q-145 0 -262 91l-80 -80q-10 -11 -52 31t-32 53 l80 80q-88 114 -88 260zM201 668q0 -129 91 -221q91 -91 220 -91q131 0 222 91q91 92 91 221t-91 220t-222 91q-129 0 -220 -91t-91 -220z" />
<glyph unicode="&#xa5;" horiz-adv-x="1268" d="M158.5 517.5q15.5 51.5 28.5 49.5h352q-2 48 -23 111l-25 73l-256 2q-15 0 0 51.5t29 49.5h192l-91 284q-21 65 -54.5 98.5t-104.5 33.5q-15 0 -3.5 47t24.5 47q58 -6 253.5 -6t252.5 6q16 0 4.5 -47t-25.5 -47q-84 0 -108.5 -22t-1.5 -91l131 -403q16 -45 54 -3l386 406 q59 63 46.5 88t-92.5 25q-15 0 -2 47t27 47q57 -6 212.5 -6t213.5 6q15 0 3.5 -47t-26.5 -47q-101 0 -157.5 -36t-199.5 -189l-178 -191l189 2q13 0 0 -51.5t-29 -53.5h-257l-104 -109q-32 -33 -44 -75l358 2q13 0 -0.5 -51.5t-28.5 -53.5h-363l-76 -263q-21 -69 6.5 -92 t111.5 -23q15 0 2 -47t-27 -47q-76 8 -263 8t-264 -8q-13 0 -1.5 47t26.5 47q84 0 120.5 28.5t58.5 103.5l75 246l-351 2q-16 0 -0.5 51.5z" />
<glyph unicode="&#xa6;" horiz-adv-x="581" d="M272 109v579h195v-579h-195zM272 795v577h195v-577h-195z" />
<glyph unicode="&#xa7;" horiz-adv-x="1048" d="M-25 -86q0 29 18.5 50.5t53.5 21.5q29 0 61.5 -38t75.5 -76t97 -38q159 0 159 168q0 55 -41 188q-8 31 -98 241t-90 329q0 151 117.5 302.5t265.5 250.5q201 129 299 129q70 0 126 -47t56 -117q0 -113 -92 -113q-25 0 -41 28t-26.5 59.5t-34 59t-58.5 27.5 q-86 0 -120.5 -45t-34.5 -131q0 -84 41 -207q20 -65 72.5 -176.5t84 -207t31.5 -183.5q0 -121 -68 -219q-94 -139 -291.5 -291.5t-347.5 -152.5q-86 0 -150.5 52t-64.5 136zM408 846q0 -109 51 -236t101 -245.5t50 -206.5q0 -82 -24 -140q106 115 106 324q0 86 -53 228.5 t-92 228.5q-47 125 -47 180q0 119 14 174q-106 -135 -106 -307z" />
<glyph unicode="&#xa8;" horiz-adv-x="778" d="M275 1119q0 59 40 101t102 42q49 0 80.5 -30.5t31.5 -79.5q0 -60 -41 -101t-100 -41q-51 0 -82 30t-31 79zM675 1119q0 59 40 101t101 42q49 0 81 -30.5t32 -79.5q0 -60 -41 -101t-101 -41q-51 0 -81.5 30t-30.5 79z" />
<glyph unicode="&#xa9;" horiz-adv-x="1611" d="M90 747.5q0 296.5 211 508.5t510 212t510 -212t211 -508.5t-211 -508.5t-510 -212t-510 212t-211 508.5zM193 748q0 -256 181 -437.5t437 -181.5t437.5 181.5t181.5 437.5t-181.5 437t-437.5 181t-437 -181t-181 -437zM430 737q0 168 109.5 282t285.5 114q72 0 197 -27 q10 -2 43 -2q22 -49 22 -176q0 -10 -24.5 -11.5t-26.5 7.5q-16 161 -213 161q-114 0 -181 -92t-67 -225q0 -170 79 -256t167 -86q187 0 236 149q4 7 15 7t23.5 -7.5t12.5 -13.5q-2 -20 -20.5 -73.5t-34.5 -77.5q-4 0 -21.5 -4.5t-25.5 -6.5q-91 -24 -191 -24 q-164 0 -274.5 105.5t-110.5 256.5z" />
<glyph unicode="&#xaa;" horiz-adv-x="681" d="M147 883q0 135 120 290.5t261 155.5q45 0 70 -20l14 32q4 11 24.5 14t43 -1t39 -11.5t14.5 -13.5l-133 -436q-6 -27 14 -27q31 0 68 43q8 9 25.5 -7.5t11.5 -24.5q-103 -121 -199 -121q-39 0 -49 39t27 120l-9 5q-53 -70 -121.5 -117t-115.5 -47q-49 0 -77 35.5t-28 91.5 zM293 903q0 -20 9 -38.5t22 -18.5q47 0 117.5 93t103.5 200l30 104q-18 31 -65 31q-61 0 -114.5 -78t-78 -162t-24.5 -131z" />
<glyph unicode="&#xab;" horiz-adv-x="874" d="M96 391q-22 37 21 74l405 352q10 10 28 -4q17 -14 9 -27l-244 -327q-22 -31 -16 -60l68 -333q2 -13 -23 -28t-31 -3zM461 391q-23 37 20 74l406 352q10 10 27 -4q18 -14 10 -27l-244 -327q-23 -31 -16 -60l67 -333q2 -13 -22 -28q-25 -15 -31 -3z" />
<glyph unicode="&#xac;" horiz-adv-x="1366" d="M0 483v174h1366v-657h-186v483h-1180z" />
<glyph unicode="&#xad;" horiz-adv-x="1024" d="M74 529q0 67 22 67h963q22 0 22 -67q0 -66 -22 -66h-963q-22 0 -22 66z" />
<glyph unicode="&#xae;" horiz-adv-x="1611" d="M90 747.5q0 296.5 211 508.5t510 212t510 -212t211 -508.5t-211 -508.5t-510 -212t-510 212t-211 508.5zM193 748q0 -256 181 -437.5t437 -181.5t437.5 181.5t181.5 437.5t-181.5 437t-437.5 181t-437 -181t-181 -437zM467 1103.5q0 24.5 8 24.5q21 0 66 -2t90 -2 q20 0 69.5 3t92.5 3q133 0 216 -55t83 -153q0 -138 -152 -181q-18 -6 -4 -26q68 -117 174 -226q53 -57 96 -63q13 -2 15 -18.5t-15 -18.5q-108 -6 -174 29q-51 33 -90 76t-73.5 96t-47.5 67q-30 39 -42.5 48.5t-33.5 9.5q-18 0 -32 2q-15 0 -15 -12v-195q0 -35 19.5 -48 t62.5 -13q10 0 10 -26t-8 -26q-45 4 -148 4t-153 -4q-9 0 -9 24.5t7 24.5q88 0 88 64v510q0 59 -92 59q-8 0 -8 24.5zM698 784q0 -20 13 -20q26 -7 47 -6q196 4 196 162q0 65 -54 116t-157 51q-30 0 -37.5 -3t-7.5 -19v-281z" />
<glyph unicode="&#xaf;" horiz-adv-x="608" d="M272.5 1105q16.5 56 44.5 56h451q31 0 10.5 -56t-47.5 -56h-446q-29 0 -12.5 56z" />
<glyph unicode="&#xb0;" horiz-adv-x="735" d="M258 1047q0 116 80 190t194 74q115 0 195 -74t80 -190q0 -121 -80 -193t-195 -72q-114 0 -194 72t-80 193zM403 1047q0 -74 37 -117t92 -43q56 0 93 43t37 117q0 73 -37 116t-93 43q-55 0 -92 -43t-37 -116z" />
<glyph unicode="&#xb1;" horiz-adv-x="1134" d="M213 -6v147h780v-147h-780zM213 629v147h301v305h180v-305h299v-147h-299v-342h-180v342h-301z" />
<glyph unicode="&#xb2;" horiz-adv-x="667" d="M40 531.5q-5 13.5 23 37.5q166 133 306 293q182 205 182 320q0 75 -62 75q-75 0 -174 -104q-12 -14 -32.5 -1t-10.5 26q58 73 135.5 123.5t159.5 50.5q78 0 122 -42t44 -110q0 -55 -34.5 -117.5t-68.5 -99.5t-89 -90q-74 -68 -330 -268h215q57 0 93 14t67 53 q12 15 36.5 0.5t12.5 -30.5l-92 -119q-19 -25 -54 -25q-22 0 -80.5 3t-125.5 3q-78 0 -140.5 -3t-72.5 -3q-25 0 -30 13.5z" />
<glyph unicode="&#xb3;" horiz-adv-x="667" d="M102 594q0 33 26 55.5t58 22.5q25 0 38.5 -16.5t17.5 -35t19 -35t42 -16.5q72 0 122 98.5t50 182.5q0 43 -26.5 68.5t-77.5 25.5q-33 0 -70 -10q-18 0 -10 32.5t24 32.5q105 0 174 60q70 61 70 137t-65 76q-68 0 -150 -82q-10 -10 -26.5 6t-6.5 25q131 131 250 131 q68 0 112 -38t44 -97q0 -134 -172 -220q110 -32 110 -141q0 -117 -96 -217q-127 -127 -291 -127q-61 0 -113.5 19.5t-52.5 62.5z" />
<glyph unicode="&#xb4;" horiz-adv-x="917" d="M324 950q-7 20 13 51l209 313q13 19 37 19q45 0 85 -43q41 -44 11 -72l-281 -271q-19 -18 -42 -18t-32 21z" />
<glyph unicode="&#xb5;" horiz-adv-x="1019" d="M-66 -494q-4 37 48 191l290 934q0 6 4.5 17t4.5 16q0 24 -21 24q-18 0 -51 -31.5t-47 -52.5q-12 -12 -38 11.5t-15 35.5q155 201 290 201q90 0 90 -125q0 -29 -16 -88l-96 -307q-37 -111 -37 -158q0 -41 22 -41q50 0 149 130t177 272q39 69 77 170.5t44 124t94 22.5 q25 0 48.5 -4t39 -12.5t13.5 -18.5l-181 -586q-20 -61 -20 -69q0 -21 22.5 -21t55 32t49.5 52q12 13 36.5 -12t16.5 -37q-70 -88 -149.5 -145.5t-149.5 -57.5q-45 0 -68.5 35t-23.5 86q0 35 12 76l45 152q-94 -129 -204.5 -231.5t-184.5 -115.5q-41 -120 -47 -163 q-8 -43 -4 -92.5t-1 -98.5t-18.5 -89t-55.5 -64.5t-114 -24.5q-28 0 -55.5 16.5t-30.5 46.5z" />
<glyph unicode="&#xb6;" horiz-adv-x="1153" d="M119 987q0 205 179 345.5t388 140.5q105 0 237 -4.5t185 -4.5q109 0 190 9q17 0 6.5 -38t-24.5 -38q-8 -2 -22.5 0t-32 -2t-33.5 -10.5t-30.5 -22.5t-20.5 -39l-430 -1606q-4 -14 -81 -15t-73 13l432 1608q10 39 -8 56.5t-49 17.5q-88 0 -107 -74l-434 -1608 q-2 -14 -78.5 -14t-72.5 14l262 979h-25q-166 -2 -262 74t-96 219z" />
<glyph unicode="&#xb7;" horiz-adv-x="571" d="M174 522.5q0 65.5 46 112.5t111.5 47t113 -47t47.5 -112.5t-47.5 -111.5t-113 -46t-111.5 46t-46 111.5z" />
<glyph unicode="&#xb8;" horiz-adv-x="778" d="M16 -424q0 29 18.5 48.5t47.5 19.5q31 0 75 -38t64 -38q19 0 36 14.5t17 36.5q0 94 -127 148l-6 16l148 217h108l-78 -106q-12 -17 -9 -24t26 -24q98 -73 98 -170q0 -82 -77.5 -136t-182.5 -54q-158 0 -158 90z" />
<glyph unicode="&#xb9;" horiz-adv-x="667" d="M139 552q8 30 19 30q73 0 99 18t46 98l135 510q6 23 -4 27t-28 -2q-46 -16 -82 -23q-9 -2 -12 9.5t0 26t12 16.5q223 69 317 112q6 4 16 4q13 0 9 -12q-15 -39 -35 -113l-150 -555q-20 -75 -8 -95.5t76 -20.5q8 0 0 -30t-17 -30q-61 6 -192 6q-137 0 -199 -6q-10 0 -2 30 z" />
<glyph unicode="&#xba;" horiz-adv-x="647" d="M180 983q0 125 107.5 238.5t234.5 113.5q94 0 139.5 -58t45.5 -155q0 -133 -95.5 -249.5t-246.5 -116.5q-93 0 -139 64.5t-46 162.5zM301 907q0 -76 63.5 -76t144.5 133.5t81 217.5q0 51 -14.5 68.5t-45.5 17.5q-71 0 -150 -134.5t-79 -226.5z" />
<glyph unicode="&#xbb;" horiz-adv-x="1347" d="M-23 66l246 333q23 29 17 60l-68 327q-2 13 23 27q24 14 30 4l217 -352q23 -37 -20 -74l-408 -356q-12 -12 -29 3q-18 15 -8 28zM342 66l246 333q22 29 16 60l-67 327q-2 13 22 27q25 14 31 4l217 -352q22 -37 -21 -74l-407 -356q-12 -12 -30 3q-17 15 -7 28z" />
<glyph unicode="&#xbc;" horiz-adv-x="1507" d="M139 552q8 30 19 30q73 0 99 18t46 98l135 510q6 23 -4 27t-28 -2q-46 -16 -82 -23q-9 -2 -12 9.5t0 26t12 16.5q223 69 317 112q6 4 16 4q13 0 9 -12q-15 -39 -35 -113l-150 -555q-20 -75 -8 -95.5t76 -20.5q8 0 0 -30t-17 -30q-61 6 -195 6t-196 -6q-10 0 -2 30zM340 0 l803 1300h127l-803 -1300h-127zM824 246.5q-5 15.5 7.5 34t32.5 38.5l205 199q166 162 354 365q21 16 52.5 9t23.5 -32l-536 -530q-29 -29 6 -29h200l68 252q4 16 94 16t86 -16l-65 -252h63q15 0 6.5 -35t-24.5 -35h-66l-33 -125q-8 -28 6.5 -39.5t61.5 -11.5q10 0 2 -30.5 t-18 -30.5q-62 6 -185 6t-184 -6q-10 0 -2 30.5t18 30.5q64 0 87.5 10.5t33.5 40.5l33 125h-287q-35 0 -40 15.5z" />
<glyph unicode="&#xbd;" horiz-adv-x="1507" d="M139 552q8 30 19 30q73 0 99 18t46 98l135 510q6 23 -4 27t-28 -2q-46 -16 -82 -23q-9 -2 -12 9.5t0 26t12 16.5q223 69 317 112q6 4 16 4q13 0 9 -12q-15 -39 -35 -113l-150 -555q-20 -75 -8 -95.5t76 -20.5q8 0 0 -30t-17 -30q-61 6 -195 6t-196 -6q-10 0 -2 30zM340 0 l803 1300h127l-803 -1300h-127zM781 7q-5 13 22 38q166 133 305 293q182 205 182 319q0 76 -61 76q-76 0 -174 -104q-15 -15 -34.5 -1.5t-8.5 25.5q137 174 295 174q77 0 121.5 -42t44.5 -109q0 -55 -35 -117.5t-69 -99.5t-89 -90q-74 -68 -330 -269h215q58 0 92.5 13.5 t67.5 54.5q10 14 35.5 -1t13.5 -30l-92 -119q-18 -24 -53 -24q-23 0 -81 3t-131 3t-135.5 -3t-72.5 -3q-23 0 -28 13z" />
<glyph unicode="&#xbe;" horiz-adv-x="1507" d="M106 594q0 33 26 55.5t58 22.5q25 0 38.5 -16.5t17.5 -35t19.5 -35t41.5 -16.5q72 0 122 98.5t50 182.5q0 43 -26.5 68.5t-77.5 25.5q-33 0 -70 -10q-18 0 -10 32.5t24 32.5q105 0 175 60q69 61 69 137t-65 76q-68 0 -150 -82q-10 -10 -26.5 6t-6.5 25q131 131 250 131 q68 0 112 -38t44 -97q0 -134 -172 -220q110 -32 110 -141q0 -117 -96 -217q-127 -127 -291 -127q-61 0 -113.5 19.5t-52.5 62.5zM358 0l803 1300h127l-803 -1300h-127zM824 246.5q-5 15.5 7.5 34t32.5 38.5l205 199q166 162 354 365q21 16 52.5 9t23.5 -32l-536 -530 q-29 -29 6 -29h200l68 252q4 16 94 16t86 -16l-65 -252h63q15 0 6.5 -35t-24.5 -35h-66l-33 -125q-8 -28 6.5 -39.5t61.5 -11.5q10 0 2 -30.5t-18 -30.5q-62 6 -185 6t-184 -6q-10 0 -2 30.5t18 30.5q64 0 87.5 10.5t33.5 40.5l33 125h-287q-35 0 -40 15.5z" />
<glyph unicode="&#xbf;" horiz-adv-x="727" d="M-45 -182q0 114 47 207q47 92 115 120l176 76q88 37 102 72q17 31 19 108q0 17 31 25q32 8 36 -8q29 -111 29 -158q0 -88 -41 -141t-123 -88l-121 -54q-174 -75 -174 -176q0 -102 230 -102q24 0 55 -28q31 -27 31 -70q0 -45 -44 -89t-106 -44q-115 0 -188 103 q-74 103 -74 247zM389 719q0 65 43 108t111 43q63 0 108 -42t45 -109q0 -70 -44 -117t-111 -47q-68 0 -110 48t-42 116z" />
<glyph unicode="&#xc0;" horiz-adv-x="1165" d="M-159 5.5q0 13.5 7 47t22 33.5q109 0 157 34.5t90 97.5l655 974q8 12 8 23t-9.5 22.5t-9.5 22.5q0 20 68 43q69 24 124.5 53.5t83.5 29.5q42 0 42 -50q0 -22 -14 -79.5t-20 -106.5l-117 -948q-2 -15 -2 -30q0 -86 126 -86q8 0 8 -19t-8.5 -47t-20.5 -28q-76 8 -230.5 8 t-231.5 -8q-8 0 -8 17.5t9.5 47t19.5 29.5q61 0 89 22t37 94l37 283q5 38 -37 38h-246q-30 0 -48 -28l-189 -294q-24 -38 -24 -60q0 -55 121 -55q8 0 8 -18.5t-8.5 -47t-20.5 -28.5q-76 8 -229.5 8t-230.5 -8q-8 0 -8 13.5zM509 617.5q0 -10.5 19 -10.5h204q37 0 42 42 l47 413q2 15 -6 15t-17 -13l-283 -428q-6 -8 -6 -18.5zM509 1787q0 20 11.5 44.5t33.5 41.5t40 7l510 -279q45 -24 30 -56q-10 -21 -32 -21q-14 0 -29 6l-536 204q-28 11 -28 53z" />
<glyph unicode="&#xc1;" horiz-adv-x="1165" d="M-159 5.5q0 13.5 7 47t22 33.5q109 0 157 34.5t90 97.5l655 974q8 12 8 23t-9.5 22.5t-9.5 22.5q0 20 68 43q69 24 124.5 53.5t83.5 29.5q42 0 42 -50q0 -22 -14 -79.5t-20 -106.5l-117 -948q-2 -15 -2 -30q0 -86 126 -86q8 0 8 -19t-8.5 -47t-20.5 -28q-76 8 -230.5 8 t-231.5 -8q-8 0 -8 17.5t9.5 47t19.5 29.5q61 0 89 22t37 94l37 283q5 38 -37 38h-246q-30 0 -48 -28l-189 -294q-24 -38 -24 -60q0 -55 121 -55q8 0 8 -18.5t-8.5 -47t-20.5 -28.5q-76 8 -229.5 8t-230.5 -8q-8 0 -8 13.5zM509 617.5q0 -10.5 19 -10.5h204q37 0 42 42 l47 413q2 15 -6 15t-17 -13l-283 -428q-6 -8 -6 -18.5zM775 1560q0 22 35 41l508 279q8 4 17 4q21 0 46 -29.5t25 -68.5q0 -40 -31 -52l-534 -204q-16 -6 -28 -6q-16 0 -27 10.5t-11 25.5z" />
<glyph unicode="&#xc2;" horiz-adv-x="1165" d="M-159 5.5q0 13.5 7 47t22 33.5q109 0 157 34.5t90 97.5l655 974q8 12 8 23t-9.5 22.5t-9.5 22.5q0 20 68 43q69 24 124.5 53.5t83.5 29.5q42 0 42 -50q0 -22 -14 -79.5t-20 -106.5l-117 -948q-2 -15 -2 -30q0 -86 126 -86q8 0 8 -19t-8.5 -47t-20.5 -28q-76 8 -230.5 8 t-231.5 -8q-8 0 -8 17.5t9.5 47t19.5 29.5q61 0 89 22t37 94l37 283q5 38 -37 38h-246q-30 0 -48 -28l-189 -294q-24 -38 -24 -60q0 -55 121 -55q8 0 8 -18.5t-8.5 -47t-20.5 -28.5q-76 8 -229.5 8t-230.5 -8q-8 0 -8 13.5zM509 617.5q0 -10.5 19 -10.5h204q37 0 42 42 l47 413q2 15 -6 15t-17 -13l-283 -428q-6 -8 -6 -18.5zM598 1566q0 8 7 13l350 271q25 19 50.5 19t51.5 -24l268 -266q4 -4 4 -10q0 -10 -11.5 -27t-20.5 -17q-2 0 -4 1l-271 133q-19 9 -39 9t-41 -9l-301 -133q-3 -1 -6 -1q-14 0 -25.5 15.5t-11.5 25.5z" />
<glyph unicode="&#xc3;" horiz-adv-x="1165" d="M-159 5.5q0 13.5 7 47t22 33.5q109 0 157 34.5t90 97.5l655 974q8 12 8 23t-9.5 22.5t-9.5 22.5q0 20 68 43q69 24 124.5 53.5t83.5 29.5q42 0 42 -50q0 -22 -14 -79.5t-20 -106.5l-117 -948q-2 -15 -2 -30q0 -86 126 -86q8 0 8 -19t-8.5 -47t-20.5 -28q-76 8 -230.5 8 t-231.5 -8q-8 0 -8 17.5t9.5 47t19.5 29.5q61 0 89 22t37 94l37 283q5 38 -37 38h-246q-30 0 -48 -28l-189 -294q-24 -38 -24 -60q0 -55 121 -55q8 0 8 -18.5t-8.5 -47t-20.5 -28.5q-76 8 -229.5 8t-230.5 -8q-8 0 -8 13.5zM509 617.5q0 -10.5 19 -10.5h204q37 0 42 42 l47 413q2 15 -6 15t-17 -13l-283 -428q-6 -8 -6 -18.5zM709 1489l1 6q31 82 91 140q45 44 85 44q34 0 121 -24q63 -21 117 -21q53 0 89 53q3 3 5 7q4 7 15 7l16 -3q20 -9 21 -23l-1 -6q-27 -71 -87 -129q-46 -45 -83 -45q-40 0 -135 25q-89 19 -103 20q-40 0 -82 -39 q-15 -15 -24 -31q-3 -6 -11 -6l-14 2q-20 8 -21 23z" />
<glyph unicode="&#xc4;" horiz-adv-x="1165" d="M-159 5.5q0 13.5 7 47t22 33.5q109 0 157 34.5t90 97.5l655 974q8 12 8 23t-9.5 22.5t-9.5 22.5q0 20 68 43q69 24 124.5 53.5t83.5 29.5q42 0 42 -50q0 -22 -14 -79.5t-20 -106.5l-117 -948q-2 -15 -2 -30q0 -86 126 -86q8 0 8 -19t-8.5 -47t-20.5 -28q-76 8 -230.5 8 t-231.5 -8q-8 0 -8 17.5t9.5 47t19.5 29.5q61 0 89 22t37 94l37 283q5 38 -37 38h-246q-30 0 -48 -28l-189 -294q-24 -38 -24 -60q0 -55 121 -55q8 0 8 -18.5t-8.5 -47t-20.5 -28.5q-76 8 -229.5 8t-230.5 -8q-8 0 -8 13.5zM509 617.5q0 -10.5 19 -10.5h204q37 0 42 42 l47 413q2 15 -6 15t-17 -13l-283 -428q-6 -8 -6 -18.5zM689 1629q0 59 40 101t102 42q49 0 80.5 -30.5t31.5 -79.5q0 -60 -41 -101t-100 -41q-51 0 -82 30t-31 79zM1089 1629q0 59 40 101t101 42q49 0 81 -30.5t32 -79.5q0 -60 -41 -101t-101 -41q-51 0 -81.5 30t-30.5 79z " />
<glyph unicode="&#xc5;" horiz-adv-x="1165" d="M-154.5 39q9.5 47 24.5 47q42 0 64 3t56.5 13.5t64 39t62.5 76.5l754 1123q-107 59 -107 179q0 84 63 146.5t166 62.5t166 -62.5t63 -146.5q0 -68 -42 -124.5t-116 -75.5l-136 -1118q-7 -70 24.5 -93t99.5 -23q14 0 4.5 -47t-25.5 -47q-76 8 -225 8q-160 0 -237 -8 q-15 0 -3.5 47t24.5 47q61 0 89 22t37 94l37 283q3 38 -37 38h-246q-31 0 -48 -28l-189 -294q-21 -33 -23 -55t6.5 -33.5t31.5 -18t40.5 -7.5t41.5 -1q14 0 4.5 -47t-25.5 -47q-76 8 -235 8q-148 0 -225 -8q-13 0 -3.5 47zM512 616q4 -9 17 -9h203q38 0 42 42l47 413 q2 13 -5.5 15t-17.5 -13l-282 -426q-8 -13 -4 -22zM892 1518.5q0 -55.5 26.5 -93.5t74.5 -38t74.5 38t26.5 93.5t-26.5 93.5t-74.5 40q-48 -2 -74.5 -40t-26.5 -93.5z" />
<glyph unicode="&#xc6;" horiz-adv-x="1789" d="M-230 5.5q0 13.5 8 47t23 33.5q79 0 129.5 25t105.5 91l825 969q38 41 38 63q0 30 -85 30q-16 0 -2.5 47t26.5 47q144 -6 358 -6t386.5 3t258.5 3q65 0 65 -40q0 -11 -4 -25l-84 -283q-2 -7 -19 -12t-36 -5t-32.5 5t-11.5 12q16 54 16 98q0 60 -38 108t-127 50l-237 4 q-44 0 -59 -46l-153 -504q-11 -36 27 -36h174q84 0 101 48l48 145q7 19 50 18t39 -18q-30 -77 -79 -242t-58 -215q-6 -17 -47 -15t-37 15l34 128q8 29 -10 40.5t-58 11.5h-193q-25 0 -37 -33l-91 -302q-21 -71 -21 -108q0 -83 97 -79l229 8q249 10 323 258q6 17 53.5 17 t43.5 -17l-84 -312q-9 -32 -27 -36t-93 -4q-11 0 -238.5 4t-389 4t-352.5 -8q-13 0 -3.5 47t24.5 47q94 0 127.5 19t59.5 107l107 351q12 37 -26 37h-300q-17 0 -40 -31l-312 -393q-23 -29 -23 -46q0 -44 119 -44q13 0 1.5 -47t-26.5 -47q-76 8 -222 8q-156 0 -233 -8 q-8 0 -8 13.5zM591 696q0 -12 26 -12h223q35 0 44 32l138 457q8 29 -10 29q-8 0 -17 -12l-391 -470q-13 -15 -13 -24z" />
<glyph unicode="&#xc7;" horiz-adv-x="1470" d="M178 469q0 351 299 633.5t671 282.5q108 0 242 -28t193 -28q-12 -181 -61 -334q-6 -17 -53 -17t-44 21q9 53 9 74q0 104 -93.5 165t-232.5 61q-274 0 -482 -259.5t-208 -585.5q0 -152 86 -271.5t264 -119.5q117 0 209.5 33.5t169 105t125.5 144.5q10 15 53 13t43 -17 q0 -38 -68 -154.5t-101 -151.5q-53 -7 -89 -19q-176 -44 -402 -44q-227 0 -378.5 133t-151.5 363zM310 -436q0 29 18.5 48.5t47.5 19.5q31 0 75 -38t64 -38q19 0 36 14.5t17 36.5q0 94 -127 148l-6 16l148 217h108l-78 -106q-12 -17 -9 -24t26 -24q98 -73 98 -170 q0 -82 -77.5 -136t-182.5 -54q-158 0 -158 90z" />
<glyph unicode="&#xc8;" horiz-adv-x="1256" d="M-24 5.5q0 13.5 8 47t22 33.5q99 0 136.5 26t61.5 106l283 939q5 13 5 39q0 67 -146 67q-8 0 -8 14.5t9.5 47.5t21.5 33q102 -4 240 -4t386 2t348 2q63 0 63 -30q0 -13 -4 -27l-84 -289q-6 -19 -52 -19t-42 17q7 33 7 83t-41.5 104.5t-125.5 59.5q-148 8 -269 7 q-38 0 -48 -32l-159 -508q-2 -8 -2 -13q0 -19 23 -19h180q48 0 70 10q22 9 31 37l48 145q6 19 51.5 19t38.5 -19q-74 -210 -138 -466q-4 -17 -46.5 -17t-37.5 17l34 128q8 29 -10 40q-18 12 -58 12h-201q-21 0 -29 -27l-103 -348q-10 -34 -10 -67q0 -82 98 -78l290 12 q165 7 268 292q5 17 52.5 17t42.5 -17l-101 -361q-8 -29 -58 -29q-100 0 -368 4t-379.5 4t-288.5 -8q-9 0 -9 13.5zM564 1787q0 20 11.5 44.5t33.5 41.5t40 7l510 -279q45 -24 30 -56q-10 -21 -32 -21q-14 0 -29 6l-536 204q-28 11 -28 53z" />
<glyph unicode="&#xc9;" horiz-adv-x="1256" d="M-24 5.5q0 13.5 8 47t22 33.5q99 0 136.5 26t61.5 106l283 939q5 13 5 39q0 67 -146 67q-8 0 -8 14.5t9.5 47.5t21.5 33q102 -4 240 -4t386 2t348 2q63 0 63 -30q0 -13 -4 -27l-84 -289q-6 -19 -52 -19t-42 17q7 33 7 83t-41.5 104.5t-125.5 59.5q-148 8 -269 7 q-38 0 -48 -32l-159 -508q-2 -8 -2 -13q0 -19 23 -19h180q48 0 70 10q22 9 31 37l48 145q6 19 51.5 19t38.5 -19q-74 -210 -138 -466q-4 -17 -46.5 -17t-37.5 17l34 128q8 29 -10 40q-18 12 -58 12h-201q-21 0 -29 -27l-103 -348q-10 -34 -10 -67q0 -82 98 -78l290 12 q165 7 268 292q5 17 52.5 17t42.5 -17l-101 -361q-8 -29 -58 -29q-100 0 -368 4t-379.5 4t-288.5 -8q-9 0 -9 13.5zM719 1560q0 22 35 41l508 279q8 4 17 4q21 0 46 -29.5t25 -68.5q0 -40 -31 -52l-534 -204q-16 -6 -28 -6q-16 0 -27 10.5t-11 25.5z" />
<glyph unicode="&#xca;" horiz-adv-x="1256" d="M-24 5.5q0 13.5 8 47t22 33.5q99 0 136.5 26t61.5 106l283 939q5 13 5 39q0 67 -146 67q-8 0 -8 14.5t9.5 47.5t21.5 33q102 -4 240 -4t386 2t348 2q63 0 63 -30q0 -13 -4 -27l-84 -289q-6 -19 -52 -19t-42 17q7 33 7 83t-41.5 104.5t-125.5 59.5q-148 8 -269 7 q-38 0 -48 -32l-159 -508q-2 -8 -2 -13q0 -19 23 -19h180q48 0 70 10q22 9 31 37l48 145q6 19 51.5 19t38.5 -19q-74 -210 -138 -466q-4 -17 -46.5 -17t-37.5 17l34 128q8 29 -10 40q-18 12 -58 12h-201q-21 0 -29 -27l-103 -348q-10 -34 -10 -67q0 -82 98 -78l290 12 q165 7 268 292q5 17 52.5 17t42.5 -17l-101 -361q-8 -29 -58 -29q-100 0 -368 4t-379.5 4t-288.5 -8q-9 0 -9 13.5zM608 1566q0 8 7 13l350 271q25 19 50.5 19t51.5 -24l268 -266q4 -4 4 -10q0 -10 -11.5 -27t-20.5 -17q-2 0 -4 1l-271 133q-19 9 -39 9t-41 -9l-301 -133 q-3 -1 -6 -1q-14 0 -25.5 15.5t-11.5 25.5z" />
<glyph unicode="&#xcb;" horiz-adv-x="1256" d="M-24 5.5q0 13.5 8 47t22 33.5q99 0 136.5 26t61.5 106l283 939q5 13 5 39q0 67 -146 67q-8 0 -8 14.5t9.5 47.5t21.5 33q102 -4 240 -4t386 2t348 2q63 0 63 -30q0 -13 -4 -27l-84 -289q-6 -19 -52 -19t-42 17q7 33 7 83t-41.5 104.5t-125.5 59.5q-148 8 -269 7 q-38 0 -48 -32l-159 -508q-2 -8 -2 -13q0 -19 23 -19h180q48 0 70 10q22 9 31 37l48 145q6 19 51.5 19t38.5 -19q-74 -210 -138 -466q-4 -17 -46.5 -17t-37.5 17l34 128q8 29 -10 40q-18 12 -58 12h-201q-21 0 -29 -27l-103 -348q-10 -34 -10 -67q0 -82 98 -78l290 12 q165 7 268 292q5 17 52.5 17t42.5 -17l-101 -361q-8 -29 -58 -29q-100 0 -368 4t-379.5 4t-288.5 -8q-9 0 -9 13.5zM663 1629q0 59 40 101t102 42q49 0 80.5 -30.5t31.5 -79.5q0 -60 -41 -101t-100 -41q-51 0 -82 30t-31 79zM1063 1629q0 59 40 101t101 42q49 0 81 -30.5 t32 -79.5q0 -60 -41 -101t-101 -41q-51 0 -81.5 30t-30.5 79z" />
<glyph unicode="&#xcc;" horiz-adv-x="754" d="M-25 5q0 13 8.5 47t24.5 34q88 0 133 23.5t65 92.5l272 952q8 27 8 63q0 53 -140 53q-7 0 -7 13.5t11 47t22 33.5q58 -6 286 -6t286 6q8 0 8 -12.5t-10 -47t-25 -34.5q-110 0 -148.5 -29.5t-54.5 -86.5l-273 -952q-7 -25 -7 -52q0 -64 149 -64q7 0 7 -14.5t-9.5 -47 t-20.5 -32.5q-77 8 -289 8t-288 -8q-8 0 -8 13zM289 1787q0 20 11.5 44.5t33.5 41.5t40 7l510 -279q45 -24 30 -56q-10 -21 -32 -21q-14 0 -29 6l-536 204q-28 11 -28 53z" />
<glyph unicode="&#xcd;" horiz-adv-x="754" d="M-25 5q0 13 8.5 47t24.5 34q88 0 133 23.5t65 92.5l272 952q8 27 8 63q0 53 -140 53q-7 0 -7 13.5t11 47t22 33.5q58 -6 286 -6t286 6q8 0 8 -12.5t-10 -47t-25 -34.5q-110 0 -148.5 -29.5t-54.5 -86.5l-273 -952q-7 -25 -7 -52q0 -64 149 -64q7 0 7 -14.5t-9.5 -47 t-20.5 -32.5q-77 8 -289 8t-288 -8q-8 0 -8 13zM443 1560q0 22 35 41l508 279q8 4 17 4q21 0 46 -29.5t25 -68.5q0 -40 -31 -52l-534 -204q-16 -6 -28 -6q-16 0 -27 10.5t-11 25.5z" />
<glyph unicode="&#xce;" horiz-adv-x="754" d="M-25 5q0 13 8.5 47t24.5 34q88 0 133 23.5t65 92.5l272 952q8 27 8 63q0 53 -140 53q-7 0 -7 13.5t11 47t22 33.5q58 -6 286 -6t286 6q8 0 8 -12.5t-10 -47t-25 -34.5q-110 0 -148.5 -29.5t-54.5 -86.5l-273 -952q-7 -25 -7 -52q0 -64 149 -64q7 0 7 -14.5t-9.5 -47 t-20.5 -32.5q-77 8 -289 8t-288 -8q-8 0 -8 13zM308 1566q0 8 7 13l350 271q25 19 50.5 19t51.5 -24l268 -266q4 -4 4 -10q0 -10 -11.5 -27t-20.5 -17q-2 0 -4 1l-271 133q-19 9 -39 9t-41 -9l-301 -133q-3 -1 -6 -1q-14 0 -25.5 15.5t-11.5 25.5z" />
<glyph unicode="&#xcf;" horiz-adv-x="754" d="M-25 5q0 13 8.5 47t24.5 34q88 0 133 23.5t65 92.5l272 952q8 27 8 63q0 53 -140 53q-7 0 -7 13.5t11 47t22 33.5q58 -6 286 -6t286 6q8 0 8 -12.5t-10 -47t-25 -34.5q-110 0 -148.5 -29.5t-54.5 -86.5l-273 -952q-7 -25 -7 -52q0 -64 149 -64q7 0 7 -14.5t-9.5 -47 t-20.5 -32.5q-77 8 -289 8t-288 -8q-8 0 -8 13zM384 1629q0 59 40 101t102 42q49 0 80.5 -30.5t31.5 -79.5q0 -60 -41 -101t-100 -41q-51 0 -82 30t-31 79zM784 1629q0 59 40 101t101 42q49 0 81 -30.5t32 -79.5q0 -60 -41 -101t-101 -41q-51 0 -81.5 30t-30.5 79z" />
<glyph unicode="&#xd0;" horiz-adv-x="1554" d="M-19.5 39q11.5 47 25.5 47q55 0 85.5 5t61 31.5t48.5 79.5l116 396q10 27 -15 27h-166q-14 0 -4.5 46.5t25.5 46.5h170q28 0 36 29l124 407q21 66 -10.5 88t-128.5 22q-16 0 -4.5 47t25.5 47q143 -6 257.5 -6t217.5 3t164 3q274 0 437 -122t163 -344q0 -153 -73.5 -313.5 t-196.5 -290t-301.5 -213t-371.5 -83.5q-79 0 -191.5 4t-205 4t-283.5 -8q-16 0 -4.5 47zM451 264q-27 -90 4.5 -141.5t159.5 -51.5q185 0 359 127t274 311t100 360q0 168 -106 288.5t-318 120.5q-80 0 -106.5 -3t-48.5 -21t-36 -64l-133 -443q-8 -29 19 -29h198 q16 0 4.5 -46.5t-25.5 -46.5h-208q-28 0 -34 -23z" />
<glyph unicode="&#xd1;" horiz-adv-x="1478" d="M-28 4.5q0 12.5 8.5 47t23.5 34.5q96 0 136.5 26t58.5 90l254 894q16 55 16 103t-46 62q-32 9 -85 9q-6 0 -6 13.5t10.5 47t24.5 33.5q75 -5 165 -5t116 -14.5t42 -47.5l445 -902q15 -31 30 -31q17 0 27 35l221 755q8 26 8 45q0 71 -128 71q-7 0 -7 13.5t11 47t25 33.5 q57 -6 204 -6t204 6q9 0 9 -12.5t-10 -47t-25 -34.5q-104 0 -137 -28t-45 -72l-330 -1143q-16 -54 -58 -54t-57 29l-504 1006q-12 23 -22.5 23t-17.5 -24l-229 -805q-9 -32 -9 -56q0 -60 123 -60q8 0 8 -14.5t-10 -47t-23 -32.5q-76 8 -207 8t-207 -8q-7 0 -7 12.5z M725 1546q0 3 2 6q28 66 88.5 125t115.5 59q41 0 140 -24q73 -21 135 -21q69 0 108 60q6 8 17 8q9 0 21 -5q23 -9 23 -22q0 -3 -1 -6q-25 -59 -85.5 -116.5t-111.5 -57.5q-43 0 -155 25q-99 20 -119 20q-31 0 -67 -20.5t-56 -49.5q-6 -8 -16 -8q-8 0 -19 5q-20 9 -20 22z " />
<glyph unicode="&#xd2;" horiz-adv-x="1512" d="M178 451q0 345 263 639.5t638 294.5q241 0 365 -149t124 -361q0 -343 -261 -622.5t-635 -279.5q-206 0 -350 133.5t-144 344.5zM421 474q0 -188 85.5 -299.5t207.5 -111.5q178 0 312 116.5t219.5 308.5t85.5 386q0 176 -85 301.5t-204 125.5q-148 0 -284 -106.5 t-236.5 -299.5t-100.5 -421zM669 1787q0 20 11.5 44.5t33.5 41.5t40 7l510 -279q45 -24 30 -56q-10 -21 -32 -21q-14 0 -29 6l-536 204q-28 11 -28 53z" />
<glyph unicode="&#xd3;" horiz-adv-x="1512" d="M178 451q0 345 263 639.5t638 294.5q241 0 365 -149t124 -361q0 -343 -261 -622.5t-635 -279.5q-206 0 -350 133.5t-144 344.5zM421 474q0 -188 85.5 -299.5t207.5 -111.5q178 0 312 116.5t219.5 308.5t85.5 386q0 176 -85 301.5t-204 125.5q-148 0 -284 -106.5 t-236.5 -299.5t-100.5 -421zM864 1560q0 22 35 41l508 279q8 4 17 4q21 0 46 -29.5t25 -68.5q0 -40 -31 -52l-534 -204q-16 -6 -28 -6q-16 0 -27 10.5t-11 25.5z" />
<glyph unicode="&#xd4;" horiz-adv-x="1512" d="M178 451q0 345 263 639.5t638 294.5q241 0 365 -149t124 -361q0 -343 -261 -622.5t-635 -279.5q-206 0 -350 133.5t-144 344.5zM421 474q0 -188 85.5 -299.5t207.5 -111.5q178 0 312 116.5t219.5 308.5t85.5 386q0 176 -85 301.5t-204 125.5q-148 0 -284 -106.5 t-236.5 -299.5t-100.5 -421zM768 1566q0 8 7 13l350 271q25 19 50.5 19t51.5 -24l268 -266q4 -4 4 -10q0 -10 -11.5 -27t-20.5 -17q-2 0 -4 1l-271 133q-19 9 -39 9t-41 -9l-301 -133q-3 -1 -6 -1q-14 0 -25.5 15.5t-11.5 25.5z" />
<glyph unicode="&#xd5;" horiz-adv-x="1512" d="M178 451q0 345 263 639.5t638 294.5q241 0 365 -149t124 -361q0 -343 -261 -622.5t-635 -279.5q-206 0 -350 133.5t-144 344.5zM421 474q0 -188 85.5 -299.5t207.5 -111.5q178 0 312 116.5t219.5 308.5t85.5 386q0 176 -85 301.5t-204 125.5q-148 0 -284 -106.5 t-236.5 -299.5t-100.5 -421zM819 1489l1 6q31 82 91 140q45 44 85 44q34 0 121 -24q63 -21 117 -21q53 0 89 53q3 3 5 7q4 7 15 7l16 -3q20 -9 21 -23l-1 -6q-27 -71 -87 -129q-46 -45 -83 -45q-40 0 -135 25q-89 19 -103 20q-40 0 -82 -39q-15 -15 -24 -31q-3 -6 -11 -6 l-14 2q-20 8 -21 23z" />
<glyph unicode="&#xd6;" horiz-adv-x="1512" d="M178 451q0 345 263 639.5t638 294.5q241 0 365 -149t124 -361q0 -343 -261 -622.5t-635 -279.5q-206 0 -350 133.5t-144 344.5zM421 474q0 -188 85.5 -299.5t207.5 -111.5q178 0 312 116.5t219.5 308.5t85.5 386q0 176 -85 301.5t-204 125.5q-148 0 -284 -106.5 t-236.5 -299.5t-100.5 -421zM819 1629q0 59 40 101t102 42q49 0 80.5 -30.5t31.5 -79.5q0 -60 -41 -101t-100 -41q-51 0 -82 30t-31 79zM1219 1629q0 59 40 101t101 42q49 0 81 -30.5t32 -79.5q0 -60 -41 -101t-101 -41q-51 0 -81.5 30t-30.5 79z" />
<glyph unicode="&#xd7;" horiz-adv-x="833" d="M66 98l241 244l-241 242l137 137l241 -242l244 242l137 -137l-243 -242l243 -244l-137 -137l-244 242l-241 -242z" />
<glyph unicode="&#xd8;" horiz-adv-x="1512" d="M178 451q0 399 330 703q149 137 287.5 184t283.5 47q161 0 266 -65l87 103q14 15 54 -21t27 -52l-84 -99q3 -4 11 -12.5t10 -10.5q118 -141 118 -353q0 -155 -68 -327t-215 -317q-265 -260 -613 -260q-145 0 -273 77l-118 -138q-10 -11 -50 25t-30 48l110 130 q-133 130 -133 338zM420 474q0 -111 33 -197l783 915q-80 107 -182 107q-5 4 -35 1t-62.5 -7t-86 -29.5t-108.5 -67.5q-115 -86 -196 -221t-113.5 -261t-32.5 -240zM506 174q84 -111 201 -111q128 0 235.5 62t177.5 155.5t119.5 207.5t70.5 212t21 175q0 114 -40 216z" />
<glyph unicode="&#xd9;" horiz-adv-x="1487" d="M241 262q0 130 49 292l182 602q10 32 10 56q0 27 -30 42.5t-106 15.5q-8 0 -8 14t9.5 47t23.5 33q57 -6 275.5 -6t276.5 6q7 0 7 -13.5t-9.5 -47t-22.5 -33.5q-115 0 -143.5 -27t-47.5 -89l-144 -476q-93 -308 -93 -417t80 -153.5t168 -44.5q176 0 299.5 95t199.5 348 l194 648q8 26 8 43q0 73 -145 73q-6 0 -6 13t10 47t23 34q57 -6 233.5 -6t234.5 6q8 0 8 -12.5t-10 -47t-23 -34.5q-106 0 -140 -32.5t-49 -83.5l-86 -283q-141 -465 -211 -587t-211.5 -216.5t-383.5 -94.5q-222 0 -322 77.5t-100 211.5zM685 1787q0 20 11.5 44.5t33.5 41.5 t40 7l510 -279q45 -24 30 -56q-10 -21 -32 -21q-14 0 -29 6l-536 204q-28 11 -28 53z" />
<glyph unicode="&#xda;" horiz-adv-x="1487" d="M241 262q0 130 49 292l182 602q10 32 10 56q0 27 -30 42.5t-106 15.5q-8 0 -8 14t9.5 47t23.5 33q57 -6 275.5 -6t276.5 6q7 0 7 -13.5t-9.5 -47t-22.5 -33.5q-115 0 -143.5 -27t-47.5 -89l-144 -476q-93 -308 -93 -417t80 -153.5t168 -44.5q176 0 299.5 95t199.5 348 l194 648q8 26 8 43q0 73 -145 73q-6 0 -6 13t10 47t23 34q57 -6 233.5 -6t234.5 6q8 0 8 -12.5t-10 -47t-23 -34.5q-106 0 -140 -32.5t-49 -83.5l-86 -283q-141 -465 -211 -587t-211.5 -216.5t-383.5 -94.5q-222 0 -322 77.5t-100 211.5zM931 1560q0 22 35 41l508 279 q8 4 17 4q21 0 46 -29.5t25 -68.5q0 -40 -31 -52l-534 -204q-16 -6 -28 -6q-16 0 -27 10.5t-11 25.5z" />
<glyph unicode="&#xdb;" horiz-adv-x="1487" d="M241 262q0 130 49 292l182 602q10 32 10 56q0 27 -30 42.5t-106 15.5q-8 0 -8 14t9.5 47t23.5 33q57 -6 275.5 -6t276.5 6q7 0 7 -13.5t-9.5 -47t-22.5 -33.5q-115 0 -143.5 -27t-47.5 -89l-144 -476q-93 -308 -93 -417t80 -153.5t168 -44.5q176 0 299.5 95t199.5 348 l194 648q8 26 8 43q0 73 -145 73q-6 0 -6 13t10 47t23 34q57 -6 233.5 -6t234.5 6q8 0 8 -12.5t-10 -47t-23 -34.5q-106 0 -140 -32.5t-49 -83.5l-86 -283q-141 -465 -211 -587t-211.5 -216.5t-383.5 -94.5q-222 0 -322 77.5t-100 211.5zM782 1566q0 8 7 13l350 271 q25 19 50.5 19t51.5 -24l268 -266q4 -4 4 -10q0 -10 -11.5 -27t-20.5 -17q-2 0 -4 1l-271 133q-19 9 -39 9t-41 -9l-301 -133q-3 -1 -6 -1q-14 0 -25.5 15.5t-11.5 25.5z" />
<glyph unicode="&#xdc;" horiz-adv-x="1487" d="M241 262q0 130 49 292l182 602q10 32 10 56q0 27 -30 42.5t-106 15.5q-8 0 -8 14t9.5 47t23.5 33q57 -6 275.5 -6t276.5 6q7 0 7 -13.5t-9.5 -47t-22.5 -33.5q-115 0 -143.5 -27t-47.5 -89l-144 -476q-93 -308 -93 -417t80 -153.5t168 -44.5q176 0 299.5 95t199.5 348 l194 648q8 26 8 43q0 73 -145 73q-6 0 -6 13t10 47t23 34q57 -6 233.5 -6t234.5 6q8 0 8 -12.5t-10 -47t-23 -34.5q-106 0 -140 -32.5t-49 -83.5l-86 -283q-141 -465 -211 -587t-211.5 -216.5t-383.5 -94.5q-222 0 -322 77.5t-100 211.5zM840 1629q0 59 40 101t102 42 q49 0 80.5 -30.5t31.5 -79.5q0 -60 -41 -101t-100 -41q-51 0 -82 30t-31 79zM1240 1629q0 59 40 101t101 42q49 0 81 -30.5t32 -79.5q0 -60 -41 -101t-101 -41q-51 0 -81.5 30t-30.5 79z" />
<glyph unicode="&#xdd;" horiz-adv-x="1268" d="M198 1283.5q0 13.5 8 47t21 33.5q58 -6 253.5 -6t252.5 6q16 0 4.5 -47t-25.5 -47q-121 0 -121 -56q0 -24 11 -57l131 -403q8 -23 22 -23t32 20l386 406q47 52 47 78q0 35 -93 35q-15 0 -2 47t27 47q57 -6 212.5 -6t213.5 6q8 0 8 -13.5t-8 -47t-23 -33.5 q-103 0 -157.5 -34.5t-199.5 -190.5l-379 -403q-38 -40 -65 -134l-89 -307q-8 -27 -8 -51q0 -64 126 -64q15 0 2 -47t-27 -47q-76 8 -263 8t-264 -8q-13 0 -1.5 47t26.5 47q84 0 119.5 24t59.5 108l77 256q24 84 24 115t-20 89l-151 460q-27 81 -57.5 106.5t-101.5 25.5 q-8 0 -8 13.5zM794 1560q0 22 35 41l508 279q8 4 17 4q21 0 46 -29.5t25 -68.5q0 -40 -31 -52l-534 -204q-16 -6 -28 -6q-16 0 -27 10.5t-11 25.5z" />
<glyph unicode="&#xde;" horiz-adv-x="1249" d="M-149 -434q0 14 8 20q91 57 135 101t65 112l384 1290q10 32 10 60q0 75 -138 75q-13 0 0.5 47t26.5 47q145 0 305 51q48 15 76 15q37 0 37 -33q0 -23 -20 -74t-47 -142q99 49 203 122t185 73q54 0 90 -35q107 -107 107 -321q0 -182 -97 -393t-349 -401t-450 -203 q-36 -2 -48 -42l-57 -195q-17 -55 -131 -132.5t-222 -127.5q-3 -1 -7 -1q-19 0 -42.5 36.5t-23.5 50.5zM385 91q0 -17 25 -17q8 0 18 2q159 41 310 176t226 310t75 340q0 160 -86 261q-15 17 -29 17q-16 0 -24 -5q-91 -63 -206 -130q-37 -20 -50 -65l-254 -860 q-5 -18 -5 -29z" />
<glyph unicode="&#xdf;" horiz-adv-x="983" d="M-336 -424q0 45 28.5 75t63.5 30q60 0 86 -56q35 -71 66 -71q26 0 45.5 18t30 47t18.5 63.5t14 67.5l179 881q75 375 241 577q211 256 529 256q108 0 178.5 -48t70.5 -136q0 -39 -16 -72.5t-52 -63.5t-69 -51.5t-87 -53t-87 -54.5q-215 -145 -215 -291q0 -41 18.5 -73.5 t94.5 -137.5q57 -75 81.5 -124.5t24.5 -108.5q0 -115 -102 -201q-88 -76 -225 -76q-72 0 -123 44t-51 92q0 36 21.5 71t70.5 35q28 0 52.5 -11t36 -21.5t36.5 -37.5q10 -12 19 -21t18.5 -15.5t24.5 -9.5t38 -3q49 0 49 64q0 22 -19.5 51t-58.5 72t-53 63q-100 133 -100 232 q0 86 19.5 152.5t65.5 122.5t88 92t117 93q162 117 162 219q0 50 -26.5 87.5t-83.5 37.5q-76 0 -138.5 -47t-138.5 -135q-82 -96 -127 -228t-90 -356l-143 -712q-21 -105 -64 -209.5t-76 -134.5q-118 -111 -251 -111q-88 0 -139.5 41t-51.5 86z" />
<glyph unicode="&#xe0;" horiz-adv-x="966" d="M63 166q0 209 186 443.5t392 234.5q62 0 107 -31l20 49q9 22 93 22q91 0 91 -35q0 -7 -3 -18l-197 -651q-3 -10 -3 -19q1 -20 23 -20q36 0 102 66q12 12 40 -12q20 -17 20 -28q0 -5 -4 -9q-92 -90 -167.5 -137.5t-131.5 -47.5q-80 0 -79 91q1 61 40 144l4 7l-12 6 q-224 -248 -361 -248q-73 0 -116.5 54t-43.5 139zM285 227q0 -117 47 -117q52 0 126.5 81.5t127.5 177.5t80 184l49 160q-32 47 -101 47q-128 0 -228.5 -215.5t-100.5 -317.5zM353 1218q-30 28 11 72q40 43 85 43q24 0 37 -19l209 -313q20 -31 13 -51q-9 -21 -32 -21t-42 18 z" />
<glyph unicode="&#xe1;" horiz-adv-x="966" d="M63 166q0 209 186 443.5t392 234.5q62 0 107 -31l20 49q9 22 93 22q91 0 91 -35q0 -7 -3 -18l-197 -651q-3 -10 -3 -19q1 -20 23 -20q36 0 102 66q12 12 40 -12q20 -17 20 -28q0 -5 -4 -9q-92 -90 -167.5 -137.5t-131.5 -47.5q-80 0 -79 91q1 61 40 144l4 7l-12 6 q-224 -248 -361 -248q-73 0 -116.5 54t-43.5 139zM285 227q0 -117 47 -117q52 0 126.5 81.5t127.5 177.5t80 184l49 160q-32 47 -101 47q-128 0 -228.5 -215.5t-100.5 -317.5zM556 950q-7 20 13 51l209 313q13 19 37 19q45 0 85 -43q41 -44 11 -72l-281 -271 q-19 -18 -42 -18t-32 21z" />
<glyph unicode="&#xe2;" horiz-adv-x="966" d="M63 166q0 209 186 443.5t392 234.5q62 0 107 -31l20 49q9 22 93 22q91 0 91 -35q0 -7 -3 -18l-197 -651q-3 -10 -3 -19q1 -20 23 -20q36 0 102 66q12 12 40 -12q20 -17 20 -28q0 -5 -4 -9q-92 -90 -167.5 -137.5t-131.5 -47.5q-80 0 -79 91q1 61 40 144l4 7l-12 6 q-224 -248 -361 -248q-73 0 -116.5 54t-43.5 139zM285 227q0 -117 47 -117q52 0 126.5 81.5t127.5 177.5t80 184l49 160q-32 47 -101 47q-128 0 -228.5 -215.5t-100.5 -317.5zM441 985l1 11q1 2 2 3l307 407q23 30 58 30q31 0 40 -30l138 -407v-12q-6 -20 -31 -31l-15 -3 l-10 4q-1 1 -2 3l-129 197q-29 44 -44 44q-11 0 -40 -30l-18 -18l-201 -197q-4 -4 -12 -5l-15 4q-24 11 -29 30z" />
<glyph unicode="&#xe3;" horiz-adv-x="966" d="M63 166q0 209 186 443.5t392 234.5q62 0 107 -31l20 49q9 22 93 22q91 0 91 -35q0 -7 -3 -18l-197 -651q-3 -10 -3 -19q1 -20 23 -20q36 0 102 66q12 12 40 -12q20 -17 20 -28q0 -5 -4 -9q-92 -90 -167.5 -137.5t-131.5 -47.5q-80 0 -79 91q1 61 40 144l4 7l-12 6 q-224 -248 -361 -248q-73 0 -116.5 54t-43.5 139zM285 227q0 -117 47 -117q52 0 126.5 81.5t127.5 177.5t80 184l49 160q-32 47 -101 47q-128 0 -228.5 -215.5t-100.5 -317.5zM471 964l1 6q31 82 91 140q45 44 85 44q34 0 121 -24q63 -21 117 -21q53 0 89 53q3 3 5 7 q4 7 15 7l16 -3q20 -9 21 -23l-1 -6q-27 -71 -87 -129q-46 -45 -83 -45q-40 0 -135 25q-89 19 -103 20q-40 0 -82 -39q-15 -15 -24 -31q-3 -6 -11 -6l-14 2q-20 8 -21 23z" />
<glyph unicode="&#xe4;" horiz-adv-x="966" d="M63 166q0 209 186 443.5t392 234.5q62 0 107 -31l20 49q9 22 93 22q91 0 91 -35q0 -7 -3 -18l-197 -651q-3 -10 -3 -19q1 -20 23 -20q36 0 102 66q12 12 40 -12q20 -17 20 -28q0 -5 -4 -9q-92 -90 -167.5 -137.5t-131.5 -47.5q-80 0 -79 91q1 61 40 144l4 7l-12 6 q-224 -248 -361 -248q-73 0 -116.5 54t-43.5 139zM285 227q0 -117 47 -117q52 0 126.5 81.5t127.5 177.5t80 184l49 160q-32 47 -101 47q-128 0 -228.5 -215.5t-100.5 -317.5zM373 1119q0 59 40 101t102 42q49 0 80.5 -30.5t31.5 -79.5q0 -60 -41 -101t-100 -41 q-51 0 -82 30t-31 79zM773 1119q0 59 40 101t101 42q49 0 81 -30.5t32 -79.5q0 -60 -41 -101t-101 -41q-51 0 -81.5 30t-30.5 79z" />
<glyph unicode="&#xe5;" horiz-adv-x="966" d="M63 166q0 209 186 443.5t392 234.5q62 0 107 -31l20 49q9 22 93 22q91 0 91 -35q0 -7 -3 -18l-197 -651q-3 -10 -3 -19q1 -20 23 -20q36 0 102 66q12 12 40 -12q20 -17 20 -28q0 -5 -4 -9q-92 -90 -167.5 -137.5t-131.5 -47.5q-80 0 -79 91q1 61 40 144l4 7l-12 6 q-224 -248 -361 -248q-73 0 -116.5 54t-43.5 139zM285 227q0 -117 47 -117q52 0 126.5 81.5t127.5 177.5t80 184l49 160q-32 47 -101 47q-128 0 -228.5 -215.5t-100.5 -317.5zM481 1186q0 96 73 161q69 62 173 62q126 0 197 -87q48 -60 48 -136q0 -97 -73 -163 q-69 -62 -172 -62q-126 0 -197 88q-49 60 -49 137zM618 1184q0 -83 50 -121q25 -20 59 -20q66 0 94 68q14 33 14 73q0 85 -53 124q-24 17 -55 19q-69 -4 -97 -74q-12 -31 -12 -69z" />
<glyph unicode="&#xe6;" horiz-adv-x="1083" d="M37 162q0 166 152.5 330.5t363.5 262t387 97.5q170 0 170 -141q0 -76 -56.5 -141.5t-147.5 -108.5t-154.5 -65.5t-126.5 -39.5q-11 -71 -11 -104q0 -68 30 -108t79 -40q45 0 100 37t90 74q12 11 36 -10t16 -33q-160 -199 -316 -199q-71 0 -110 25t-68 76 q-133 -101 -274 -101q-74 0 -117 54.5t-43 134.5zM258 195q0 -35 15.5 -63t43.5 -28q41 0 103 39q-10 56 -10 88q0 109 78.5 247t181.5 229l-8 8q-168 -84 -286 -236.5t-118 -283.5zM641 438q90 27 177 94.5t87 155.5q0 12 -3 25.5t-16.5 29t-33.5 15.5q-57 0 -120.5 -101.5 t-90.5 -218.5z" />
<glyph unicode="&#xe7;" horiz-adv-x="743" d="M12 -434q0 29 18.5 48.5t47.5 19.5q31 0 75 -38t64 -38q19 0 36 14.5t17 36.5q0 94 -127 148l-6 16l148 217h108l-78 -106q-12 -17 -9 -24t26 -24q98 -73 98 -170q0 -82 -77.5 -136t-182.5 -54q-158 0 -158 90zM92 264q0 203 157 395.5t339 192.5q80 0 136 -33t56 -82 q0 -37 -32.5 -65.5t-69.5 -28.5q-43 0 -60 31q-5 48 -27 72t-54 24q-97 0 -166.5 -145.5t-69.5 -294.5q0 -99 32 -169.5t95 -70.5q53 0 95 25.5t59 42.5q8 8 22.5 -0.5t23.5 -22t1 -22.5q-117 -140 -295 -140q-107 0 -174.5 80t-67.5 211z" />
<glyph unicode="&#xe8;" horiz-adv-x="751" d="M78 231q0 192 175 406.5t357 214.5q168 0 168 -139q0 -120 -142 -215.5t-337 -141.5q-16 -75 -16 -104q0 -148 92 -148q49 0 111.5 39t88.5 64q9 5 22.5 -2.5t23 -20t4.5 -20.5q-146 -191 -308 -191q-239 0 -239 258zM326 449q88 28 168.5 94.5t80.5 144.5q0 66 -44 66 q-52 0 -107.5 -87.5t-97.5 -217.5zM338 1218q-30 28 11 72q40 43 85 43q24 0 37 -19l209 -313q20 -31 13 -51q-9 -21 -32 -21t-42 18z" />
<glyph unicode="&#xe9;" horiz-adv-x="751" d="M78 231q0 192 175 406.5t357 214.5q168 0 168 -139q0 -120 -142 -215.5t-337 -141.5q-16 -75 -16 -104q0 -148 92 -148q49 0 111.5 39t88.5 64q9 5 22.5 -2.5t23 -20t4.5 -20.5q-146 -191 -308 -191q-239 0 -239 258zM326 449q88 28 168.5 94.5t80.5 144.5q0 66 -44 66 q-52 0 -107.5 -87.5t-97.5 -217.5zM524 950q-7 20 13 51l209 313q13 19 37 19q45 0 85 -43q41 -44 11 -72l-281 -271q-19 -18 -42 -18t-32 21z" />
<glyph unicode="&#xea;" horiz-adv-x="751" d="M78 231q0 192 175 406.5t357 214.5q168 0 168 -139q0 -120 -142 -215.5t-337 -141.5q-16 -75 -16 -104q0 -148 92 -148q49 0 111.5 39t88.5 64q9 5 22.5 -2.5t23 -20t4.5 -20.5q-146 -191 -308 -191q-239 0 -239 258zM326 449q88 28 168.5 94.5t80.5 144.5q0 66 -44 66 q-52 0 -107.5 -87.5t-97.5 -217.5zM336 985l1 11q1 2 2 3l307 407q23 30 58 30q31 0 40 -30l138 -407v-12q-6 -20 -31 -31l-15 -3l-10 4q-1 1 -2 3l-129 197q-29 44 -44 44q-11 0 -40 -30l-18 -18l-201 -197q-4 -4 -12 -5l-15 4q-24 11 -29 30z" />
<glyph unicode="&#xeb;" horiz-adv-x="751" d="M78 231q0 192 175 406.5t357 214.5q168 0 168 -139q0 -120 -142 -215.5t-337 -141.5q-16 -75 -16 -104q0 -148 92 -148q49 0 111.5 39t88.5 64q9 5 22.5 -2.5t23 -20t4.5 -20.5q-146 -191 -308 -191q-239 0 -239 258zM317 1119q0 59 40 101t102 42q49 0 80.5 -30.5 t31.5 -79.5q0 -60 -41 -101t-100 -41q-51 0 -82 30t-31 79zM326 449q88 28 168.5 94.5t80.5 144.5q0 66 -44 66q-52 0 -107.5 -87.5t-97.5 -217.5zM717 1119q0 59 40 101t101 42q49 0 81 -30.5t32 -79.5q0 -60 -41 -101t-101 -41q-51 0 -81.5 30t-30.5 79z" />
<glyph unicode="&#xec;" horiz-adv-x="534" d="M109 647q0 6 2 8q168 197 288 197q64 0 84 -72q5 -18 6 -40l-2 -43q-3 -18 -8 -35l-147 -482l-4 -21q2 -16 23 -17t76 62q17 20 31 20t27.5 -18t14.5 -26l-2 -6q-173 -201 -289 -201q-65 0 -84 74q-16 55 4 121l147 479l3 20q-1 21 -21.5 21t-93.5 -82q-3 -3 -15 -3 t-26 19t-14 25zM147 1218q-30 28 11 72q40 43 85 43q24 0 37 -19l209 -313q20 -31 13 -51q-9 -21 -32 -21t-42 18z" />
<glyph unicode="&#xed;" horiz-adv-x="534" d="M109 647q0 6 2 8q168 197 288 197q64 0 84 -72q5 -18 6 -40l-2 -43q-3 -18 -8 -35l-147 -482l-4 -21q2 -16 23 -17t76 62q17 20 31 20t27.5 -18t14.5 -26l-2 -6q-173 -201 -289 -201q-65 0 -84 74q-16 55 4 121l147 479l3 20q-1 21 -21.5 21t-93.5 -82q-3 -3 -15 -3 t-26 19t-14 25zM344 950q-7 20 13 51l209 313q13 19 37 19q45 0 85 -43q41 -44 11 -72l-281 -271q-19 -18 -42 -18t-32 21z" />
<glyph unicode="&#xee;" horiz-adv-x="534" d="M109 647q0 6 2 8q168 197 288 197q64 0 84 -72q5 -18 6 -40l-2 -43q-3 -18 -8 -35l-147 -482l-4 -21q2 -16 23 -17t76 62q17 20 31 20t27.5 -18t14.5 -26l-2 -6q-173 -201 -289 -201q-65 0 -84 74q-16 55 4 121l147 479l3 20q-1 21 -21.5 21t-93.5 -82q-3 -3 -15 -3 t-26 19t-14 25zM110 985l1 11q1 2 2 3l307 407q23 30 58 30q31 0 40 -30l138 -407v-12q-6 -20 -31 -31l-15 -3l-10 4q-1 1 -2 3l-129 197q-29 44 -44 44q-11 0 -40 -30l-18 -18l-201 -197q-4 -4 -12 -5l-15 4q-24 11 -29 30z" />
<glyph unicode="&#xef;" horiz-adv-x="534" d="M94 1119q0 59 40 101t102 42q49 0 80.5 -30.5t31.5 -79.5q0 -60 -41 -101t-100 -41q-51 0 -82 30t-31 79zM109 647q0 6 2 8q168 197 288 197q64 0 84 -72q5 -18 6 -40l-2 -43q-3 -18 -8 -35l-147 -482l-4 -21q2 -16 23 -17t76 62q17 20 31 20t27.5 -18t14.5 -26l-2 -6 q-173 -201 -289 -201q-65 0 -84 74q-16 55 4 121l147 479l3 20q-1 21 -21.5 21t-93.5 -82q-3 -3 -15 -3t-26 19t-14 25zM494 1119q0 59 40 101t101 42q49 0 81 -30.5t32 -79.5q0 -60 -41 -101t-101 -41q-51 0 -81.5 30t-30.5 79z" />
<glyph unicode="&#xf0;" horiz-adv-x="911" d="M94 322q0 221 159 375.5t339 154.5q8 0 26.5 -1t24.5 -1q-57 98 -154 184l-280 -180q-21 -13 -45.5 68.5t-13.5 81.5q2 0 31.5 -17.5t54.5 -17.5q18 0 40 12l156 100q-102 78 -276 154q-17 8 -0.5 45t37.5 31q186 -54 352 -156l297 195q17 10 54.5 -66t23.5 -76 q-7 0 -44.5 12.5t-60.5 12.5q-18 0 -33 -8l-172 -111q281 -196 281 -467q0 -305 -142.5 -489.5t-377.5 -184.5q-277 0 -277 349zM287 201q0 -58 36.5 -92.5t77.5 -34.5q64 0 132.5 95t112.5 228t44 244q0 59 -31.5 84t-70.5 25q-66 0 -137.5 -88.5t-117.5 -217.5t-46 -243z " />
<glyph unicode="&#xf1;" horiz-adv-x="1024" d="M74 -2l194 623q11 35 11 45q0 22 -23 22t-92 -82q-4 -4 -9 -4q-11 0 -29 17.5t-18 28.5q0 4 3 7q171 197 282 197q88 0 88 -104q0 -37 -16 -82l-57 -162l12 -4q201 352 391 352q143 0 143 -141q0 -71 -28 -164l-95 -315q-20 -65 -20 -71q0 -20 23 -20t98 84q3 4 8 4 q10 0 30 -17.5t20 -28.5q0 -4 -3 -7q-162 -203 -297 -203q-90 0 -90 128q0 33 10 67l125 412q31 102 31 131q0 32 -18 32q-99 0 -249.5 -264.5t-226.5 -482.5q-8 -23 -107 -23t-91 25zM410 964l1 6q31 82 91 140q45 44 85 44q34 0 121 -24q63 -21 117 -21q53 0 89 53 q3 3 5 7q4 7 15 7l16 -3q20 -9 21 -23l-1 -6q-27 -71 -87 -129q-46 -45 -83 -45q-40 0 -135 25q-89 19 -103 20q-40 0 -82 -39q-15 -15 -24 -31q-3 -6 -11 -6l-14 2q-20 8 -21 23z" />
<glyph unicode="&#xf2;" horiz-adv-x="948" d="M113 315q0 191 162.5 364t355.5 173q139 0 208.5 -90t69.5 -234q0 -209 -148.5 -382t-369.5 -173q-139 0 -208.5 97.5t-69.5 244.5zM295 203q0 -117 96 -117q95 0 217.5 201t122.5 342q0 119 -90 119q-105 0 -225.5 -201t-120.5 -344zM395 1218q-30 28 11 72q40 43 85 43 q24 0 37 -19l209 -313q20 -31 13 -51q-9 -21 -32 -21t-42 18z" />
<glyph unicode="&#xf3;" horiz-adv-x="948" d="M113 315q0 191 162.5 364t355.5 173q139 0 208.5 -90t69.5 -234q0 -209 -148.5 -382t-369.5 -173q-139 0 -208.5 97.5t-69.5 244.5zM295 203q0 -117 96 -117q95 0 217.5 201t122.5 342q0 119 -90 119q-105 0 -225.5 -201t-120.5 -344zM612 950q-7 20 13 51l209 313 q13 19 37 19q45 0 85 -43q41 -44 11 -72l-281 -271q-19 -18 -42 -18t-32 21z" />
<glyph unicode="&#xf4;" horiz-adv-x="948" d="M113 315q0 191 162.5 364t355.5 173q139 0 208.5 -90t69.5 -234q0 -209 -148.5 -382t-369.5 -173q-139 0 -208.5 97.5t-69.5 244.5zM295 203q0 -117 96 -117q95 0 217.5 201t122.5 342q0 119 -90 119q-105 0 -225.5 -201t-120.5 -344zM417 985l1 11q1 2 2 3l307 407 q23 30 58 30q31 0 40 -30l138 -407v-12q-6 -20 -31 -31l-15 -3l-10 4q-1 1 -2 3l-129 197q-29 44 -44 44q-11 0 -40 -30l-18 -18l-201 -197q-4 -4 -12 -5l-15 4q-24 11 -29 30z" />
<glyph unicode="&#xf5;" horiz-adv-x="948" d="M113 315q0 191 162.5 364t355.5 173q139 0 208.5 -90t69.5 -234q0 -209 -148.5 -382t-369.5 -173q-139 0 -208.5 97.5t-69.5 244.5zM295 203q0 -117 96 -117q95 0 217.5 201t122.5 342q0 119 -90 119q-105 0 -225.5 -201t-120.5 -344zM435 964l1 6q31 82 91 140 q45 44 85 44q34 0 121 -24q63 -21 117 -21q53 0 89 53q3 3 5 7q4 7 15 7l16 -3q20 -9 21 -23l-1 -6q-27 -71 -87 -129q-46 -45 -83 -45q-40 0 -135 25q-89 19 -103 20q-40 0 -82 -39q-15 -15 -24 -31q-3 -6 -11 -6l-14 2q-20 8 -21 23z" />
<glyph unicode="&#xf6;" horiz-adv-x="948" d="M113 315q0 191 162.5 364t355.5 173q139 0 208.5 -90t69.5 -234q0 -209 -148.5 -382t-369.5 -173q-139 0 -208.5 97.5t-69.5 244.5zM295 203q0 -117 96 -117q95 0 217.5 201t122.5 342q0 119 -90 119q-105 0 -225.5 -201t-120.5 -344zM378 1119q0 59 40 101t102 42 q49 0 80.5 -30.5t31.5 -79.5q0 -60 -41 -101t-100 -41q-51 0 -82 30t-31 79zM778 1119q0 59 40 101t101 42q49 0 81 -30.5t32 -79.5q0 -60 -41 -101t-101 -41q-51 0 -81.5 30t-30.5 79z" />
<glyph unicode="&#xf7;" horiz-adv-x="1097" d="M129 383v158h889v-158h-889zM438 137q0 49 37 86t103 37q64 0 102 -51q26 -36 26 -84q0 -73 -61 -106l-28 -12q-19 -5 -39 -5q-65 0 -106 42q-34 35 -34 93zM438 799q0 49 37 86t103 37q64 0 102 -52q26 -36 26 -84q0 -72 -61 -105l-28 -12q-19 -5 -39 -5q-66 0 -107 43 q-33 35 -33 92z" />
<glyph unicode="&#xf8;" horiz-adv-x="948" d="M113 315q0 151 110 301q105 141 250 202q80 34 158 34q72 0 131 -27l59 82q3 4 8 4l16 -4q27 -12 36 -31l1 -8l-1 -2l-60 -84q88 -84 88 -254q0 -159 -92 -307q-103 -166 -272 -223q-73 -25 -154 -25q-74 0 -135 33l-80 -110q-3 -4 -10 -4q-21 0 -42 23q-8 9 -9 16l2 6 l82 114q-86 92 -86 264zM295 182l401 553q-23 13 -55 13q-84 0 -187 -144q-94 -132 -139 -284q-20 -69 -20 -117v-21zM330 106q23 -20 61 -20q77 0 179 142q95 133 140 279q21 67 21 111q0 29 -2 39z" />
<glyph unicode="&#xf9;" horiz-adv-x="1019" d="M106 643q0 4 3 8q155 201 290 201q90 0 90 -125q0 -37 -16 -88l-96 -307q-37 -118 -37 -158q0 -41 22 -41q51 0 153.5 136.5t154.5 231.5q92 169 139 329q6 22 94 22q112 0 101 -35l-181 -586q-20 -65 -20 -69q0 -21 26.5 -21t100.5 84q3 3 8 3q10 0 28 -16 q19 -19 19 -30q0 -3 -2 -6q-165 -203 -285 -203q-106 0 -106 121q0 35 12 76l45 152q-100 -138 -217 -243.5t-188 -105.5q-125 0 -125 123q0 49 20 113l127 407q15 48 15 54q0 18 -18.5 18t-44.5 -23q-26 -24 -56 -61q-4 -5 -9 -5q-10 0 -28 16q-19 17 -19 28zM379 1218 q-30 28 11 72q40 43 85 43q24 0 37 -19l209 -313q20 -31 13 -51q-9 -21 -32 -21t-42 18z" />
<glyph unicode="&#xfa;" horiz-adv-x="1019" d="M106 643q0 4 3 8q155 201 290 201q90 0 90 -125q0 -37 -16 -88l-96 -307q-37 -118 -37 -158q0 -41 22 -41q51 0 153.5 136.5t154.5 231.5q92 169 139 329q6 22 94 22q112 0 101 -35l-181 -586q-20 -65 -20 -69q0 -21 26.5 -21t100.5 84q3 3 8 3q10 0 28 -16 q19 -19 19 -30q0 -3 -2 -6q-165 -203 -285 -203q-106 0 -106 121q0 35 12 76l45 152q-100 -138 -217 -243.5t-188 -105.5q-125 0 -125 123q0 49 20 113l127 407q15 48 15 54q0 18 -18.5 18t-44.5 -23q-26 -24 -56 -61q-4 -5 -9 -5q-10 0 -28 16q-19 17 -19 28zM587 950 q-7 20 13 51l209 313q13 19 37 19q45 0 85 -43q41 -44 11 -72l-281 -271q-19 -18 -42 -18t-32 21z" />
<glyph unicode="&#xfb;" horiz-adv-x="1019" d="M106 643q0 4 3 8q155 201 290 201q90 0 90 -125q0 -37 -16 -88l-96 -307q-37 -118 -37 -158q0 -41 22 -41q51 0 153.5 136.5t154.5 231.5q92 169 139 329q6 22 94 22q112 0 101 -35l-181 -586q-20 -65 -20 -69q0 -21 26.5 -21t100.5 84q3 3 8 3q10 0 28 -16 q19 -19 19 -30q0 -3 -2 -6q-165 -203 -285 -203q-106 0 -106 121q0 35 12 76l45 152q-100 -138 -217 -243.5t-188 -105.5q-125 0 -125 123q0 49 20 113l127 407q15 48 15 54q0 18 -18.5 18t-44.5 -23q-26 -24 -56 -61q-4 -5 -9 -5q-10 0 -28 16q-19 17 -19 28zM409 985l1 11 q1 2 2 3l307 407q23 30 58 30q31 0 40 -30l138 -407v-12q-6 -20 -31 -31l-15 -3l-10 4q-1 1 -2 3l-129 197q-29 44 -44 44q-11 0 -40 -30l-18 -18l-201 -197q-4 -4 -12 -5l-15 4q-24 11 -29 30z" />
<glyph unicode="&#xfc;" horiz-adv-x="1019" d="M106 643q0 4 3 8q155 201 290 201q90 0 90 -125q0 -37 -16 -88l-96 -307q-37 -118 -37 -158q0 -41 22 -41q51 0 153.5 136.5t154.5 231.5q92 169 139 329q6 22 94 22q112 0 101 -35l-181 -586q-20 -65 -20 -69q0 -21 26.5 -21t100.5 84q3 3 8 3q10 0 28 -16 q19 -19 19 -30q0 -3 -2 -6q-165 -203 -285 -203q-106 0 -106 121q0 35 12 76l45 152q-100 -138 -217 -243.5t-188 -105.5q-125 0 -125 123q0 49 20 113l127 407q15 48 15 54q0 18 -18.5 18t-44.5 -23q-26 -24 -56 -61q-4 -5 -9 -5q-10 0 -28 16q-19 17 -19 28zM398 1119 q0 59 40 101t102 42q49 0 80.5 -30.5t31.5 -79.5q0 -60 -41 -101t-100 -41q-51 0 -82 30t-31 79zM798 1119q0 59 40 101t101 42q49 0 81 -30.5t32 -79.5q0 -60 -41 -101t-101 -41q-51 0 -81.5 30t-30.5 79z" />
<glyph unicode="&#xfd;" horiz-adv-x="782" d="M-152 -446q0 51 27 79.5t74 28.5q41 0 69.5 -47t69.5 -47q40 0 108 71t94.5 178t26.5 255q0 260 -22.5 437t-77.5 177q-42 0 -100 -113q-3 -7 -14 -7t-33 13t-17 25q111 248 244 248q98 0 152.5 -166t54.5 -377q0 -98 -10 -190l12 -4q59 116 100 274t41 256q0 55 -26 115 q0 92 94 92t94 -88q0 -63 -48 -234.5t-130.5 -333.5t-199.5 -366t-223 -294.5t-212 -90.5q-62 0 -105 30.5t-43 78.5zM430 950q-7 20 13 51l209 313q13 19 37 19q45 0 85 -43q41 -44 11 -72l-281 -271q-19 -18 -42 -18t-32 21z" />
<glyph unicode="&#xfe;" horiz-adv-x="876" d="M-121 -508q0 16 8 21q58 16 81.5 50t35.5 97l303 1554q29 146 -53 146q-21 0 -19.5 36t19.5 36q86 0 178 27.5t96 27.5q25 0 17 -39l-125 -721q110 125 246 125q82 0 146.5 -46t64.5 -140q0 -125 -64.5 -262.5t-233 -265.5t-315.5 -165l-69 -358q-25 -129 -291 -172 q-8 -2 -16.5 15.5t-8.5 33.5zM276 45q132 45 231 172t130 237.5t31 207.5q0 45 -28 70.5t-56 25.5q-72 0 -136.5 -80t-82.5 -178z" />
<glyph unicode="&#xff;" horiz-adv-x="782" d="M-152 -446q0 51 27 79.5t74 28.5q41 0 69.5 -47t69.5 -47q40 0 108 71t94.5 178t26.5 255q0 260 -22.5 437t-77.5 177q-42 0 -100 -113q-3 -7 -14 -7t-33 13t-17 25q111 248 244 248q98 0 152.5 -166t54.5 -377q0 -98 -10 -190l12 -4q59 116 100 274t41 256q0 55 -26 115 q0 92 94 92t94 -88q0 -63 -48 -234.5t-130.5 -333.5t-199.5 -366t-223 -294.5t-212 -90.5q-62 0 -105 30.5t-43 78.5zM204 1119q0 59 40 101t102 42q49 0 80.5 -30.5t31.5 -79.5q0 -60 -41 -101t-100 -41q-51 0 -82 30t-31 79zM604 1119q0 59 40 101t101 42q49 0 81 -30.5 t32 -79.5q0 -60 -41 -101t-101 -41q-51 0 -81.5 30t-30.5 79z" />
<glyph unicode="&#x152;" horiz-adv-x="2097" d="M178 454q0 215 94 396q81 155 228 290q213 196 463 219q43 4 93 4l419 -10h4l702 4h3q55 0 62 -18l1 -17l-4 -22l-84 -288q-6 -19 -50 -19l-28 3q-15 4 -16 14q6 32 6 61q0 109 -77 159l-30 15l-35 9q-12 2 -24 2l-269 8q-33 0 -42 -19l-6 -14l-158 -508l-3 -19 q2 -13 24 -13h177q72 0 93 28q6 9 10 20l48 145q6 17 46 18l28 -4q16 -4 16 -14q-12 -29 -79 -246q-46 -156 -59 -220q-4 -16 -41 -16t-43 16l35 128l2 20q-2 19 -25 26l-32 5h-14h-201q-20 0 -28 -26l-103 -348q-11 -36 -11 -64q0 -78 83 -81h16l290 12q104 4 191 134 q46 69 76 158q6 17 53 17q18 0 30 -4q13 -4 12 -13l-101 -361q-7 -27 -58 -29h-49l-539 8h-154q-63 0 -335 -10q-71 -3 -125 -3q-124 0 -244 62q-193 100 -230 309q-8 46 -8 96zM414 477q0 -202 104 -317q77 -84 175 -84q132 0 153 2q133 11 181 95q12 20 19 45l282 939 q4 14 5 27q0 20 -12 37q-7 8 -16 15q-57 45 -252 45h-19h-1q-73 0 -114 -11q-81 -22 -173 -90q-188 -144 -278 -403q-54 -155 -54 -300z" />
<glyph unicode="&#x153;" horiz-adv-x="1206" d="M59 313q0 152 107 303q101 142 241 203q76 33 150 33q93 0 161 -60l24 -25l20 -30q7 -13 12 -26q148 141 291 141q152 0 167 -116q1 -11 1 -23q0 -164 -261 -282q-101 -46 -218 -75q-17 -79 -17 -104q0 -148 92 -148q63 0 161 73q37 28 40 30l10 1q22 -3 36 -24 q5 -7 5 -13l-2 -7q-142 -191 -307 -191q-140 0 -199 86q-126 -86 -256 -86q-155 0 -221 149q-37 83 -37 191zM239 225q0 -120 72 -137q10 -2 21 -2q65 0 154 120q92 124 133 262q18 60 18 105q0 154 -57 172l-19 3q-68 0 -161 -127q-95 -129 -140 -276q-21 -69 -21 -120z M780 449q102 32 176 99q72 67 72 140q0 52 -27 64q-6 2 -12 2q-93 0 -189 -250q-10 -26 -20 -55z" />
<glyph unicode="&#x178;" horiz-adv-x="1268" d="M198 1283.5q0 13.5 8 47t21 33.5q58 -6 253.5 -6t252.5 6q16 0 4.5 -47t-25.5 -47q-121 0 -121 -56q0 -24 11 -57l131 -403q8 -23 22 -23t32 20l386 406q47 52 47 78q0 35 -93 35q-15 0 -2 47t27 47q57 -6 212.5 -6t213.5 6q8 0 8 -13.5t-8 -47t-23 -33.5 q-103 0 -157.5 -34.5t-199.5 -190.5l-379 -403q-38 -40 -65 -134l-89 -307q-8 -27 -8 -51q0 -64 126 -64q15 0 2 -47t-27 -47q-76 8 -263 8t-264 -8q-13 0 -1.5 47t26.5 47q84 0 119.5 24t59.5 108l77 256q24 84 24 115t-20 89l-151 460q-27 81 -57.5 106.5t-101.5 25.5 q-8 0 -8 13.5zM671 1629q0 59 40 101t102 42q49 0 80.5 -30.5t31.5 -79.5q0 -60 -41 -101t-100 -41q-51 0 -82 30t-31 79zM1071 1629q0 59 40 101t101 42q49 0 81 -30.5t32 -79.5q0 -60 -41 -101t-101 -41q-51 0 -81.5 30t-30.5 79z" />
<glyph unicode="&#x2c6;" horiz-adv-x="778" d="M292 985l1 11q1 2 2 3l307 407q23 30 58 30q31 0 40 -30l138 -407v-12q-6 -20 -31 -31l-15 -3l-10 4q-1 1 -2 3l-129 197q-29 44 -44 44q-11 0 -40 -30l-18 -18l-201 -197q-4 -4 -12 -5l-15 4q-24 11 -29 30z" />
<glyph unicode="&#x2dc;" horiz-adv-x="716" d="M210 964l1 6q31 82 91 140q45 44 85 44q34 0 121 -24q63 -21 117 -21q53 0 89 53q3 3 5 7q4 7 15 7l16 -3q20 -9 21 -23l-1 -6q-27 -71 -87 -129q-46 -45 -83 -45q-40 0 -135 25q-89 19 -103 20q-40 0 -82 -39q-15 -15 -24 -31q-3 -6 -11 -6l-14 2q-20 8 -21 23z" />
<glyph unicode="&#x2000;" horiz-adv-x="942" />
<glyph unicode="&#x2001;" horiz-adv-x="1884" />
<glyph unicode="&#x2002;" horiz-adv-x="942" />
<glyph unicode="&#x2003;" horiz-adv-x="1884" />
<glyph unicode="&#x2004;" horiz-adv-x="628" />
<glyph unicode="&#x2005;" horiz-adv-x="471" />
<glyph unicode="&#x2006;" horiz-adv-x="314" />
<glyph unicode="&#x2007;" horiz-adv-x="314" />
<glyph unicode="&#x2008;" horiz-adv-x="235" />
<glyph unicode="&#x2009;" horiz-adv-x="376" />
<glyph unicode="&#x200a;" horiz-adv-x="104" />
<glyph unicode="&#x2010;" horiz-adv-x="864" d="M156.5 544.5q13.5 65.5 48.5 65.5h610q27 0 11.5 -65.5t-46.5 -65.5h-608q-29 0 -15.5 65.5z" />
<glyph unicode="&#x2011;" horiz-adv-x="864" d="M156.5 544.5q13.5 65.5 48.5 65.5h610q27 0 11.5 -65.5t-46.5 -65.5h-608q-29 0 -15.5 65.5z" />
<glyph unicode="&#x2012;" horiz-adv-x="864" d="M156.5 544.5q13.5 65.5 48.5 65.5h610q27 0 11.5 -65.5t-46.5 -65.5h-608q-29 0 -15.5 65.5z" />
<glyph unicode="&#x2013;" horiz-adv-x="1024" d="M45 518l2 40q6 38 21 38h962q20 0 23 -55l-2 -40q-6 -38 -21 -38h-962q-20 0 -23 55z" />
<glyph unicode="&#x2014;" horiz-adv-x="2048" d="M45 518l2 40q6 38 21 38h1986q20 0 23 -55l-2 -40q-6 -38 -21 -38h-1986q-20 0 -23 55z" />
<glyph unicode="&#x2018;" horiz-adv-x="581" d="M245 1076q0 31 11 63q52 160 275 293q51 30 102 53q6 4 13 4q17 0 24 -21l1 -14q-1 -5 -5 -8q-95 -67 -158 -157q-31 -44 -45 -85l-1 -17q3 -14 21 -22q84 -32 84 -98l-2 -23q-16 -74 -82 -110q-38 -21 -82 -21q-61 0 -110 50q-45 48 -46 113z" />
<glyph unicode="&#x2019;" horiz-adv-x="581" d="M246 938q0 8 6 12q90 65 153 152q34 48 48 92l2 16q-2 15 -21 23q-45 12 -69 49q-15 22 -15 50q0 11 2 22q15 75 82 110q37 19 80 19q62 0 111 -49l20 -24q27 -41 27 -91q0 -30 -10 -62q-64 -191 -379 -346l-12 -3l-11 5q-14 9 -14 25z" />
<glyph unicode="&#x201a;" horiz-adv-x="540" d="M-101 -288q1 5 5 7q90 64 152 151q34 49 48 93l3 16q-2 14 -21 23q-44 12 -69 48q-15 22 -15 50q0 11 2 23q14 75 82 110q37 19 80 19q62 0 111 -50q46 -47 46 -113q0 -30 -10 -62q-53 -162 -285 -297q-44 -26 -94 -49l-12 -3q-17 1 -23 21v13z" />
<glyph unicode="&#x201c;" horiz-adv-x="991" d="M225 1076q0 31 11 63q52 161 276 294q50 29 100 52q6 4 13 4q18 0 25 -21l1 -14q-2 -5 -6 -8q-98 -70 -160 -160q-29 -43 -43 -82l-1 -17q3 -14 22 -22q83 -33 84 -98l-2 -23q-18 -76 -85 -112q-36 -19 -79 -19q-61 0 -110 50q-46 48 -46 113zM653 1076q0 28 9 58 q1 2 2 5q52 161 276 294q50 29 100 52q6 4 13 4q18 0 25 -21l1 -14q-2 -5 -6 -8q-98 -70 -160 -160q-29 -43 -43 -82l-1 -17q3 -14 22 -22q83 -33 84 -98l-2 -23q-18 -75 -84 -111q-36 -20 -78 -20q-61 0 -111 50q-47 48 -47 113z" />
<glyph unicode="&#x201d;" horiz-adv-x="991" d="M246 938q0 8 6 12q90 65 153 152q34 48 48 92l2 16q-2 15 -21 23q-45 12 -69 49q-15 22 -15 50q0 11 2 22q15 75 82 110q37 19 80 19q62 0 111 -49l20 -24q27 -41 27 -91q0 -30 -10 -62q-64 -191 -379 -346l-12 -3l-11 5q-14 9 -14 25zM675 930v13q1 5 5 7q90 65 153 152 q34 48 48 92l2 16q-2 15 -21 23q-45 12 -69 49q-15 22 -15 50q0 11 2 22q15 75 82 110q37 19 80 19q62 0 111 -49l20 -24q27 -41 27 -91q0 -30 -10 -62q-64 -191 -379 -346l-12 -3q-17 1 -24 22z" />
<glyph unicode="&#x201e;" horiz-adv-x="874" d="M-101 -288q1 5 5 7q90 64 152 151q34 49 48 93l3 16q-2 14 -21 23q-44 12 -69 48q-15 22 -15 50q0 11 2 23q14 75 82 110q37 19 80 19q62 0 111 -50q46 -47 46 -113q0 -30 -10 -62q-53 -162 -285 -297q-44 -26 -94 -49l-12 -3q-17 1 -23 21v13zM326 -293q0 8 6 12 q90 64 152 151q34 49 48 93l3 16q-2 14 -21 23q-45 12 -69 49q-15 22 -15 50q0 11 2 22q14 75 82 110q37 19 80 19q62 0 111 -50q46 -47 46 -113q0 -30 -10 -62q-53 -162 -285 -297q-45 -26 -94 -49l-12 -3l-11 4q-13 9 -13 25z" />
<glyph unicode="&#x2022;" horiz-adv-x="823" d="M176 760q0 78 49 147q75 105 230 105q108 0 181 -78l24 -31q47 -69 47 -162q0 -119 -86 -192q-70 -60 -166 -60q-97 0 -175 55q-104 74 -104 216z" />
<glyph unicode="&#x202f;" horiz-adv-x="376" />
<glyph unicode="&#x2039;" horiz-adv-x="485" d="M75 423q0 17 29 42l406 352q3 3 8 3q31 0 31 -25q0 -6 -2 -9l-244 -327q-18 -24 -18 -37t2 -23l67 -333q2 -11 -14.5 -23.5t-26 -12.5t-12.5 5l-217 356q-9 15 -9 32z" />
<glyph unicode="&#x203a;" horiz-adv-x="485" d="M21 56q0 5 2 8l244 327q18 24 18 37t-2 23l-67 333q-2 11 14.5 23.5t26 12.5t12.5 -5l217 -356q9 -15 9 -32t-29 -42l-406 -352q-3 -3 -12 -3q-27 0 -27 26z" />
<glyph unicode="&#x205f;" horiz-adv-x="471" />
<glyph unicode="&#x20ac;" horiz-adv-x="1470" d="M29 560q0 48 25 80q12 15 26 15h120q14 52 36 103h-119q-18 0 -18 36q0 48 25 80q12 15 26 15h153q106 169 325.5 332.5t508.5 163.5q109 0 221 -34.5t163 -79.5t51 -86q0 -42 -42 -72t-88 -30q-47 0 -60 29q-41 90 -99 138t-174 48q-176 0 -338.5 -119t-247.5 -290h587 q15 0 15 -32q0 -41 -23 -80q-11 -19 -27 -19h-605q-18 -52 -29 -103h599q15 0 15 -32q0 -39 -23 -80q-11 -19 -27 -19h-585q-3 -34 -3 -68q0 -111 40.5 -189t105 -128.5t180.5 -50.5q129 0 232.5 37t242.5 111q7 3 13 3q28 0 28 -46q0 -15 -14 -25q-145 -92 -274 -144.5 t-281 -52.5q-184 0 -349 125.5t-165 375.5q0 26 2 52h-131q-18 0 -18 36z" />
<glyph unicode="&#x2122;" horiz-adv-x="1916" d="M133 1158l52 171q4 15 12 18q9 3 43 3q99 -2 370.5 -2t377.5 2q38 0 38 -11q0 -6 -2 -15l-49 -166q-3 -9 -30.5 -9t-24.5 9q8 28 8 51q0 40 -26.5 62t-77.5 24l-151 4q-13 0 -18 -16l-167 -568q-10 -33 7 -48.5t71 -15.5q5 0 4.5 -12t-7 -25.5t-11.5 -13.5 q-73 4 -159.5 4t-159.5 -4q-4 0 -4 14t7 25.5t10 11.5q52 0 77.5 12.5t36.5 51.5l166 565q1 6 1 10q0 10 -15 9l-144 -4q-140 -5 -179 -137q-3 -9 -30.5 -9.5t-25.5 9.5zM845 607q0 7 4 25.5t13 18.5q51 0 73.5 15.5t38.5 58.5l179 484q11 30 11 47q0 46 -75 46q-3 0 -3 6.5 t4.5 24t14.5 20.5q26 -3 80.5 -3t67 -5t17.5 -18.5t8 -28.5l98 -495q3 -15 10.5 -15t16.5 11l411 510q30 37 59.5 39t71.5 2t75 3q4 0 4 -12.5t-7 -25.5t-12 -13q-54 0 -73 -14t-33 -61l-153 -514q-4 -12 -4 -21q0 -22 19.5 -31.5t60.5 -9.5q4 0 4 -14.5t-6 -24.5t-10 -12 q-39 4 -145.5 4t-155.5 -4q-4 0 -4 12t7 25.5t11 13.5q42 0 64.5 17t33.5 55l106 355q5 16 -4 16q-4 0 -11 -8l-388 -479q-11 -12 -24.5 -12t-17.5 23l-93 480q-2 15 -7.5 15t-9.5 -12l-142 -388q-6 -16 -6 -27q0 -18 15 -26.5t51 -8.5q4 0 4 -8t-4.5 -25.5t-13.5 -17.5 q-73 4 -113.5 4t-114.5 -4q-3 0 -3 7z" />
<glyph unicode="&#x25fc;" horiz-adv-x="850" d="M0 0v850h850v-850h-850z" />
</font>
</defs>
</svg>
