<?xml version="1.0" standalone="no"?>
<!DOCTYPE svg PUBLIC "-//W3C//DTD SVG 1.1//EN" "http://www.w3.org/Graphics/SVG/1.1/DTD/svg11.dtd" >
<svg xmlns="http://www.w3.org/2000/svg">
<metadata></metadata>
<defs>
<font id="junicodeboldcondensed" horiz-adv-x="764" >
<font-face units-per-em="2048" ascent="1638" descent="-410" />
<missing-glyph horiz-adv-x="447" />
<glyph unicode="&#x2e;&#x2e;&#x2e;" horiz-adv-x="1638" d="M149 133q0 55 31 98q35 48 98 48q59 0 95 -57q27 -42 27 -101q0 -83 -54 -124q-30 -22 -68 -22q-56 0 -94 45q-35 42 -35 113zM694 133q0 55 32 98q35 48 98 48q58 0 94 -57q28 -42 28 -101q0 -83 -55 -124q-29 -22 -67 -22q-57 0 -94 45q-36 42 -36 113zM1242 133 q0 55 31 98q35 48 98 48q59 0 95 -57q27 -42 27 -101q0 -83 -55 -124q-29 -22 -67 -22q-57 0 -94 45q-35 42 -35 113z" />
<glyph unicode="&#xfb01;" horiz-adv-x="870" d="M34 30q0 38 12 38q86 0 86 75v568q0 34 -24 34h-50q-13 0 -13 37t13 37q36 0 54.5 34t18.5 79q0 146 52.5 274t147.5 204.5t226 76.5q90 0 141.5 -43t51.5 -101q0 -48 -30 -85q-29 -35 -59 -35q-62 0 -105 75.5t-83 75.5q-83 0 -120 -88.5t-37 -282.5v-122q0 -31 24 -31 h206q59 0 107 8.5t69.5 16.5t27.5 8q23 0 23 -31q-7 -91 -7 -178v-531q0 -75 82 -75q12 0 12 -38t-12 -38q-66 8 -174.5 8t-174.5 -8q-12 0 -12 38t12 38q83 0 83 75v535q0 67 -44 67h-198q-24 0 -24 -30v-572q0 -75 106 -75q12 0 12 -38t-12 -38q-65 8 -188 8t-188 -8 q-12 0 -12 38z" />
<glyph unicode="&#xfb02;" horiz-adv-x="871" d="M32 29.5q0 38.5 12 38.5q87 0 87 68v573q0 36 -29 36h-44q-13 0 -13 37t13 37q34 0 53.5 32t19.5 81q0 146 51 271.5t147 204.5t210 79q87 0 138 -47q28 17 43.5 32t26.5 15q25 0 25 -33q-6 -112 -6 -168v-1143q0 -75 83 -75q12 0 12 -38t-12 -38q-91 8 -182 8t-167 -8 q-13 -1 -13 37.5t13 38.5q83 0 83 75v566q0 36 -29 36h-210q-30 0 -30 -36v-573q0 -68 107 -68q13 0 13 -38.5t-13 -37.5q-77 8 -187.5 8t-189.5 -8q-12 -1 -12 37.5zM314 887q0 -37 30 -37h213q26 0 26 35v276q0 112 -37 162.5t-91 50.5q-61 0 -101 -84.5t-40 -241.5v-161z " />
<glyph unicode="&#xfb03;" horiz-adv-x="1328" d="M32 30q0 38 12 38q87 0 87 75v568q0 34 -25 34h-48q-12 0 -12 37t12 37q73 0 73 113q0 140 61.5 271t155 197t191.5 66q127 0 184 -96q5 -8 9 -16q120 133 282 133q90 0 142 -43t52 -101q0 -48 -30.5 -84.5t-59.5 -35.5q-61 0 -104.5 75.5t-83.5 75.5q-82 0 -119 -88.5 t-37 -282.5v-122q0 -31 24 -31h206q59 0 107 8.5t69.5 16.5t26.5 8q23 0 23 -31q-6 -91 -6 -178v-531q0 -75 82 -75q12 0 12 -38t-12 -38q-66 8 -175 8t-174 -8q-12 0 -12 38t12 38q83 0 83 75v535q0 67 -44 67h-198q-24 0 -24 -30v-572q0 -75 106 -75q12 0 12 -38t-12 -38 q-66 8 -188.5 8t-188.5 -8q-12 0 -12 38t12 38q87 0 87 75v568q0 34 -24 34h-227q-25 0 -25 -30v-572q0 -75 107 -75q12 0 12 -38t-12 -38q-66 8 -188.5 8t-188.5 -8q-12 0 -12 38zM314 881q0 -31 25 -31h225q26 0 26 82q0 144 49 258q-45 166 -157 166q-91 0 -129.5 -90 t-38.5 -289v-96z" />
<glyph unicode="&#xfb04;" horiz-adv-x="1328" d="M32 30q0 38 12 38q87 0 87 75v568q0 34 -25 34h-48q-12 0 -12 37t12 37q73 0 73 113q0 140 61.5 271t155 197t191.5 66q127 0 184 -96q5 -8 9 -16q125 133 266 133q84 0 137 -47q33 22 46 34.5t23 12.5q25 0 25 -33q-5 -87 -5 -168v-1143q0 -76 82 -75q12 0 12 -38 t-12 -38q-77 8 -173 8t-176 -8q-12 0 -12 38t12 38q83 0 83 75v570q0 32 -29 32h-213q-24 0 -24 -30v-572q0 -75 106 -75q12 0 12 -38t-12 -38q-66 8 -188.5 8t-188.5 -8q-12 0 -12 38t12 38q87 0 87 75v568q0 34 -24 34h-227q-25 0 -25 -30v-572q0 -75 107 -75q12 0 12 -38 t-12 -38q-66 8 -188.5 8t-188.5 -8q-12 0 -12 38zM314 881q0 -31 25 -31h225q26 0 26 82q0 144 49 258q-45 166 -157 166q-91 0 -129.5 -90t-38.5 -289v-96zM774 881q0 -31 24 -31h215q27 0 27 33v278q0 213 -134 213q-59 0 -95.5 -88.5t-36.5 -282.5v-122z" />
<glyph horiz-adv-x="0" />
<glyph horiz-adv-x="0" />
<glyph unicode="&#xd;" horiz-adv-x="545" />
<glyph unicode=" "  horiz-adv-x="447" />
<glyph unicode="&#x09;" horiz-adv-x="447" />
<glyph unicode="&#xa0;" horiz-adv-x="447" />
<glyph unicode="!" horiz-adv-x="416" d="M83 123.5q0 61.5 33 108.5t94 47t92.5 -48t31.5 -115q0 -63 -35.5 -102t-89 -39t-90 43.5t-36.5 105zM103 1247q0 71 33.5 111.5t74.5 40.5q54 0 82 -35t28 -84q0 -118 -55 -594q-11 -90 -17 -246q-1 -20 -41 -20t-41 20q-1 102 -32.5 438.5t-31.5 368.5z" />
<glyph unicode="&#x22;" horiz-adv-x="605" d="M67 1372q0 109 106 109q105 0 105 -107q0 -17 -31 -223q-26 -173 -26 -207q0 -15 -48 -15t-48 15q0 61 -42 309q-16 92 -16 119zM330 1372q0 109 106 109q105 0 105 -107q0 -17 -31 -223q-26 -173 -26 -207q0 -15 -48 -15t-48 15q0 61 -42 309q-16 92 -16 119z" />
<glyph unicode="#" horiz-adv-x="812" d="M20 381v133h183l61 289h-156v131h184l67 315h108l-67 -315h144l67 315h108l-67 -315h142v-131h-170l-62 -289h144v-133h-172l-79 -371h-108l79 371h-144l-79 -371h-108l80 371h-155zM311 514h144l61 289h-144z" />
<glyph unicode="$" horiz-adv-x="824" d="M78 995q0 105 71 209.5t201 124.5v137q0 16 50 15.5t50 -15.5v-137q75 -5 114.5 -17t51 -12t23.5 3q37 -131 36 -271q1 -13 -33 -19t-37 9q-19 110 -65.5 159t-89.5 60v-444q199 -76 249 -178t50 -211q0 -191 -83.5 -302t-215.5 -122v-134q0 -17 -50 -15t-50 15v136 q-120 20 -224 90q-42 148 -42 282q0 10 1 17q1 25 37 26t37 -20q7 -108 63 -187t128 -106v492q-143 65 -207.5 154t-64.5 261zM238 1045q0 -150 112 -205v405q-112 -50 -112 -200zM450 74q140 42 140 227q0 159 -140 231v-458z" />
<glyph unicode="%" horiz-adv-x="1457" d="M78 973q0 151 59 270q77 156 217 156q141 0 220 -155q59 -119 59 -271q0 -162 -63 -280q-76 -146 -216 -146q-128 0 -210 146q-66 118 -66 280zM244 975q0 -340 110 -340q113 0 113 340q0 336 -113 336q-110 0 -110 -336zM367 -20l698 1447q5 12 49 -17q38 -27 32 -40 l-700 -1452q-7 -13 -50 20q-35 29 -29 42zM886 405q0 151 59 270q77 156 217 156q143 0 220 -155q59 -119 59 -271q0 -162 -63 -280q-76 -146 -216 -146q-128 0 -210 146q-66 118 -66 280zM1052 407q0 -340 110 -340q113 0 113 340q0 336 -113 336q-110 0 -110 -336z" />
<glyph unicode="&#x26;" horiz-adv-x="1362" d="M31 373q0 242 276 420q-130 118 -130 270q0 135 83 223q82 86 186 86q133 0 212 -122q38 -60 38 -154q0 -140 -143 -247q157 -139 288 -371q133 238 133 282q0 59 -99 59q-13 0 -13 50t13 50q67 -7 217 -7q151 0 194 7q12 0 12 -50t-12 -50q-112 0 -170 -59 q-47 -56 -98 -154q-60 -115 -128 -224q133 -247 278 -247q105 0 158 66q4 4 8 4q8 0 20 -13q13 -16 13 -28q0 -6 -3 -11q-77 -126 -209 -167q-48 -15 -97 -15q-162 0 -292 227q-180 -226 -369 -227q-197 0 -293 152q-73 115 -73 250zM206 414q0 -137 70 -229q72 -95 188 -95 q123 0 258 189q-156 296 -344 457q-172 -127 -172 -322zM346 1110q0 -101 131 -203q64 78 64 195q0 172 -101 172q-94 0 -94 -164z" />
<glyph unicode="'" horiz-adv-x="336" d="M64 1372q0 109 106 109q105 0 105 -107q0 -17 -31 -223q-26 -173 -26 -207q0 -15 -48 -15t-48 15q0 61 -42 309q-16 92 -16 119z" />
<glyph unicode="(" horiz-adv-x="540" d="M98 588q0 259 113 553q75 198 223 364q21 25 51 25q37 0 37 -47q0 -25 -20 -55l-4 -5q-228 -286 -228 -835q0 -559 228 -838q21 -26 21 -59q0 -45 -34 -45q-27 0 -51 24q-96 112 -144 186q-192 298 -192 732z" />
<glyph unicode=")" horiz-adv-x="540" d="M22 -313q0 31 20 57q139 175 196 480q32 172 32 364q0 370 -113 640q-50 117 -115 197q-19 26 -19 60q0 45 33 45q30 0 50 -25q93 -108 138 -176q198 -302 198 -741q0 -255 -112 -553q-75 -197 -224 -365q-20 -24 -50 -24q-34 0 -34 41z" />
<glyph unicode="*" horiz-adv-x="663" d="M53 874l188 138l-188 135l44 96l188 -135v272h89v-272l188 135l44 -96l-188 -135l188 -138l-44 -96l-188 137v-274h-89v274l-188 -137z" />
<glyph unicode="+" horiz-adv-x="851" d="M98 362v148h257v326h145v-326h255v-148h-255v-362h-145v362h-257z" />
<glyph unicode="," horiz-adv-x="416" d="M74 132q0 60 38 98t92 38t106 -61.5t52 -157.5q0 -133 -75 -249t-171 -173q-18 -11 -28.5 9t-0.5 34q110 162 110 266q0 21 -26.5 32t-61.5 57.5t-35 106.5z" />
<glyph unicode="-" horiz-adv-x="661" d="M85 544.5q0 65.5 15 65.5h458q16 0 16 -65.5t-17 -65.5h-457q-15 0 -15 65.5z" />
<glyph unicode="." horiz-adv-x="416" d="M83 125q0 63 33.5 108.5t94 45.5t92 -49.5t31.5 -120.5q0 -56 -36 -95.5t-88 -39t-89.5 44t-37.5 106.5z" />
<glyph unicode="/" horiz-adv-x="572" d="M-12 33q0 3 1 6l488 1440q2 7 15 7q34 0 72 -27q21 -15 23 -28l-1 -8l-489 -1441q-3 -9 -17 -9q-32 0 -70 29q-22 17 -22 31z" />
<glyph unicode="0" d="M26 668q0 231 62 404q93 261 295 261q211 0 301 -284q55 -175 55 -406q0 -203 -56 -373q-93 -286 -301 -286q-216 0 -304 291q-52 168 -52 393zM225 680q0 -258 23 -383q41 -221 132 -221q158 0 158 495v62q0 274 -32 436q-32 174 -121 174q-127 0 -154 -354 q-6 -88 -6 -209z" />
<glyph unicode="1" d="M139 1103q-9 32 7 38q105 55 278 213q22 20 38 20q35 0 35 -53q-6 -71 -6 -160v-878q0 -127 28 -171q29 -44 102 -44q12 0 12 -38t-12 -38q-64 8 -226 8q-164 0 -228 -8q-12 0 -12 38t12 38q87 0 116 50q27 45 27 163v806q0 65 -17 57q-84 -35 -129 -63q-16 -10 -25 22z " />
<glyph unicode="2" d="M-2 39q0 21 16 41q128 160 252 370q204 347 204 529q-4 205 -137 205q-119 0 -194 -164q-9 -22 -38 1q-22 17 -14 34q65 158 168 231q67 47 142 47q131 0 209 -110q69 -96 69 -234q0 -191 -220 -499q-47 -66 -232 -297h237q92 0 126 18q40 22 63 80q9 21 42 4 q31 -15 27 -29l-79 -235q-13 -39 -64 -39q-108 8 -197 8h-64q-128 0 -273 -8q-43 0 -43 47z" />
<glyph unicode="3" d="M47 143q0 97 98 97q36 0 73 -55l41 -60q37 -47 80 -47q81 0 123 133q28 87 28 190q0 133 -65 210q-52 63 -131 63q-48 0 -86 -17q-22 0 -22 56q0 51 17 51q123 0 193 84q54 65 54 160q0 100 -44 156q-31 40 -76 40q-73 0 -135 -83q-24 -33 -45 -72q-11 -21 -39 7 q-21 20 -13 38q76 141 146 193q62 46 139 46q107 0 179 -94q68 -87 68 -207q0 -171 -137 -272q192 -71 192 -334q0 -174 -99 -301q-116 -148 -289 -148q-115 0 -187 49q-63 43 -63 117z" />
<glyph unicode="4" d="M-6 429q0 49 42 122l231 383q151 249 191 329l75 150q12 17 35 17q68 0 68 -53q0 -9 -3 -17l-494 -815q-7 -12 -7 -22q0 -19 15 -19h286v428q0 22 89 22q92 0 92 -22v-428h99q12 0 12 -66q0 -67 -12 -67h-99v-215q0 -88 82 -88q12 0 12 -38t-12 -38q-64 8 -166 8 q-144 0 -211 -8q-12 0 -12 38t12 38q114 0 114 88v215h-369q-70 0 -70 58z" />
<glyph unicode="5" d="M44 129q0 53 28 79q25 23 63 23q50 0 85 -53q59 -86 114 -86q85 -2 144 108q48 91 49 197q0 153 -84 237q-67 68 -168 68q-52 0 -109 -20q-13 -5 -22 -5q-29 0 -26 34q35 278 77 551q8 55 55 55h402q5 0 5 -20q0 -19 -4 -55q-14 -112 -29 -112h-332q-28 0 -30 -14 q-18 -93 -25 -191q-1 -16 12 -13q33 6 57 6q186 0 287 -126q87 -109 87 -288q0 -194 -94 -337q-120 -183 -319 -183q-117 0 -179 51q-44 36 -44 94z" />
<glyph unicode="6" d="M50 475q0 255 143 502q164 282 417 408q2 1 4 1q11 0 20 -26q5 -17 5 -26q0 -10 -5 -13q-192 -132 -297 -387q-50 -120 -73 -248q47 75 125 102q25 9 50 9q130 0 212 -131q70 -111 70 -260q0 -165 -87 -284q-100 -138 -256 -138q-180 0 -268 187q-60 129 -60 304z M241 473q0 -385 157 -385q85 0 124 113q24 65 24 147q0 101 -48 198t-123 97q-73 0 -128 -78q-6 -40 -6 -92z" />
<glyph unicode="7" d="M56 1018l41 242q6 39 14 48q9 9 30 9h545q45 0 45 -33q0 -9 -4 -21l-402 -1263q-7 -22 -74 -22q-70 0 -108 25q-4 4 -4 17l439 1121h-237q-92 0 -139 -28q-51 -32 -74 -101q-5 -17 -34 -17q-42 0 -38 23z" />
<glyph unicode="8" d="M54 334q0 179 204 327q-175 133 -175 328q0 145 88 247q84 97 211 97q145 0 227 -98q68 -83 68 -217q0 -180 -169 -302q203 -151 203 -368q0 -158 -97 -261q-98 -103 -232 -103q-137 0 -229 91q-99 97 -99 259zM236 1053q0 -136 184 -272q86 62 86 198q0 140 -54 209 q-36 45 -90 45q-71 0 -106 -79q-20 -45 -20 -101zM238 352q0 -117 49 -198q47 -78 119 -78q73 0 110 89q22 52 22 116q0 165 -196 315q-104 -75 -104 -244z" />
<glyph unicode="9" d="M44 893q0 189 88 309q96 131 254 131q166 0 256 -166q72 -135 72 -313q0 -306 -188 -571q-142 -199 -354 -324q-15 -8 -30 32q-10 25 -10 38q0 10 6 14q161 113 244 258q68 119 118 326q-38 -48 -104 -77q-35 -15 -63 -15q-133 0 -210 110q-79 114 -79 248zM228 958 q0 -104 43 -191q47 -93 114 -93q81 0 128 59q9 46 9 119q0 375 -160 375q-85 0 -119 -133q-15 -62 -15 -136z" />
<glyph unicode=":" horiz-adv-x="474" d="M149 115q0 59 31.5 103t88.5 44t87 -45.5t30 -103.5q0 -66 -34 -103t-84 -37t-84.5 41.5t-34.5 100.5zM149 705q0 59 31.5 103t88.5 44t87.5 -45.5t30.5 -103.5q0 -66 -34 -103t-84 -37t-85 41.5t-35 100.5z" />
<glyph unicode=";" horiz-adv-x="474" d="M125 708.5q0 62.5 33 105t88 42.5t86.5 -44.5t31.5 -105.5t-34 -102t-83.5 -41t-85.5 41.5t-36 104zM133 132q0 60 38.5 98t92.5 38t106 -61.5t52 -157.5q0 -137 -76 -251.5t-171 -170.5q-18 -11 -28.5 9t-0.5 34q110 162 110 266q0 21 -26.5 32t-61.5 57.5t-35 106.5z " />
<glyph unicode="&#x3c;" horiz-adv-x="819" d="M62 356v129l696 381v-184l-483 -260l483 -260v-185z" />
<glyph unicode="=" horiz-adv-x="799" d="M54 268v142h664v-142h-664zM54 575v142h664v-142h-664z" />
<glyph unicode="&#x3e;" horiz-adv-x="819" d="M61 -23v185l483 260l-483 260v184l696 -381v-129z" />
<glyph unicode="?" horiz-adv-x="600" d="M139 1259q0 44 29 73.5t68 29.5q75 0 145 -60.5t122 -159t52 -206.5q0 -178 -81 -229l-133 -82q-58 -36 -58 -58q-1 -53 14 -127q-3 -25 -43 -25q-13 0 -16 7q-64 148 -64 228q0 36 11 69t31.5 54t50.5 40l83 53q100 64 100 113q0 58 -34 98t-130 50l-63 6 q-25 2 -54.5 35.5t-29.5 90.5zM142 123.5q0 61.5 33 108.5t94 47t93 -48t32 -115q0 -63 -36 -102t-89.5 -39t-90 43.5t-36.5 105z" />
<glyph unicode="@" horiz-adv-x="1277" d="M58 602q0 297 151 508q196 274 512 274q224 0 363 -156q137 -153 137 -380q0 -174 -92 -309q-127 -187 -349 -187q-82 0 -104 37q-11 19 -11 47q0 27 15 82l-8 6q-121 -166 -200 -166q-90 0 -90 136q0 116 63 258q69 155 164 223q55 39 110 39q50 0 74 -31l17 51 q10 32 59 15q39 -14 33 -39l-112 -478q-8 -31 -8 -61q0 -41 19 -41q129 0 218 108q99 122 99 302q0 186 -104 313q-119 145 -308 145q-201 0 -340 -173q-163 -204 -163 -521q0 -181 77 -322q124 -227 395 -227q127 0 259 72q15 7 24 -18q10 -23 -3 -33q-141 -109 -329 -109 q-192 0 -341 115q-227 174 -227 520zM503 518q0 -69 24 -69q43 0 133 131q50 71 79 192l35 148q-17 47 -68 47q-64 0 -127 -145q-76 -172 -76 -304z" />
<glyph unicode="A" horiz-adv-x="1120" d="M-33 39.5q0 46.5 11 46.5q122 0 162 131l296 968q10 30 10 38t-11.5 22t-11.5 23q0 15 26.5 26t83 53t71.5 42q26 0 35 -47.5t43 -164.5l275 -975q33 -116 161 -116q12 0 12 -46.5t-12 -46.5q-92 7 -212 7t-220 -7q-12 0 -12 46.5t12 46.5q77 0 77 65q0 21 -8 51l-80 297 q-5 22 -27 24h-298q-17 0 -26 -29l-87 -293q-7 -24 -7 -42q0 -73 117 -73q11 0 11 -46.5t-11 -46.5q-66 7 -186 7t-183 -7q-11 0 -11 46.5zM364 618q0 -11 16 -11h234q23 0 23 22q0 6 -3 15l-115 424q-4 16 -12 16q-9 0 -13 -16l-128 -434q-2 -9 -2 -16z" />
<glyph unicode="B" horiz-adv-x="1040" d="M41 1311.5q0 46.5 11 46.5q114 -6 191 -6t148.5 3t119.5 3q174 0 265 -92.5t91 -248.5q0 -87 -41.5 -157.5t-101.5 -107.5q-16 -11 -16 -18t17 -16q93 -38 155.5 -134.5t62.5 -213.5q0 -151 -90.5 -264t-337.5 -113q-36 0 -103 3.5t-123 3.5t-229 -7q-12 0 -12 46.5 t12 46.5q66 0 98 36.5t32 79.5v954q0 109 -138 109q-11 0 -11 46.5zM385 250q0 -175 120 -175q222 10 222 295q0 139 -74 220.5t-248 83.5q-20 0 -20 -34v-390zM385 797q0 -20 14.5 -24t42.5 -4q115 0 172.5 67.5t57.5 177.5q0 130 -69 198t-204 68q-14 0 -14 -18v-465z" />
<glyph unicode="C" horiz-adv-x="1079" d="M44 647q0 315 163.5 526.5t428.5 211.5q104 0 270 -43q45 -11 86 -13q27 -90 32 -326q0 -18 -37 -21t-38 13q-8 110 -52.5 177t-112 96t-153.5 29q-165 0 -267 -168t-102 -424q0 -297 112.5 -467.5t253.5 -170.5h2q272 0 350 277q6 18 42 8q35 -10 34 -30q0 -45 -34 -154 q-30 -96 -48 -132q-38 -7 -71 -19q-122 -44 -286 -44q-234 0 -403.5 189.5t-169.5 484.5z" />
<glyph unicode="D" horiz-adv-x="1253" d="M41 1311.5q0 46.5 11 46.5q114 -6 191 -6t175 3t156 3q265 0 440.5 -169t175.5 -463q0 -338 -159.5 -535.5t-417.5 -197.5q-51 0 -167 3.5t-198 3.5t-188 -7q-12 0 -12 46.5t12 46.5q130 0 130 116v954q0 109 -138 109q-11 0 -11 46.5zM385 273q0 -150 69 -186 q32 -16 104 -16q175 0 294.5 170t119.5 475q0 214 -122 389t-341 175h-63q-61 0 -61 -79v-928z" />
<glyph unicode="E" horiz-adv-x="1000" d="M41 1311.5q0 46.5 11 46.5q114 -6 239 -6t297 3t270 3q45 0 45 -51v-306q0 -17 -40.5 -17t-40.5 17q0 130 -79 205q-49 47 -100 49l-237 10q-21 1 -21 -40v-509q0 -29 23 -29h108q98 0 98 91v99q0 14 42 14t42 -14q-5 -67 -5 -231t5 -227q0 -15 -42 -15t-42 15v86 q0 89 -98 89h-108q-23 0 -23 -31v-341q0 -77 60 -116q31 -20 65 -20l178 5q126 2 164 137q14 50 14 116q0 17 41 17t41 -17v-287q0 -64 -94 -64q-149 0 -287.5 3.5t-268.5 3.5t-238 -7q-12 0 -12 46.5t12 46.5q130 0 130 116v954q0 109 -138 109q-11 0 -11 46.5z" />
<glyph unicode="F" horiz-adv-x="952" d="M41 1311.5q0 46.5 11 46.5q114 -6 230 -6t294 3t279 3q48 0 48 -51v-306q0 -17 -40.5 -17t-40.5 17q0 112 -57 181t-122 73q-172 10 -237 10q-21 0 -21 -40v-470q0 -30 23 -30h108q74 0 74 90v138q0 14 42 14t42 -14q-6 -67 -6 -275.5t6 -278.5q0 -13 -42 -13t-42 13v144 q0 89 -74 89h-108q-23 0 -23 -30v-400q0 -116 122 -116q11 0 11 -46.5t-11 -46.5q-75 7 -219 7t-228 -7q-12 0 -12 46.5t12 46.5q130 0 130 116v954q0 109 -138 109q-11 0 -11 46.5z" />
<glyph unicode="G" horiz-adv-x="1154" d="M44 647q0 266 122 463q169 275 470 275q105 0 254 -38q56 -18 102 -18q22 -59 30 -275l2 -51q0 -18 -34 -22q-39 -2 -41 14q-15 209 -169 275q-63 27 -149 27q-165 0 -267 -168t-102 -424q0 -324 137 -503q103 -135 229 -135q89 0 154 26q49 24 49 66v242q0 77 -91 77 h-63q-11 0 -11 45q0 46 11 46q48 -6 253 -6q135 0 183 6q10 0 10 -45q0 -46 -10 -46q-87 0 -87 -77v-241q0 -45 34 -45q12 0 12 -39q0 -41 -12 -41q-40 0 -157 -24q-181 -38 -286 -38h-8q-206 0 -363 153q-202 198 -202 521z" />
<glyph unicode="H" horiz-adv-x="1348" d="M48 39q0 47 12 47q130 0 130 116v952q0 116 -129 116q-11 0 -11 46q0 47 11 47q38 -5 223 -5q193 0 231 5q11 0 11 -46q0 -47 -11 -47q-130 0 -130 -116v-372q0 -35 28 -35h510q27 0 27 35v372q0 116 -128 116q-12 0 -12 46q0 47 12 47q36 -5 224 -5q192 0 230 5 q12 0 12 -46q0 -47 -12 -47q-130 0 -130 -116v-952q0 -116 127 -116q11 0 11 -46q0 -47 -11 -47q-101 7 -224 7q-122 0 -228 -7q-12 0 -12 46q0 47 12 47q129 0 129 116v417q0 34 -27 34h-510q-28 0 -28 -34v-417q0 -116 127 -116q11 0 11 -46q0 -47 -11 -47q-106 7 -223 7 q-128 0 -229 -7q-12 0 -12 46z" />
<glyph unicode="I" horiz-adv-x="587" d="M48 39q0 47 12 47q130 0 130 116v952q0 116 -129 116q-11 0 -11 46q0 47 11 47q38 -5 223 -5q193 0 231 5q11 0 11 -46q0 -47 -11 -47q-130 0 -130 -116v-952q0 -116 127 -116q11 0 11 -46q0 -47 -11 -47q-106 7 -223 7q-128 0 -229 -7q-12 0 -12 46z" />
<glyph unicode="J" horiz-adv-x="574" d="M-106 -277q0 71 52 103q27 17 61 17q59 0 103 -58q20 -27 30 -62q26 24 45 82q21 88 21 448v901q0 116 -137 116q-11 0 -11 46q0 47 11 47q38 -5 237 -5q195 0 233 5q11 0 11 -46q0 -47 -11 -47q-137 0 -137 -116v-525q0 -107 -8 -434q-1 -227 -59 -346 q-71 -148 -172 -220q-69 -48 -137 -48q-40 0 -81 33q-51 41 -51 109z" />
<glyph unicode="K" horiz-adv-x="1105" d="M41 1316q0 47 11 47q38 -5 223 -5q200 0 239 5q11 0 11 -46q0 -47 -11 -47q-129 0 -129 -116v-357q0 -27 13 -27q22 0 60 55l222 331q42 63 42 89q-7 24 -48 25q-11 0 -11 46q0 47 11 47q40 -5 157 -5q121 0 159 5q12 0 12 -46q0 -47 -12 -47q-70 0 -105 -20t-66 -65 l-269 -392q-13 -19 -13 -35q0 -17 12 -34l366 -533q63 -91 143 -102q18 -3 48 -3q12 0 12 -46q0 -47 -12 -47q-106 7 -244 7q-107 0 -219 -7q-11 0 -11 46q0 47 11 47q67 0 68 39q0 26 -33 77l-207 323q-50 72 -69 72q-17 0 -17 -28v-367q0 -116 124 -116q11 0 11 -46 q0 -47 -11 -47q-107 7 -220 7q-128 0 -229 -7q-12 0 -12 46q0 47 12 47q130 0 130 116v952q0 116 -138 116q-11 0 -11 46z" />
<glyph unicode="L" horiz-adv-x="1087" d="M41 1316q0 47 11 47q38 -5 230 -5q188 0 227 5q11 0 11 -46q0 -47 -11 -47q-124 0 -124 -116v-904q0 -110 53 -153q28 -19 60 -19l266 13q60 3 114 82q65 105 65 219q0 18 38 18q43 0 43 -18v-335q0 -42 -12 -52q-7 -12 -82 -12l-579 7h-67q-58 0 -224 -7q-12 0 -12 46 q0 47 12 47q130 0 130 126v942q0 116 -138 116q-11 0 -11 46z" />
<glyph unicode="M" horiz-adv-x="1452" d="M21 39q0 47 11 47q118 0 122 124l49 906v45q0 109 -139 109q-10 0 -10 46q0 47 10 47q66 -5 139 -5h78q53 0 93 -88l352 -913q8 -21 19 -21q12 0 22 23l375 917q33 82 88 82h43q83 0 131 5q12 0 12 -46q0 -47 -12 -47q-84 0 -109 -47q-17 -38 -17 -92v-6l8 -917 q2 -122 130 -122q12 0 12 -46q0 -47 -12 -47q-101 7 -224 7q-104 0 -215 -7q-12 0 -12 46q0 47 12 47q122 0 122 122l-4 669q0 21 -5 21q-8 0 -14 -18l-361 -876q-9 -23 -24 -23q-17 0 -25 23l-367 964q-8 21 -13 21t-8 -26l-40 -757v-31q0 -89 136 -89q12 0 12 -46 q0 -47 -12 -47q-106 7 -183 7q-109 0 -159 -7q-11 -2 -11 46z" />
<glyph unicode="N" horiz-adv-x="1185" d="M30 1316q0 47 11 47q40 -5 141 -5q68 0 79 -2q47 -9 80 -57l569 -867q8 -14 19 -14q19 0 19 31v703q0 118 -122 118q-12 0 -12 46q0 47 12 47q81 -5 158 -5q80 0 154 5q12 0 12 -46q0 -47 -12 -47q-108 0 -108 -118v-1076q0 -97 -24 -97q-21 0 -60 57l-657 978 q-11 16 -16 16q-11 0 -11 -22v-806q0 -116 121 -116q12 0 12 -46q0 -48 -12 -47q-73 7 -160 7q-81 0 -171 -7q-11 -2 -11 46q0 47 11 47q127 0 127 116v954q0 114 -138 114q-11 0 -11 46z" />
<glyph unicode="O" horiz-adv-x="1219" d="M44 667q0 251 141 474q156 244 411 244q197 0 341 -155q207 -224 207 -567q0 -220 -116 -417q-162 -273 -435 -273q-180 0 -324 124q-225 194 -225 570zM262 724q0 -304 123 -495q103 -162 219 -162q212 0 286 279q36 130 36 303q0 255 -100 438q-113 210 -234 210h-2 q-121 0 -212 -130q-116 -166 -116 -443z" />
<glyph unicode="P" horiz-adv-x="971" d="M42 1311q0 47 12 47q114 -6 230 -6l243 6q175 0 291 -100q125 -110 125 -290q0 -191 -137 -291q-111 -81 -284 -81q-72 0 -109 4q-28 2 -28 -31v-367q0 -116 134 -116q12 0 12 -46q0 -47 -12 -47q-101 7 -230 7q-119 0 -225 -7q-10 0 -10 46q0 47 10 47q126 0 126 116 v954q0 109 -136 109q-12 0 -12 46zM385 716q0 -31 25 -36q28 -4 64 -4q199 0 249 172q16 53 16 120q0 120 -65 206q-80 104 -224 104q-52 0 -61 -14q-3 -6 -4 -15v-533z" />
<glyph unicode="Q" horiz-adv-x="1191" d="M44 661q0 263 142 478q164 246 410 246q208 0 341 -155q207 -239 207 -571q0 -216 -118 -422q-56 -99 -152 -178q-19 -15 -19 -26q0 -12 19 -29q206 -170 432 -252q1 0 25 -9q17 -6 17 -35q0 -10 -2 -23q-11 -44 -29 -44h-4q-322 76 -791 300l-123 59q-25 12 -124 86 q-105 81 -168 236q-63 154 -63 339zM262 716q0 -308 124 -496q100 -155 219 -155q202 0 280 265q41 138 41 312q0 252 -96 445q-104 210 -238 210q-158 0 -250 -193q-80 -162 -80 -388z" />
<glyph unicode="R" horiz-adv-x="1136" d="M41 1311q0 47 11 47q114 -6 232 -6l238 6h5q270 0 385 -175q58 -90 58 -215q0 -251 -226 -336q-14 -4 -14 -19q0 -10 9 -28q105 -224 260 -423q76 -101 144 -116q21 -5 21 -29q0 -38 -19 -38l-73 -3q-124 1 -190 55q-114 88 -211 260l-104 187q-50 75 -63 88 q-19 21 -50 21h-54q-15 0 -15 -19v-366q0 -116 124 -116q11 0 11 -46q0 -47 -11 -47q-107 7 -220 7q-121 0 -229 -7q-12 0 -12 46q0 47 12 47q130 0 130 116v954q0 109 -138 109q-11 0 -11 46zM385 713q0 -33 20 -39q37 -9 69 -9q211 0 272 167q21 60 21 136q0 136 -94 229 q-86 81 -223 81q-49 0 -57 -9q-8 -8 -8 -33v-523z" />
<glyph unicode="S" horiz-adv-x="861" d="M83 1033q0 142 103 258q84 94 234 94q96 0 170 -21q45 -12 50 -12l29 2h1q29 -118 39 -271q1 -26 -35 -33q-37 -6 -41 12q-24 117 -78.5 178t-149.5 61q-76 0 -123 -84q-32 -56 -32 -142q0 -181 197 -241q337 -102 337 -431q0 -181 -87 -300q-95 -130 -254 -130 q-115 0 -197 36l-115 62q-42 160 -42 313q0 24 37 26q38 3 40 -18q8 -116 72 -207q84 -118 219 -118q57 0 103 57q57 70 57 184q0 206 -216 275q-318 101 -318 450z" />
<glyph unicode="T" horiz-adv-x="1040" d="M28 1008v299q0 34 11 41q19 10 79 10q150 -6 396.5 -6t415.5 6q68 0 77 -16q7 -11 7 -35v-299q0 -16 -41 -16t-41 16q0 129 -62.5 193t-122.5 64h-102q-27 0 -27 -29v-1034q0 -116 137 -116q11 0 11 -46.5t-11 -46.5q-68 7 -234 7t-242 -7q-11 0 -11 46.5t11 46.5 q144 0 144 116v1034q0 29 -21 29h-115q-69 0 -123.5 -72.5t-54.5 -184.5q0 -16 -40.5 -16t-40.5 16z" />
<glyph unicode="U" horiz-adv-x="1209" d="M42 1316q0 47 12 47q117 -5 224 -5q117 0 236 5q11 0 11 -46q0 -47 -11 -47q-140 0 -140 -116v-468l9 -281q3 -124 44 -203q72 -135 221 -135q138 0 222 106q72 93 72 323v658q0 116 -126 116q-11 0 -11 46q0 47 11 47q110 -5 183 -5q74 0 182 5q12 0 12 -46 q0 -47 -12 -47q-123 0 -123 -116v-274q0 -276 -10 -416q-14 -245 -123 -373q-101 -118 -307 -118q-124 0 -214 42q-126 61 -175 185q-42 107 -50 345v609q0 116 -125 116q-12 0 -12 46z" />
<glyph unicode="V" horiz-adv-x="1086" d="M13 1316q0 47 12 47q36 -5 185 -5q166 0 204 5q11 0 11 -46q0 -47 -11 -47q-99 0 -99 -64q0 -22 9 -52l226 -775q7 -20 20 -20t20 23l236 764q8 30 8 53q-4 71 -79 71q-12 0 -12 46q0 47 12 47q39 -5 165 -5q133 0 171 5q11 0 11 -46q0 -47 -11 -47q-118 0 -146 -85 l-387 -1178q-16 -45 -40 -45q-28 0 -41 45l-339 1147q-32 116 -113 116q-12 0 -12 46z" />
<glyph unicode="W" horiz-adv-x="1609" d="M-6 1316q0 47 11 47q38 -5 173 -5q148 0 187 5q12 0 12 -46q0 -47 -12 -47q-55 0 -56 -45q3 -40 15 -71l281 -780q6 -17 17 -17q10 0 16 17l97 266q5 15 5 22q0 9 -5 24l-188 522q-22 62 -65 62q-12 0 -12 46q0 47 12 47q38 -5 166 -5q125 0 163 5q11 0 11 -46 q0 -47 -11 -47q-56 0 -56 -41q0 -32 16 -75l60 -163q7 -18 15 -18q10 0 19 24l55 149q21 56 21 85q0 39 -43 39q-11 0 -11 46q0 47 11 47q40 -5 141 -5q108 0 147 5q12 0 12 -46q0 -47 -12 -47q-116 0 -147 -85l-126 -347q-9 -24 -9 -40q0 -12 4 -23l145 -399q6 -18 18 -18 q10 0 15 16l282 772q17 46 17 75q-1 49 -52 49q-12 0 -12 46q0 47 12 47q36 -5 149 -5t152 5q11 0 11 -46q0 -47 -11 -47q-116 0 -147 -85l-429 -1178q-19 -45 -40 -45t-46 63l-164 456q-6 18 -12 18t-14 -20l-172 -472q-17 -45 -40 -45t-46 63l-405 1129q-41 116 -114 116 q-11 0 -11 46z" />
<glyph unicode="X" horiz-adv-x="1105" d="M-37 39q0 47 11 47q120 0 177 86l292 459q11 16 11 33q0 14 -11 31l-285 499q-43 76 -141 76q-11 0 -11 46q0 47 11 47q37 -5 233 -5q193 0 232 5q11 0 11 -46q0 -47 -11 -47q-100 0 -100 -55q0 -23 22 -61l158 -275q8 -14 16 -14q9 0 18 14l173 267q27 42 27 71 q0 53 -66 53q-11 0 -11 46q0 47 11 47q38 -5 178 -5q138 0 177 5q12 0 12 -46q0 -47 -12 -47q-94 0 -168 -85q-27 -30 -67 -93l-202 -310q-14 -21 -14 -37q0 -14 9 -32l279 -511q64 -116 173 -116q12 0 12 -46q0 -47 -12 -47q-63 7 -219 7q-140 0 -216 -7q-11 0 -11 46 q0 47 11 47q86 0 86 47q0 29 -28 75l-194 319q-9 15 -18 15q-12 0 -20 -15l-137 -227q-53 -88 -55 -144q-1 -70 80 -70q12 0 12 -46q0 -47 -12 -47q-62 7 -184 7q-183 0 -216 -7q-11 0 -11 46z" />
<glyph unicode="Y" horiz-adv-x="1060" d="M-22 1316q0 47 12 47q37 -5 208 -5q173 0 213 5q11 0 11 -46q0 -47 -11 -47q-88 0 -88 -53q0 -31 16 -63l203 -405q9 -17 16 -17q8 0 18 19l214 395q19 34 19 60q0 64 -84 64q-12 0 -12 46q0 47 12 47q36 -5 177 -5q148 0 186 5q11 0 11 -46q0 -47 -11 -47 q-86 0 -143 -68l-27 -35l-269 -481q-31 -56 -36 -78q-7 -28 -7 -109v-297q0 -116 119 -116q10 0 10 -46q0 -47 -10 -47q-52 7 -213 7q-160 0 -218 -7q-12 0 -12 46q0 47 12 47q117 0 117 116v292q0 68 -8 94q-6 22 -44 96l-238 470q-42 82 -81 104q-22 12 -50 12 q-12 0 -12 46z" />
<glyph unicode="Z" horiz-adv-x="1053" d="M61 49q0 26 13 48l697 1139q8 13 8 21q0 17 -32 17h-410q-35 0 -57 -27q-31 -31 -78 -172q-24 -75 -26 -101q-1 -11 -21 -12q-13 0 -25 5q-20 8 -20 21q24 235 24 332q0 48 33 48q3 0 48 -9q39 -7 49 -7h406l305 6h3q49 0 49 -32q0 -24 -20 -58l-666 -1144q-6 -10 -6 -17 q0 -21 27 -21q328 0 474 13q42 4 110 150q32 69 41 106q2 7 15 7q28 0 44 -17q5 -5 5 -12l-35 -314q0 -48 -13 -48h-4q-20 0 -59 8q-105 21 -465 21h-358q-56 0 -56 49z" />
<glyph unicode="[" horiz-adv-x="638" d="M236 -332v1843q0 19 16 19h351q16 0 16 -48t-16 -48h-181q-16 0 -16 -23v-1640q0 -29 12 -29h185q16 0 16 -48t-16 -48h-349q-18 0 -18 22z" />
<glyph unicode="\" horiz-adv-x="572" d="M-11 1425q-10 28 45 57q24 12 43 12t23 -13l485 -1450q8 -24 -54 -50q-21 -9 -37 -9t-19 10z" />
<glyph unicode="]" horiz-adv-x="638" d="M22 -306q0 48 16 48h185q11 0 11 25v1644q0 23 -15 23h-181q-16 0 -16 48t16 48h348q17 0 17 -19v-1843q0 -22 -18 -22h-347q-16 0 -16 48z" />
<glyph unicode="^" horiz-adv-x="876" d="M39 535l338 837h123l335 -837h-175l-221 577l-223 -577h-177z" />
<glyph unicode="_" horiz-adv-x="819" d="M0 -145h819v-121h-819v121z" />
<glyph unicode="`" horiz-adv-x="455" d="M147 1334q0 32 47 63q33 23 59 23q19 0 22 -14l94 -292q6 -22 6 -40q0 -54 -33 -54q-28 0 -56 49l-135 249q-4 8 -4 16z" />
<glyph unicode="a" horiz-adv-x="688" d="M34 586q0 67 45 144q25 44 52 65q96 75 211 75q91 0 156 -56q52 -44 54 -107v-508q0 -114 54 -114h3q23 0 54 36q7 8 23 -9q8 -10 8 -18q0 -3 -1 -6q-47 -113 -152 -113q-74 0 -130 82q-11 19 -17 19q-10 0 -22 -17q-66 -82 -159 -82q-100 0 -142 85q-21 43 -21 100 q0 121 170 231l121 72q28 20 28 47v190q0 72 -84 72q-63 0 -93 -51q-7 -14 -8 -75q0 -35 -4 -52q-20 -88 -74 -88q-72 0 -72 78zM234 205q0 -117 58 -117q77 0 77 105v182q0 23 -11 23q-6 0 -11 -3q-113 -71 -113 -190z" />
<glyph unicode="b" horiz-adv-x="840" d="M15 1322q0 38 13 38q40 0 149 66q54 33 70 51q11 10 23 10q21 0 24 -25l-8 -176v-446q0 -28 13 -28q7 0 15 7q59 51 135 51q141 0 236 -119q100 -125 100 -311q0 -207 -91 -336q-88 -127 -264 -127q-47 0 -104 30q-45 24 -84 24q-13 0 -44 -34l-15 -15q-3 -3 -10 -3 q-25 0 -59 33q-16 15 -16 23q5 30 5 244v882q0 125 -75 125q-13 0 -13 36zM286 297q0 -116 59 -186q45 -54 107 -54q130 0 130 371q0 158 -54 255q-47 87 -126 87q-57 0 -91 -43q-25 -31 -25 -80v-350z" />
<glyph unicode="c" horiz-adv-x="704" d="M53 387q0 170 85 307q108 176 280 176q108 0 178 -45q31 -20 43 -45q5 -16 5 -40q0 -52 -25 -85q-28 -35 -52 -35q-29 0 -45 29l-31 66q-31 59 -89 59q-65 0 -113 -93q-53 -102 -53 -245q0 -133 70 -227q64 -84 144 -84q88 0 150 55q14 12 37 -30q13 -26 13 -40 q0 -10 -6 -14l-66 -53q-92 -66 -212 -66q-112 0 -201 99q-112 123 -112 311z" />
<glyph unicode="d" horiz-adv-x="828" d="M42 418q0 177 98 302q118 150 314 150q39 0 64 -4q21 -3 21 23v272q0 125 -73 125q-13 0 -13 36q0 38 13 38q40 0 148 67q52 32 68 50q10 10 21 10q24 0 24 -33q-5 -70 -5 -168v-1030q0 -90 8 -117q12 -40 43 -40q10 0 26 5q13 4 22 -31q2 -15 2 -24q0 -15 -5 -18 q-24 -12 -125 -35q-82 -26 -105 -31h-10q-8 0 -8 45v29q0 22 -8 22q-10 0 -23 -14q-75 -70 -156 -70q-195 0 -284 174q-57 111 -57 267zM246 444q0 -193 63 -302q47 -81 115 -81q69 0 104 52q11 17 11 28v553q0 44 -3 52q-4 10 -14 18q-37 29 -89 29q-107 0 -157 -144 q-30 -88 -30 -205z" />
<glyph unicode="e" horiz-adv-x="700" d="M54 436q0 165 86 291q98 143 229 143q142 0 226 -119q52 -89 52 -139q0 -75 -72 -75h-308q-29 0 -29 -27q0 -237 89 -334q50 -53 122 -53q65 0 133 55q16 11 39 -26q21 -35 12 -46q-39 -49 -107 -88q-71 -41 -162 -41q-108 0 -194 109q-116 144 -116 350zM247 653 q0 -26 30 -26h162q30 0 30 24q0 67 -44 112q-27 28 -55 28q-51 0 -90 -43q-33 -40 -33 -95z" />
<glyph unicode="f" horiz-adv-x="466" d="M32 30q0 38 12 38q87 0 87 68v573q0 36 -29 36h-44q-13 0 -13 36q0 38 13 38q40 0 60 42q13 29 13 71q0 146 55 279q26 65 61 110q127 166 292 166q99 0 148 -59q31 -36 31 -85q0 -55 -43 -96q-25 -24 -48 -24q-81 0 -117 89q-24 58 -63 62q-46 0 -77 -53 q-56 -96 -56 -273v-161q0 -37 30 -37h131q12 0 12 -52q0 -53 -12 -53h-131q-30 0 -30 -36v-573q0 -68 107 -68q13 0 13 -37q0 -39 -13 -39q-64 8 -191 8q-119 0 -186 -8q-12 0 -12 38z" />
<glyph unicode="g" horiz-adv-x="758" d="M16 -319q0 81 82 166q28 28 64 51q12 7 12 14q0 5 -13 12q-107 56 -107 174q0 75 116 138q13 7 13 13q0 5 -14 17q-123 97 -123 262q0 141 87 240q89 102 221 102q88 0 177 -43q52 -28 73 -30h154q13 0 13 -55q0 -60 -13 -60h-73q-25 0 -25 -29v-78q0 -169 -95 -270 q-83 -88 -221 -88q-40 0 -85 7q-9 1 -18 -7q-30 -30 -30 -57q0 -32 32 -52q27 -16 70 -16h203q103 0 154 -21q115 -47 115 -212q0 -162 -118 -280q-138 -138 -337 -138q-240 0 -298 148q-16 41 -16 92zM206 -248q0 -75 48 -130q55 -62 149 -62q201 0 239 140q7 27 7 58 q0 131 -189 131h-170q-16 0 -32 -14q-51 -46 -52 -123zM231 549q0 -121 47 -196q37 -58 91 -58q71 0 95 119q10 48 10 108q0 177 -57 242q-25 29 -60 29q-58 0 -95 -86q-31 -70 -31 -158z" />
<glyph unicode="h" horiz-adv-x="874" d="M29 30q0 37 12 38q90 0 90 69v1024q0 125 -73 125q-13 0 -13 36q0 38 13 38q40 0 148 67q52 32 68 50q10 10 23 10q21 0 22 -27q-1 -85 -5 -174v-465q0 -23 9 -23q7 0 18 11q65 61 169 61q144 0 216 -136q44 -84 44 -177v-414q6 -75 93 -75q13 0 13 -37q0 -39 -13 -39 q-64 8 -177 8q-119 0 -183 -8q-13 0 -13 37q0 39 13 39q83 0 83 64v423q0 75 -36 139q-39 68 -98 68q-72 0 -114 -63q-24 -35 -24 -72v-484q0 -75 83 -75q12 0 12 -38t-12 -38q-67 8 -167 8q-122 0 -189 -8q-12 0 -12 38z" />
<glyph unicode="i" horiz-adv-x="419" d="M35 30q0 38 12 38q84 0 84 75v414q0 125 -73 125q-13 0 -13 36q0 38 13 38q40 0 149 68q51 31 67 48q10 11 24 11q23 0 21 -27q-5 -88 -5 -174v-539q0 -75 83 -75q12 0 12 -38q0 -37 -12 -38q-67 8 -167 8q-116 0 -183 -8q-12 0 -12 38zM90 1185q0 70 46 111q30 28 69 28 q62 0 94 -58q22 -39 22 -81q0 -70 -47 -111q-31 -26 -69 -26q-60 0 -94 58q-21 35 -21 79z" />
<glyph unicode="j" horiz-adv-x="399" d="M-154 -426q0 57 40 87q21 15 47 15q38 0 64 -52q35 -73 64 -73q37 1 45 91q4 43 4 129v786q0 125 -74 125q-12 0 -12 37t12 37q41 0 151 68q51 31 67 48q11 11 23 11q22 0 23 -27q-6 -92 -6 -174v-543q0 -186 -9 -268q-19 -175 -87 -287q-60 -103 -166 -131 q-30 -8 -58 -8q-48 0 -93 43q-35 35 -35 86zM66 1187q0 68 45 110q31 29 71 29q58 0 93 -57q23 -38 23 -82q0 -71 -47 -112q-31 -27 -69 -27q-60 0 -94 56q-22 37 -22 83z" />
<glyph unicode="k" horiz-adv-x="858" d="M27 30q0 38 12 38q92 0 92 71v1022q-7 118 -73 125q-13 0 -13 36q0 38 13 38q40 0 148 67q52 32 68 50q10 10 23 10q21 0 22 -27q-5 -87 -5 -173v-759q0 -36 17 -36q35 0 64 38l123 170q25 36 25 54q0 30 -66 30q-13 0 -13 35q0 37 13 37q48 -6 173 -6q112 0 163 6 q12 0 12 -36t-12 -36q-84 0 -146 -71l-167 -189q-9 -10 -9 -19q0 -14 9 -26l263 -358q38 -53 100 -53q13 0 13 -37q0 -39 -13 -39q-64 8 -183 8q-120 0 -187 -8q-12 0 -12 38t12 38q59 0 60 29q0 16 -22 48l-156 224q-20 30 -47 30q-14 0 -14 -34v-222q0 -75 88 -75 q12 0 12 -38t-12 -38q-68 8 -172 8q-124 0 -191 -8q-12 0 -12 38z" />
<glyph unicode="l" horiz-adv-x="419" d="M35 30q0 38 12 38q84 0 84 67v1026q0 125 -73 125q-13 0 -13 36q0 38 13 38q40 0 148 67q52 32 68 50q10 10 21 10q24 0 24 -33q-5 -75 -5 -168v-1143q0 -75 83 -75q12 0 12 -38t-12 -38q-67 8 -167 8q-116 0 -183 -8q-12 0 -12 38z" />
<glyph unicode="m" horiz-adv-x="1304" d="M29 30q0 38 12 38q90 0 90 69v414q0 131 -73 131q-13 0 -13 36q0 38 13 38q40 0 149 68q51 31 67 48q10 11 23 11q22 0 22 -24l-5 -71q0 -19 8 -19q7 0 14 9q65 92 175 92q113 0 172 -127q7 -16 14 -16q8 0 21 18q63 84 148 113q36 12 68 12q102 0 164 -69 q87 -96 87 -248v-413q0 -72 85 -72q12 0 12 -38t-12 -38q-64 8 -177 8q-108 0 -172 -8q-13 0 -13 38t13 38q80 0 80 67v475q0 152 -121 152q-55 0 -95 -62q-36 -56 -36 -131v-429q0 -72 83 -72q13 0 13 -38t-13 -38q-64 8 -175 8q-105 0 -172 -8q-12 0 -12 38t12 38 q81 0 81 64v433q0 134 -36 175q-21 22 -78 22q-42 0 -78 -32q-60 -58 -60 -126v-471q0 -65 80 -65q12 0 12 -38t-12 -38q-68 8 -176 8q-110 0 -177 -8q-12 0 -12 38z" />
<glyph unicode="n" horiz-adv-x="869" d="M34 30q0 38 12 38q85 0 85 75v406q0 133 -73 133q-13 0 -13 36q0 38 13 38q40 0 149 68q51 31 67 48q10 11 21 11q23 0 24 -27l-5 -68q0 -19 7.5 -19t14.5 9q34 55 110 81q33 11 76 11q152 0 220 -185q28 -73 28 -220v-329q0 -68 85 -68q13 0 13 -38t-13 -38 q-85 8 -169 8t-180 -8h-1q-11 0 -11 38t12 38q81 0 81 62v407q0 149 -47 200q-23 25 -77 25q-49 0 -95 -50q-54 -58 -54 -120v-449q0 -75 80 -75q12 0 12 -38t-12 -38q-68 8 -173 8q-108 0 -175 -8q-12 0 -12 38z" />
<glyph unicode="o" horiz-adv-x="825" d="M53 424q0 170 88 296q105 150 272 150q174 0 281 -158q81 -122 81 -286q0 -209 -98 -331q-95 -118 -263 -118q-148 0 -250 122q-111 131 -111 325zM255 420q0 -185 59 -287q41 -72 99 -72q75 0 120 114q39 99 39 245q0 184 -57 292q-42 81 -101 81q-65 0 -111 -104 q-48 -109 -48 -269z" />
<glyph unicode="p" horiz-adv-x="807" d="M14 -521q0 38 12 38q83 0 84 84v948q0 133 -74 133q-12 0 -12 37t12 37q44 0 152 70q46 30 62 46q12 11 22 11q22 0 25 -21l-3 -47q-1 -24 10 -24q10 0 22 18q23 33 68 52q24 9 54 9q120 0 193 -66q125 -114 125 -329q0 -349 -160 -452q-71 -46 -184 -46q-73 0 -103 19 q-6 4 -11 4q-14 0 -14 -27v-370q0 -86 112 -86q12 0 12 -38t-12 -38q-67 8 -201 8q-115 0 -179 -8q-12 0 -12 38zM294 178q5 -118 141 -119q71 0 115 140q30 92 30 202q0 226 -67 318q-42 51 -98 51q-68 0 -112 -84q-9 -18 -9 -70v-438z" />
<glyph unicode="q" horiz-adv-x="784" d="M53 481q0 172 92 284q86 105 229 105q122 0 195 -52q5 -4 11 -7l87 53q8 5 15 5q20 0 38 -33q19 -34 6 -48q-12 -14 -12 -172v-1015q0 -84 99 -84q13 0 13 -38t-13 -38q-64 8 -188 8q-125 0 -192 -8q-12 0 -12 38t12 38q98 0 98 86v391q-49 -17 -120 -17q-358 0 -358 504 zM239 420q0 -154 41 -260q38 -101 110 -101q96 0 127 58q14 26 14 63v463q0 23 -6 35q-54 92 -119 92q-167 0 -167 -350z" />
<glyph unicode="r" horiz-adv-x="604" d="M35 30q0 38 12 38q84 0 84 75v406q0 133 -73 133q-13 0 -13 36q0 38 13 38q40 0 152 70q48 30 64 46q10 11 23 11q19 0 22 -20l-5 -75q0 -23 10.5 -23t29.5 26q54 79 134 79q56 0 92 -44q25 -31 25 -74q0 -59 -34 -95q-21 -24 -49 -24q-40 0 -81 51q-19 23 -39 23 q-34 0 -62 -58q-26 -55 -26 -127v-379q0 -75 83 -75q12 0 12 -38t-12 -38q-67 8 -167 8q-116 0 -183 -8q-12 0 -12 38z" />
<glyph unicode="s" horiz-adv-x="599" d="M50 612q0 114 80 189q75 69 180 69q98 0 173 -36q31 -105 31 -191q0 -19 -24 -19q-25 0 -28 11q-14 51 -64 113q-32 40 -100 40q-48 0 -79 -50q-18 -31 -17 -64q0 -100 134 -142q128 -40 179 -117q40 -61 40 -157q0 -133 -89 -214q-72 -67 -183 -67h-6q-117 0 -192 60 q-23 67 -23 221q0 19 28 19q30 0 33 -17q3 -54 54 -127q52 -76 126 -76q39 0 72 42q27 34 27 75q0 120 -138 166q-142 47 -190 150q-24 52 -24 122z" />
<glyph unicode="t" horiz-adv-x="536" d="M42 781q0 38 12 38q49 0 107 59q55 57 73 126q2 6 11 6q8 0 23 -5q35 -12 40 -30v-94q0 -31 25 -31h172q12 0 12 -52q0 -53 -12 -53h-172q-25 0 -25 -31v-415q0 -121 27 -159q22 -31 70 -31q41 0 101 47q9 8 31 -24q14 -22 14 -34q0 -5 -2 -8q-87 -113 -219 -113 q-176 2 -202 183q-5 33 -5 73v481q0 31 -25 31h-44q-12 0 -12 36z" />
<glyph unicode="u" horiz-adv-x="822" d="M22 794.5q0 36.5 12 36.5q90 0 180 18q24 5 40 5q36 0 36 -44q-5 -98 -5 -161v-342q0 -123 40 -182q22 -33 78 -33q51 0 106 55q43 44 43 93v415q0 103 -67 103q-13 0 -13 36.5t13 36.5q89 0 183 19q20 4 31 4q43 0 43 -36q-7 -95 -7 -156v-406q0 -90 8 -117 q11 -40 43 -40q10 0 26 5q13 4 22 -32q2 -13 2 -22q0 -16 -6 -19q-6 -2 -84 -21l-40 -10q-45 -12 -92 -31q-10 -4 -19 -4q-12 0 -12 45v47q0 23 -9.5 23t-21.5 -14q-74 -89 -197 -89q-101 0 -136 35q-117 118 -117 297v346q0 103 -68 103q-12 0 -12 36.5z" />
<glyph unicode="v" horiz-adv-x="740" d="M-2 820q0 36 12 36q50 -6 154 -6q125 0 175 6q12 0 12 -36t-12 -36q-56 0 -56 -45q0 -19 2 -26l117 -457q3 -14 10 -14q6 0 10 14l125 451q4 13 4 24q0 53 -73 53q-12 0 -12 36t12 36q48 -6 144 -6q75 0 125 6q12 0 12 -36t-12 -36q-79 0 -100 -71l-206 -674 q-21 -62 -63 -62q-41 0 -59 52l-229 684q-24 71 -80 71q-12 0 -12 36z" />
<glyph unicode="w" horiz-adv-x="1166" d="M-2 820q0 36 12 36q50 -6 154 -6q125 0 175 6q12 0 12 -36t-12 -36q-56 0 -56 -45q0 -19 5 -39l114 -444q4 -14 9 -14q7 0 11 14l99 358q3 13 3 23t-3 22l-18 54q-24 71 -70 71q-13 0 -13 36t13 36q48 -6 144 -6q127 0 175 6q13 0 13 -36t-13 -36q-55 0 -56 -46 q0 -14 6 -38l112 -444q4 -14 10 -14q7 0 11 14l125 451q4 13 4 24q0 53 -73 53q-12 0 -12 36t12 36q51 -6 144 -6q77 0 125 6q12 0 12 -36t-12 -36q-79 0 -100 -71l-206 -674q-19 -62 -61 -62q-43 0 -61 52l-142 426q-4 13 -10.5 13t-10.5 -13l-128 -416q-19 -62 -63 -62 q-39 0 -59 52l-229 684q-24 71 -80 71q-12 0 -12 36z" />
<glyph unicode="x" horiz-adv-x="760" d="M-24 30q0 38 13 38q80 0 124 67l164 250q9 12 9 27q0 11 -6 22l-177 281q-43 69 -90 69q-12 0 -12 36t12 36q50 -6 170 -6q123 0 171 6q12 0 12 -36t-12 -36q-49 0 -49 -28q0 -18 20 -54l60 -106q5 -11 14 -11q8 0 15 11l58 90q26 42 26 65q0 33 -57 33q-13 0 -13 36 t13 36q48 -6 133 -6q84 0 134 6q12 0 12 -36t-12 -36q-50 0 -96 -65l-145 -217q-8 -12 -8 -24q0 -10 8 -23l182 -301q51 -86 108 -86q13 0 13 -38t-13 -38q-64 8 -175 8q-120 0 -184 -8q-12 0 -12 38t12 38q66 0 66 24q0 11 -25 55l-84 152q-5 8 -13 8t-14 -10l-89 -133 q-37 -56 -37 -73q0 -24 47 -23q13 0 13 -38t-13 -38q-64 8 -131 8q-65 0 -129 -8q-13 0 -13 38z" />
<glyph unicode="y" horiz-adv-x="707" d="M-43 820q0 36 12 36q50 -6 162 -6q119 0 169 6q12 0 12 -36t-12 -36q-64 0 -64 -47q0 -15 6 -37l122 -424q6 -20 14 -20q10 0 17 23l132 421q4 13 4 23q0 61 -97 61q-12 0 -12 36t12 36q48 -6 156 -6q91 0 139 6q13 0 13 -36t-13 -36q-74 0 -100 -59l-359 -1124 q-32 -106 -102 -141q-26 -13 -55 -13q-50 0 -81 43q-21 30 -21 68q0 61 47 91q24 15 53 15q83 0 97 39l62 182q6 18 6 35t-6 35l-216 758q-20 71 -85 71q-12 0 -12 36z" />
<glyph unicode="z" horiz-adv-x="616" d="M20 569q23 252 24 256q6 43 25 45q126 -20 169 -20h278q37 0 37 -33q0 -18 -7 -32l-287 -666q-3 -7 -3 -15q0 -24 22 -24h88q105 0 180 205q4 11 21 11q7 0 21 -4q25 -9 25 -28l-19 -188q-3 -34 -3 -60q0 -41 -31 -41q-9 0 -76 15q-42 10 -74 10h-355q-33 0 -33 37 q0 13 8 31l284 659q8 17 8 27q0 20 -24 20h-88q-51 0 -100 -128l-36 -103q-4 -9 -15 -9q-15 0 -29 12q-10 9 -10 23z" />
<glyph unicode="{" horiz-adv-x="627" d="M65 616q0 31 12 31q93 0 115 78q8 29 8 72v325q0 219 65 297q49 60 165 70q43 4 140 4q12 0 12 -38t-10 -38q-106 0 -148 -37q-55 -48 -55 -196v-234q0 -144 -14 -201q-20 -84 -88 -133q73 -56 91 -153q11 -56 11 -158v-266q0 -163 33 -221q36 -61 168 -61q14 0 14 -38 t-12 -38q-141 0 -191 10q-111 24 -152 124q-29 72 -29 191v424q0 115 -61 144q-25 12 -62 12q-12 0 -12 30z" />
<glyph unicode="|" horiz-adv-x="428" d="M158 -334v1768h155v-1768h-155z" />
<glyph unicode="}" horiz-adv-x="627" d="M51 -281q0 38 13 38q109 0 148 35q54 50 54 247v266q0 147 26 213q23 59 77 98q-73 53 -91 149q-11 54 -11 185v234q0 152 -60 200q-41 33 -143 33q-13 0 -13 38t13 38q155 0 214 -17q92 -26 125 -116q31 -88 31 -238v-325q0 -112 62 -139q25 -11 61 -11q13 0 13 -30 q0 -31 -12 -31q-90 0 -112 -75q-10 -32 -10 -81v-424q0 -203 -96 -279q-58 -46 -276 -46q-13 0 -13 38z" />
<glyph unicode="~" horiz-adv-x="594" d="M2 411q1 3 3 5l50 72q67 85 153 85q42 0 118 -45q69 -41 98 -44q5 -1 9 -1q37 0 76 42q28 30 35 36l9 2q18 -2 32 -24l5 -12l-1 -8l-1 -1l-62 -87q-67 -85 -141 -85q-42 0 -116 44q-71 42 -103 47q-8 1 -16 1q-36 0 -89 -56l-13 -14l-1 -1q-3 -4 -9 -4l-11 3 q-18 11 -24 33z" />
<glyph unicode="&#xa1;" horiz-adv-x="416" d="M95 726q0 62 35.5 101t89 39t90 -43t36.5 -105t-33 -109t-94 -47t-92.5 48.5t-31.5 115.5zM108 -438q0 118 56 594q10 90 16 246q1 20 41 20t41 -20q2 -102 33 -439t31 -369q0 -70 -33.5 -111t-74.5 -41q-53 0 -81.5 35.5t-28.5 84.5z" />
<glyph unicode="&#xa2;" horiz-adv-x="704" d="M53 633q0 172 83 309q98 160 247 176l28 193q1 7 16 7q20 0 47 -9q26 -10 26 -19l-25 -174q115 -10 164 -86q5 -17 5 -40q0 -55 -25 -85q-28 -35 -45 -35q-34 0 -52 29q-4 8 -30 67q-8 18 -32 38l-88 -625q38 -21 62 -21q103 0 166 64q17 13 37 -28q21 -45 7 -56l-66 -53 q-92 -66 -212 -66h-17l-27 -190q0 -8 -17 -8q-11 0 -28 3q-43 8 -42 21l27 199q-104 49 -162 171q-47 99 -47 218zM236 682q0 -120 58 -215l76 551q-61 -25 -100 -130q-34 -91 -34 -206z" />
<glyph unicode="&#xa3;" horiz-adv-x="1010" d="M54 113q0 74 56 117q45 36 115 36q69 -4 165 -45q11 53 12 125q0 128 -48 295h-192q-12 0 -12 48q0 50 12 50h163q-40 122 -40 254q0 159 98 268q96 109 241 109q52 0 138 -34q124 -48 124 -107q0 -86 -13 -188q-9 -66 -38 -66q-35 0 -58 115q-11 48 -11 49 q-37 159 -150 159q-161 0 -161 -219q0 -88 67 -340h232q12 0 12 -48q0 -50 -12 -50h-215q11 -75 11 -152q0 -162 -59 -307q94 -41 192 -41q92 0 175 70q51 43 63 43q30 0 30 -30q0 -14 -7 -36q-43 -135 -134 -194q-54 -35 -117 -35q-108 0 -252 129q-94 -129 -227 -129 q-93 0 -137 73q-23 37 -23 81zM128 115q0 -45 38 -68q20 -12 48 -12q97 0 152 110q-72 50 -140 50q-65 0 -90 -47q-8 -16 -8 -33z" />
<glyph unicode="&#xa4;" horiz-adv-x="819" d="M64 668q0 145 70 260l-64 80v7q3 21 35 57q20 21 29 22q2 0 4 -2l64 -80q94 90 208 90q115 0 209 -88l63 78l5 1q17 -4 46 -44l13 -24l4 -14l-1 -3l-63 -78q71 -118 71 -262q0 -145 -71 -262l63 -78l1 -7q-4 -22 -36 -57l-19 -18l-10 -4q-2 0 -3 2l-63 78 q-94 -89 -208 -89q-116 0 -209 91l-64 -80l-6 -2q-17 4 -46 45q-16 24 -17 36q0 3 1 5l64 80q-70 114 -70 260zM161 668q0 -129 73 -221q72 -91 176 -91t177 92q73 91 73 220q0 130 -74 221q-72 90 -176 90t-177 -92l-23 -32q-49 -83 -49 -187z" />
<glyph unicode="&#xa5;" horiz-adv-x="1136" d="M-24 1411l2 32q4 19 11 19q48 -6 224 -6q177 0 228 6q12 0 12 -50l-3 -33q-4 -17 -9 -17q-90 0 -95 -58l2 -22l9 -29q3 -8 7 -16l218 -434q8 -17 17 -17t19 19l229 424q20 37 20 65q0 12 -3 23q-16 45 -87 45q-12 0 -13 49l2 32q4 19 11 19q48 -6 189 -6q152 0 200 6 q12 0 13 -49l-2 -32l-5 -15q-2 -4 -6 -4q-92 0 -152 -71q-31 -37 -92 -149l-16 -28l-84 -151h146q12 0 13 -70l-3 -46l-5 -21q-2 -5 -5 -5h-224l-48 -86q-30 -54 -38 -80h310q12 0 13 -68l-3 -47l-5 -21q-2 -5 -5 -5h-318v-297q0 -86 48 -110q28 -15 79 -15q12 0 12 -50 t-12 -50q-67 8 -228 8q-167 0 -235 -8q-12 0 -12 50t12 50q83 0 107 33q20 27 20 92v297h-300q-12 0 -12 70q0 49 7 66q2 5 5 5h281q-13 33 -37 78l-44 88h-200q-12 0 -12 71t12 71h128l-139 274q-44 87 -86 111q-25 14 -55 14q-12 0 -13 49z" />
<glyph unicode="&#xa6;" horiz-adv-x="428" d="M158 109v579h155v-579h-155zM158 795v577h155v-577h-155z" />
<glyph unicode="&#xa7;" d="M46 528q0 123 78 221q30 36 66 62q-84 107 -84 227q0 147 91 246q89 96 211 96q67 0 138 -37q108 -59 114 -131q0 -45 -37 -83q-26 -27 -54 -27q-23 0 -47 50l-34 71q-35 73 -100 73q-61 0 -101 -65q-29 -49 -29 -109q0 -88 94 -170q24 -20 133 -96q125 -87 179 -161 q68 -95 68 -214q0 -172 -142 -270q101 -123 101 -248q0 -150 -93 -255q-98 -111 -234 -111q-66 0 -158 42q-140 64 -140 158q0 42 44 83q32 28 56 28t56 -59l45 -84q46 -84 110 -84q73 0 117 77q33 57 33 131q0 91 -97 178q-41 34 -151 112q-127 91 -178 168q-55 83 -55 181 zM194 598q0 -80 128 -176q108 -76 209 -160q51 58 51 164q0 96 -172 211q-75 51 -158 121q-58 -67 -58 -160z" />
<glyph unicode="&#xa8;" horiz-adv-x="622" d="M38 1169q0 74 45 111q26 20 58 20q54 0 83 -54q17 -32 17 -67q0 -79 -48 -114q-23 -17 -52 -17q-67 0 -93 63q-10 25 -10 58zM382 1169q0 74 45 111q26 20 58 20q53 0 83 -54q17 -31 17 -67q0 -79 -48 -114q-23 -17 -52 -17q-67 0 -93 63q-10 25 -10 58z" />
<glyph unicode="&#xa9;" horiz-adv-x="1288" d="M72 748q0 243 118 437q110 178 280 248q87 35 179 35q194 0 349 -148q144 -137 200 -349q28 -108 28 -223q0 -244 -119 -438q-47 -76 -107 -134q-155 -149 -351 -149q-195 0 -350 148q-143 137 -199 350q-28 108 -28 223zM154 748q0 -218 109 -388q103 -159 259 -211 q62 -20 127 -20q174 0 310 137q127 128 169 324q16 77 16 158q0 218 -110 388q-102 158 -259 210q-61 20 -126 20q-175 0 -311 -137q-41 -41 -74 -93q-110 -169 -110 -388zM344 724v13q0 170 87 282q89 114 229 114q53 0 154 -26l4 -1q8 -2 34 -2q14 -37 18 -162v-14 q0 -11 -23 -12l-14 3q-3 2 -4 5q-12 154 -158 161h-13q-100 0 -156 -113q-42 -86 -42 -204q0 -195 91 -290q51 -52 106 -52q149 0 189 149q1 6 10 6q18 0 28 -13l2 -7q-2 -37 -27 -109l-14 -38l-3 -4q-25 -7 -37 -11q-72 -24 -153 -24q-130 0 -219 104q-85 100 -89 245z" />
<glyph unicode="&#xaa;" horiz-adv-x="425" d="M22 1182q0 50 34 101q12 19 26 30q59 45 131 45q64 0 105 -43q24 -26 24 -58v-315q0 -54 23 -67l12 -3q15 1 34 23l5 1q9 -3 14 -15v-7q-33 -69 -94 -69q-49 0 -81 49q-8 12 -11 13l-7 -4q-3 -3 -6 -7q-44 -51 -98 -51q-72 0 -95 66q-7 22 -7 49q0 75 111 146l69 42 q17 10 17 29v118q-5 40 -51 43q-41 0 -57 -30q-6 -9 -6 -54q-1 -17 -3 -26q-11 -53 -45 -53q-42 5 -44 47zM146 946q0 -72 34 -72t45 39q3 12 3 25v113q0 14 -6 16l-8 -2q-68 -46 -68 -119z" />
<glyph unicode="&#xab;" horiz-adv-x="693" d="M60 436.5q0 18.5 14 37.5l253 359q10 14 26 -3t11 -28l-133 -334q-7 -18 -7 -29.5t4 -23.5l136 -348q6 -15 -11 -29.5t-26 -1.5l-253 363q-14 19 -14 37.5zM344 436.5q0 18.5 14 37.5l253 359q10 14 26 -3t11 -28l-133 -334q-7 -18 -7 -29.5t4 -23.5l136 -348 q6 -15 -11 -29.5t-26 -1.5l-253 363q-14 19 -14 37.5z" />
<glyph unicode="&#xac;" horiz-adv-x="1092" d="M0 483v174h1093v-657h-149v483h-944z" />
<glyph unicode="&#xad;" horiz-adv-x="661" d="M85 544.5q0 65.5 15 65.5h458q16 0 16 -65.5t-17 -65.5h-457q-15 0 -15 65.5z" />
<glyph unicode="&#xae;" horiz-adv-x="1288" d="M72 748q0 243 118 437q110 178 280 248q87 35 179 35q194 0 349 -148q144 -137 200 -349q28 -108 28 -223q0 -244 -119 -438q-47 -76 -107 -134q-155 -149 -351 -149q-195 0 -350 148q-143 137 -199 350q-28 108 -28 223zM154 748q0 -218 109 -388q103 -159 259 -211 q62 -20 127 -20q174 0 310 137q127 128 169 324q16 77 16 158q0 218 -110 388q-102 158 -259 210q-61 20 -126 20q-175 0 -311 -137q-41 -41 -74 -93q-110 -169 -110 -388zM374 1103q0 25 6 25q104 -4 125 -4q17 0 66 3q45 3 63 3q144 0 204 -86q36 -51 36 -122 q0 -120 -122 -181q-9 -5 -8 -11l2 -11q15 -67 142 -230q44 -57 77 -63q12 -2 12 -18q0 -18 -12 -18h-51q-47 0 -88 28q-60 42 -123 157q-13 25 -46 82q-34 58 -55 58h-6q-2 0 -26 2q-12 1 -12 -12v-195q0 -50 34 -58q13 -3 32 -3q8 0 8 -27q0 -25 -6 -25q-26 4 -118 4 t-123 -4q-7 0 -7 25q0 24 5 24q71 0 71 64v510q0 53 -52 58q-10 1 -22 1q-6 0 -6 24zM558 784q0 -19 11 -20q19 -6 37 -6q137 0 155 127q2 17 2 37q0 73 -49 121q-45 44 -120 44q-29 0 -33 -7q-3 -8 -3 -12v-284z" />
<glyph unicode="&#xaf;" horiz-adv-x="486" d="M44 1186q0 54 18 54h360q22 0 22 -52q0 -60 -25 -60h-357q-18 0 -18 58z" />
<glyph unicode="&#xb0;" horiz-adv-x="569" d="M66 1047q0 126 75 202q61 62 144 62q97 0 161 -81q59 -74 59 -183q0 -137 -82 -212q-58 -53 -138 -53q-102 0 -164 82q-55 72 -55 183zM182 1047q0 -97 50 -140q24 -20 53 -20q55 0 84 62q19 41 19 98q0 97 -50 139q-24 20 -53 20q-54 0 -83 -61q-20 -41 -20 -98z" />
<glyph unicode="&#xb1;" horiz-adv-x="851" d="M114 -6v147h625v-147h-625zM114 629v147h241v305h145v-305h239v-147h-239v-342h-145v342h-241z" />
<glyph unicode="&#xb2;" horiz-adv-x="500" d="M21 544q0 13 10 26q79 99 156 229q126 215 126 328q-2 127 -85 127q-74 0 -120 -102q-6 -13 -24 1q-13 11 -8 21q40 98 104 143q41 29 88 29q81 0 130 -68q42 -59 42 -145q0 -118 -136 -309q-29 -41 -144 -184h147q57 0 78 11q25 13 39 49q5 13 26 3q19 -9 17 -18 l-49 -146q-9 -24 -40 -24q-67 5 -122 5h-39q-80 0 -170 -5q-26 0 -26 29z" />
<glyph unicode="&#xb3;" d="M29 609q0 60 61 60q22 0 45 -34l26 -37q23 -30 49 -30q50 0 77 83q17 54 17 118q0 82 -41 130q-32 39 -81 39q-29 0 -53 -11q-14 0 -14 35q0 32 11 32q76 0 120 52q33 40 33 99q0 62 -27 97q-19 24 -48 24q-45 0 -83 -51q-15 -20 -28 -45q-7 -13 -24 5q-13 12 -8 23 q47 88 90 120q39 28 87 28q66 0 111 -58q42 -54 42 -128q0 -106 -85 -169q119 -44 119 -207q0 -108 -62 -186q-71 -92 -179 -92q-71 0 -116 30q-39 27 -39 73z" />
<glyph unicode="&#xb4;" horiz-adv-x="455" d="M115 1073q0 21 7 41l96 302q5 17 22 17q26 0 76 -43q30 -26 30 -47q0 -6 -2 -11l-141 -263q-25 -49 -54 -49q-34 0 -34 53z" />
<glyph unicode="&#xb5;" horiz-adv-x="858" d="M22 794l3 24q3 13 9 13q80 0 180 18q24 5 40 5q36 0 36 -44v-15q-5 -78 -5 -146v-342q0 -100 36 -163q29 -52 77 -52q77 0 130 59q38 42 38 89v415q0 81 -47 99l-20 4h-1q-12 0 -12 36l3 24q3 13 9 13q89 0 184 19q20 4 31 4q37 0 42 -36v-30q-6 -86 -6 -126v-406 q0 -90 8 -117q11 -40 42 -40q11 0 27 5l6 -1q13 -9 17 -45v-20q-2 -6 -5 -7q-13 -7 -103 -29l-22 -6q-81 -26 -105 -31h-9q-9 4 -9 45v47q0 22 -9 23l-10 -4q-5 -3 -11 -10q-67 -75 -160 -86q-20 -3 -44 -3q-44 0 -90 23q-5 -75 -5 -76l7 -285v-1q0 -59 -41 -99 q-32 -31 -72 -31q-60 0 -87 61q-12 26 -12 54q0 36 20 240q6 71 8 112q12 192 12 304v20v356q0 93 -53 102q-7 1 -15 1q-12 0 -12 36z" />
<glyph unicode="&#xb6;" horiz-adv-x="894" d="M13 964q0 180 103.5 287t253.5 107q68 0 148.5 -3t194 -3t152.5 6q13 0 13 -38t-13 -38q-95 0 -95 -74v-1063q0 -77 95 -77q13 0 13 -38t-13 -38q-64 8 -155 8h-246q-103 0 -167 -8q-13 0 -13 38t13 38q93 0 93 75v414q0 22 -20 22q-169 0 -263 109.5t-94 275.5zM522 145 q0 -77 56 -77q60 0 60 75v1065q0 74 -53 74q-63 0 -63 -74v-1063z" />
<glyph unicode="&#xb7;" horiz-adv-x="474" d="M141 522q0 56 32 100q36 50 101 50q74 0 107 -85q13 -34 13 -75q0 -78 -51 -121q-31 -26 -69 -26q-58 0 -97 45q-36 42 -36 112z" />
<glyph unicode="&#xb8;" horiz-adv-x="622" d="M161 -424q0 42 29 61q10 7 23 7q25 0 60 -39q34 -37 52 -37q42 0 42 51q0 77 -113 142q-16 9 -16 17q0 5 4 13l113 209h87l-62 -106q-7 -12 -7 -18q0 -10 22 -26q99 -66 99 -174q0 -86 -70 -142q-59 -48 -138 -48q-99 0 -120 61q-5 13 -5 29z" />
<glyph unicode="&#xb9;" horiz-adv-x="533" d="M82 1247q0 12 5 15q154 63 227 112q5 4 14 4q7 0 8 -12v-6q-2 -18 -2 -107v-555q0 -79 16 -98q14 -18 63 -18q7 0 7 -30l-2 -24q-3 -6 -5 -6q-32 4 -155 4q-126 0 -158 -4q-7 0 -7 30t7 30q58 0 74 25q16 24 16 91v510q0 28 -16 29l-16 -4q-42 -18 -60 -23l-5 2 q-11 12 -11 35z" />
<glyph unicode="&#xba;" horiz-adv-x="499" d="M33 1081q0 118 66 200q63 77 151 77q99 0 163 -89q56 -78 56 -186q0 -145 -74 -220q-56 -58 -145 -58q-95 0 -159 88q-58 80 -58 188zM146 1079q0 -117 44 -182q27 -39 60 -39q51 0 80 79q24 60 24 142q0 121 -44 190q-27 42 -60 42q-44 0 -75 -73l-14 -40 q-15 -55 -15 -119z" />
<glyph unicode="&#xbb;" horiz-adv-x="693" d="M60 67l133 334q7 18 7 29.5t-4 23.5l-136 348q-6 15 11 29.5t26 1.5l253 -363q14 -19 14 -37.5t-14 -37.5l-253 -359q-10 -14 -26 3t-11 28zM344 67l133 334q7 18 7 29.5t-4 23.5l-136 348q-6 15 11 29.5t26 1.5l253 -363q14 -19 14 -37.5t-14 -37.5l-253 -359 q-10 -14 -26 3t-11 28z" />
<glyph unicode="&#xbc;" horiz-adv-x="1207" d="M103.5 1209q-5.5 20 3.5 23q66 35 173 132q13 13 23 13q22 0 22 -33q-4 -44 -4 -99v-545q0 -78 18 -105.5t63 -27.5q7 0 7 -23.5t-7 -23.5q-40 5 -141 5t-141 -5q-7 0 -7 23.5t7 23.5q55 0 72 29.5t17 102.5v500q0 40 -11 35q-52 -21 -80 -39q-9 -6 -14.5 14zM370 0 l364 1300h101l-363 -1300h-102zM712 266q0 30 26 76l143 237q93 154 118 204l47 93q7 11 21 11q43 0 43 -33q0 -6 -2 -11l-306 -505q-5 -8 -5 -14q0 -12 9 -12h178v266q0 13 56 13t56 -13v-266h61q8 0 8 -41t-8 -41h-61v-133q0 -55 51 -55q7 0 7 -23.5t-7 -23.5 q-40 5 -116 5t-118 -5q-7 0 -7 23.5t7 23.5q71 0 71 55v133h-229q-43 0 -43 36z" />
<glyph unicode="&#xbd;" horiz-adv-x="1207" d="M103.5 1209q-5.5 20 3.5 23q66 35 173 132q13 13 23 13q22 0 22 -33q-4 -44 -4 -99v-545q0 -78 18 -105.5t63 -27.5q7 0 7 -23.5t-7 -23.5q-40 5 -141 5t-141 -5q-7 0 -7 23.5t7 23.5q55 0 72 29.5t17 102.5v500q0 40 -11 35q-52 -21 -80 -39q-9 -6 -14.5 14zM370 0 l364 1300h101l-363 -1300h-102zM717 24q0 13 10 26q79 99 156 229q126 215 126 328q-2 127 -85 127q-74 0 -120 -102q-6 -13 -24 1q-13 11 -8 21q40 98 104 143q41 29 88 29q81 0 130 -68q42 -59 42 -145q0 -118 -136 -309q-29 -41 -144 -184h147q57 0 78 11q25 13 39 49 q5 13 26 3q19 -9 17 -18l-49 -146q-9 -24 -40 -24q-67 5 -122 5h-39q-80 0 -170 -5q-26 0 -26 29z" />
<glyph unicode="&#xbe;" horiz-adv-x="1207" d="M29 614q0 60 61 60q22 0 45 -34l26 -38q23 -29 49 -29q50 0 77 83q17 54 17 118q0 82 -41 130q-32 39 -81 39q-29 0 -53 -11q-14 0 -14 35q0 32 11 32q76 0 120 52q33 40 33 99q0 62 -27 97q-19 24 -48 24q-45 0 -83 -51q-15 -20 -28 -45q-7 -13 -24 5q-13 12 -8 23 q47 88 90 120q39 28 87 28q66 0 111 -58q42 -54 42 -128q0 -106 -85 -169q119 -44 119 -207q0 -108 -62 -187q-71 -91 -179 -91q-71 0 -116 30q-39 27 -39 73zM370 0l364 1300h101l-363 -1300h-102zM712 266q0 30 26 76l143 237q93 154 118 204l47 93q7 11 21 11 q43 0 43 -33q0 -6 -2 -11l-306 -505q-5 -8 -5 -14q0 -12 9 -12h178v266q0 13 56 13t56 -13v-266h61q8 0 8 -41t-8 -41h-61v-133q0 -55 51 -55q7 0 7 -23.5t-7 -23.5q-40 5 -116 5t-118 -5q-7 0 -7 23.5t7 23.5q71 0 71 55v133h-229q-43 0 -43 36z" />
<glyph unicode="&#xbf;" horiz-adv-x="600" d="M139 -112q0 178 81 230l133 82q58 36 58 58q1 52 -14 126q3 26 43 26q13 0 16 -8q64 -148 64 -227q0 -37 -11 -70t-31.5 -54t-50.5 -39l-83 -54q-100 -64 -100 -112q0 -58 34 -98t130 -50l63 -6q25 -2 54.5 -36t29.5 -90q0 -44 -29 -74t-68 -30q-75 0 -145 61t-122 159 t-52 206zM300 709q0 62 36 101.5t89.5 39.5t90 -44t36.5 -105t-33 -108t-94 -47t-93 48t-32 115z" />
<glyph unicode="&#xc0;" horiz-adv-x="1120" d="M-33 39.5q0 46.5 11 46.5q122 0 162 131l296 968q10 30 10 38t-11.5 22t-11.5 23q0 15 26.5 26t83 53t71.5 42q26 0 35 -47.5t43 -164.5l275 -975q33 -116 161 -116q12 0 12 -46.5t-12 -46.5q-92 7 -212 7t-220 -7q-12 0 -12 46.5t12 46.5q77 0 77 65q0 21 -8 51l-80 297 q-5 22 -27 24h-298q-17 0 -26 -29l-87 -293q-7 -24 -7 -42q0 -73 117 -73q11 0 11 -46.5t-11 -46.5q-66 7 -186 7t-183 -7q-11 0 -11 46.5zM260 1758q0 13 5 33q11 44 40 81q20 25 35 25q6 0 12 -5l303 -298q15 -15 15 -31q0 -11 -6 -22q-10 -17 -25 -17q-9 0 -21 7 l-350 200q-8 9 -8 27zM364 618q0 -11 16 -11h234q23 0 23 22q0 6 -3 15l-115 424q-4 16 -12 16q-9 0 -13 -16l-128 -434q-2 -9 -2 -16z" />
<glyph unicode="&#xc1;" horiz-adv-x="1120" d="M-33 39.5q0 46.5 11 46.5q122 0 162 131l296 968q10 30 10 38t-11.5 22t-11.5 23q0 15 26.5 26t83 53t71.5 42q26 0 35 -47.5t43 -164.5l275 -975q33 -116 161 -116q12 0 12 -46.5t-12 -46.5q-92 7 -212 7t-220 -7q-12 0 -12 46.5t12 46.5q77 0 77 65q0 21 -8 51l-80 297 q-5 22 -27 24h-298q-17 0 -26 -29l-87 -293q-7 -24 -7 -42q0 -73 117 -73q11 0 11 -46.5t-11 -46.5q-66 7 -186 7t-183 -7q-11 0 -11 46.5zM364 618q0 -11 16 -11h234q23 0 23 22q0 6 -3 15l-115 424q-4 16 -12 16q-9 0 -13 -16l-128 -434q-2 -9 -2 -16zM430 1563 q0 16 15 31l303 298q6 5 13 5q14 0 34 -25q29 -37 40 -81q5 -20 5 -33q0 -18 -8 -27l-350 -200q-11 -7 -21 -7q-14 0 -24 17q-7 11 -7 22z" />
<glyph unicode="&#xc2;" horiz-adv-x="1120" d="M-33 39.5q0 46.5 11 46.5q122 0 162 131l296 968q10 30 10 38t-11.5 22t-11.5 23q0 15 26.5 26t83 53t71.5 42q26 0 35 -47.5t43 -164.5l275 -975q33 -116 161 -116q12 0 12 -46.5t-12 -46.5q-92 7 -212 7t-220 -7q-12 0 -12 46.5t12 46.5q77 0 77 65q0 21 -8 51l-80 297 q-5 22 -27 24h-298q-17 0 -26 -29l-87 -293q-7 -24 -7 -42q0 -73 117 -73q11 0 11 -46.5t-11 -46.5q-66 7 -186 7t-183 -7q-11 0 -11 46.5zM285 1566q0 5 3 8l226 251q21 23 41 23t39 -23l226 -251q3 -4 3 -10q0 -8 -6 -21q-9 -19 -16 -19q-1 0 -2 1l-214 124q-16 8 -30.5 8 t-29.5 -8l-213 -124l-2 -1q-9 4 -18 20q-7 14 -7 22zM364 618q0 -11 16 -11h234q23 0 23 22q0 6 -3 15l-115 424q-4 16 -12 16q-9 0 -13 -16l-128 -434q-2 -9 -2 -16z" />
<glyph unicode="&#xc3;" horiz-adv-x="1120" d="M-33 39.5q0 46.5 11 46.5q122 0 162 131l296 968q10 30 10 38t-11.5 22t-11.5 23q0 15 26.5 26t83 53t71.5 42q26 0 35 -47.5t43 -164.5l275 -975q33 -116 161 -116q12 0 12 -46.5t-12 -46.5q-92 7 -212 7t-220 -7q-12 0 -12 46.5t12 46.5q77 0 77 65q0 21 -8 51l-80 297 q-5 22 -27 24h-298q-17 0 -26 -29l-87 -293q-7 -24 -7 -42q0 -73 117 -73q11 0 11 -46.5t-11 -46.5q-66 7 -186 7t-183 -7q-11 0 -11 46.5zM311 1588q0 3 2 5q85 160 174 160q40 0 107 -33q60 -27 88 -27q51 0 97 62q2 3 5 3q6 0 19 -13q15 -16 15 -27q0 -3 -2 -6 q-88 -164 -175 -164q-33 0 -102 31q-75 33 -101 33q-51 0 -90 -59q-2 -3 -6 -3q-8 0 -19 14q-12 15 -12 24zM364 618q0 -11 16 -11h234q23 0 23 22q0 6 -3 15l-115 424q-4 16 -12 16q-9 0 -13 -16l-128 -434q-2 -9 -2 -16z" />
<glyph unicode="&#xc4;" horiz-adv-x="1120" d="M-33 39.5q0 46.5 11 46.5q122 0 162 131l296 968q10 30 10 38t-11.5 22t-11.5 23q0 15 26.5 26t83 53t71.5 42q26 0 35 -47.5t43 -164.5l275 -975q33 -116 161 -116q12 0 12 -46.5t-12 -46.5q-92 7 -212 7t-220 -7q-12 0 -12 46.5t12 46.5q77 0 77 65q0 21 -8 51l-80 297 q-5 22 -27 24h-298q-17 0 -26 -29l-87 -293q-7 -24 -7 -42q0 -73 117 -73q11 0 11 -46.5t-11 -46.5q-66 7 -186 7t-183 -7q-11 0 -11 46.5zM278 1672q0 74 45 110q26 20 58 20q54 0 83 -54q17 -32 17 -66q0 -80 -48 -114q-23 -18 -52 -18q-67 0 -93 64q-10 24 -10 58z M364 618q0 -11 16 -11h234q23 0 23 22q0 6 -3 15l-115 424q-4 16 -12 16q-9 0 -13 -16l-128 -434q-2 -9 -2 -16zM622 1672q0 74 45 110q26 20 58 20q53 0 83 -54q17 -30 17 -66q0 -80 -48 -114q-23 -18 -52 -18q-67 0 -93 64q-10 24 -10 58z" />
<glyph unicode="&#xc5;" horiz-adv-x="1120" d="M-33 39q0 22 3 36q4 11 8 11q122 0 162 131l340 1117q-71 31 -100 115q-13 39 -13 81q0 92 56 154q51 55 127 55q96 0 148 -84l16 -30l12 -36q8 -29 8 -59q0 -95 -59 -157q-17 -18 -37 -30l4 -14q6 -35 40 -152l275 -975q17 -63 85 -96q38 -20 76 -20q12 0 12 -46 q0 -21 -4 -35q-3 -12 -8 -12q-106 7 -212 7q-113 0 -220 -7q-12 0 -12 46q0 21 4 35q4 12 8 12q76 0 77 65q0 22 -8 51l-80 297q-7 24 -27 24h-298q-15 0 -24 -21l-2 -8l-87 -293q-7 -24 -7 -42q0 -14 3 -25q21 -47 114 -48q11 0 11 -46q0 -23 -4 -37q-3 -10 -7 -10 q-112 7 -186 7q-71 0 -183 -7q-11 0 -11 46zM363 624l3 -10q4 -7 19 -7h229q23 0 23 22q0 7 -3 15l-115 424q-4 16 -12 16t-13 -16l-127 -426q-4 -11 -4 -18zM470 1530q0 -79 38 -114q18 -16 42 -16q51 0 72 66q9 29 9 64q0 82 -41 118q-18 14 -40 16q-52 -4 -72 -71 q-8 -28 -8 -63z" />
<glyph unicode="&#xc6;" horiz-adv-x="1478" d="M-102 39q0 47 12 47q72 0 112 45q23 27 48 81l457 967q15 29 15 47q0 39 -67 39q-11 0 -11 46q0 47 11 47q114 -6 303 -6l491 6q57 1 68 -4q13 -7 13 -41v-303q0 -16 -38 -16q-42 0 -42 16q0 252 -184 257l-200 5q-24 1 -24 -44v-515q0 -29 23 -29h145q61 0 61 176 q0 14 38.5 14t38.5 -14q-6 -90 -6 -215q0 -136 6 -206q0 -13 -38.5 -13t-38.5 13q0 157 -61 161h-145q-23 0 -23 -33v-294q0 -195 104 -195l195 8q173 7 173 250q0 17 38 17q43 0 43 -17v-287q0 -27 -5 -35q-15 -22 -74 -21l-490 7h-94q-125 0 -210 -7q-11 0 -11 46 q0 47 11 47q123 0 123 109v374q0 31 -23 31h-268q-20 0 -28 -19l-165 -394q-11 -27 -11 -46q0 -55 112 -55q12 0 12 -46q0 -47 -12 -47q-92 7 -172 7q-120 0 -200 -7q-12 0 -12 46zM408 700q0 -16 14 -16h218q25 0 25 29v498q0 17 -8 17q-9 0 -17 -17l-229 -498 q-3 -7 -3 -13z" />
<glyph unicode="&#xc7;" horiz-adv-x="1079" d="M44 647q0 315 163.5 526.5t428.5 211.5q104 0 270 -43q45 -11 86 -13q27 -90 32 -326q0 -18 -37 -21t-38 13q-8 110 -52.5 177t-112 96t-153.5 29q-165 0 -267 -168t-102 -424q0 -297 112.5 -467.5t253.5 -170.5q274 -1 352 277q6 19 41.5 8.5t34.5 -31.5 q-4 -57 -33.5 -153t-48.5 -132q-38 -7 -71 -19q-122 -44 -286 -44q-234 0 -403.5 189.5t-169.5 484.5zM424 -436q0 42 29 61q10 7 23 7q25 0 60 -39q34 -37 52 -37q42 0 42 51q0 77 -113 142q-16 9 -16 17q0 5 4 13l113 209h87l-62 -106q-7 -12 -7 -18q0 -10 22 -26 q99 -66 99 -174q0 -86 -70 -142q-59 -48 -138 -48q-99 0 -120 61q-5 13 -5 29z" />
<glyph unicode="&#xc8;" horiz-adv-x="1000" d="M41 1311.5q0 46.5 11 46.5q114 -6 239 -6t297 3t270 3q45 0 45 -51v-306q0 -17 -40.5 -17t-40.5 17q0 130 -79 205q-49 47 -100 49l-237 10q-21 1 -21 -40v-509q0 -29 23 -29h108q98 0 98 91v99q0 14 42 14t42 -14q-5 -67 -5 -231t5 -227q0 -15 -42 -15t-42 15v86 q0 89 -98 89h-108q-23 0 -23 -31v-341q0 -77 60 -116q31 -20 65 -20l178 5q126 2 164 137q14 50 14 116q0 17 41 17t41 -17v-287q0 -64 -94 -64q-149 0 -287.5 3.5t-268.5 3.5t-238 -7q-12 0 -12 46.5t12 46.5q130 0 130 116v954q0 109 -138 109q-11 0 -11 46.5zM272 1758 q0 13 5 33q11 44 40 81q20 25 35 25q6 0 12 -5l303 -298q15 -15 15 -31q0 -11 -6 -22q-10 -17 -25 -17q-9 0 -21 7l-350 200q-8 9 -8 27z" />
<glyph unicode="&#xc9;" horiz-adv-x="1000" d="M41 1311.5q0 46.5 11 46.5q114 -6 239 -6t297 3t270 3q45 0 45 -51v-306q0 -17 -40.5 -17t-40.5 17q0 130 -79 205q-49 47 -100 49l-237 10q-21 1 -21 -40v-509q0 -29 23 -29h108q98 0 98 91v99q0 14 42 14t42 -14q-5 -67 -5 -231t5 -227q0 -15 -42 -15t-42 15v86 q0 89 -98 89h-108q-23 0 -23 -31v-341q0 -77 60 -116q31 -20 65 -20l178 5q126 2 164 137q14 50 14 116q0 17 41 17t41 -17v-287q0 -64 -94 -64q-149 0 -287.5 3.5t-268.5 3.5t-238 -7q-12 0 -12 46.5t12 46.5q130 0 130 116v954q0 109 -138 109q-11 0 -11 46.5zM378 1563 q0 16 15 31l303 298q6 5 13 5q14 0 34 -25q29 -37 40 -81q5 -20 5 -33q0 -18 -8 -27l-350 -200q-11 -7 -21 -7q-14 0 -24 17q-7 11 -7 22z" />
<glyph unicode="&#xca;" horiz-adv-x="1000" d="M41 1311.5q0 46.5 11 46.5q114 -6 239 -6t297 3t270 3q45 0 45 -51v-306q0 -17 -40.5 -17t-40.5 17q0 130 -79 205q-49 47 -100 49l-237 10q-21 1 -21 -40v-509q0 -29 23 -29h108q98 0 98 91v99q0 14 42 14t42 -14q-5 -67 -5 -231t5 -227q0 -15 -42 -15t-42 15v86 q0 89 -98 89h-108q-23 0 -23 -31v-341q0 -77 60 -116q31 -20 65 -20l178 5q126 2 164 137q14 50 14 116q0 17 41 17t41 -17v-287q0 -64 -94 -64q-149 0 -287.5 3.5t-268.5 3.5t-238 -7q-12 0 -12 46.5t12 46.5q130 0 130 116v954q0 109 -138 109q-11 0 -11 46.5zM241 1566 q0 5 3 8l226 251q21 23 41 23t39 -23l226 -251q3 -4 3 -10q0 -8 -6 -21q-9 -19 -16 -19q-1 0 -2 1l-214 124q-16 8 -30.5 8t-29.5 -8l-213 -124l-2 -1q-9 4 -18 20q-7 14 -7 22z" />
<glyph unicode="&#xcb;" horiz-adv-x="1000" d="M41 1311.5q0 46.5 11 46.5q114 -6 239 -6t297 3t270 3q45 0 45 -51v-306q0 -17 -40.5 -17t-40.5 17q0 130 -79 205q-49 47 -100 49l-237 10q-21 1 -21 -40v-509q0 -29 23 -29h108q98 0 98 91v99q0 14 42 14t42 -14q-5 -67 -5 -231t5 -227q0 -15 -42 -15t-42 15v86 q0 89 -98 89h-108q-23 0 -23 -31v-341q0 -77 60 -116q31 -20 65 -20l178 5q126 2 164 137q14 50 14 116q0 17 41 17t41 -17v-287q0 -64 -94 -64q-149 0 -287.5 3.5t-268.5 3.5t-238 -7q-12 0 -12 46.5t12 46.5q130 0 130 116v954q0 109 -138 109q-11 0 -11 46.5zM218 1672 q0 74 45 110q26 20 58 20q54 0 83 -54q17 -32 17 -66q0 -80 -48 -114q-23 -18 -52 -18q-67 0 -93 64q-10 24 -10 58zM562 1672q0 74 45 110q26 20 58 20q53 0 83 -54q17 -30 17 -66q0 -80 -48 -114q-23 -18 -52 -18q-67 0 -93 64q-10 24 -10 58z" />
<glyph unicode="&#xcc;" horiz-adv-x="587" d="M-16 1758q0 13 5 33q11 44 40 81q20 25 35 25q6 0 12 -5l303 -298q15 -15 15 -31q0 -11 -6 -22q-10 -17 -25 -17q-9 0 -21 7l-350 200q-8 9 -8 27zM48 39q0 47 12 47q130 0 130 116v952q0 116 -129 116q-11 0 -11 46q0 47 11 47q38 -5 223 -5q193 0 231 5q11 0 11 -46 q0 -47 -11 -47q-130 0 -130 -116v-952q0 -116 127 -116q11 0 11 -46q0 -47 -11 -47q-106 7 -223 7q-128 0 -229 -7q-12 0 -12 46z" />
<glyph unicode="&#xcd;" horiz-adv-x="587" d="M48 39q0 47 12 47q130 0 130 116v952q0 116 -129 116q-11 0 -11 46q0 47 11 47q38 -5 223 -5q193 0 231 5q11 0 11 -46q0 -47 -11 -47q-130 0 -130 -116v-952q0 -116 127 -116q11 0 11 -46q0 -47 -11 -47q-106 7 -223 7q-128 0 -229 -7q-12 0 -12 46zM170 1563 q0 16 15 31l303 298q6 5 13 5q14 0 34 -25q29 -37 40 -81q5 -20 5 -33q0 -18 -8 -27l-350 -200q-11 -7 -21 -7q-14 0 -24 17q-7 11 -7 22z" />
<glyph unicode="&#xce;" horiz-adv-x="587" d="M17 1566q0 5 3 8l226 251q21 23 41 23t39 -23l226 -251q3 -4 3 -10q0 -8 -6 -21q-9 -19 -16 -19q-1 0 -2 1l-214 124q-16 8 -30.5 8t-29.5 -8l-213 -124l-2 -1q-9 4 -18 20q-7 14 -7 22zM48 39q0 47 12 47q130 0 130 116v952q0 116 -129 116q-11 0 -11 46q0 47 11 47 q38 -5 223 -5q193 0 231 5q11 0 11 -46q0 -47 -11 -47q-130 0 -130 -116v-952q0 -116 127 -116q11 0 11 -46q0 -47 -11 -47q-106 7 -223 7q-128 0 -229 -7q-12 0 -12 46z" />
<glyph unicode="&#xcf;" horiz-adv-x="587" d="M18 1672q0 74 45 110q26 20 58 20q54 0 83 -54q17 -32 17 -66q0 -80 -48 -114q-23 -18 -52 -18q-67 0 -93 64q-10 24 -10 58zM48 39q0 47 12 47q130 0 130 116v952q0 116 -129 116q-11 0 -11 46q0 47 11 47q38 -5 223 -5q193 0 231 5q11 0 11 -46q0 -47 -11 -47 q-130 0 -130 -116v-952q0 -116 127 -116q11 0 11 -46q0 -47 -11 -47q-106 7 -223 7q-128 0 -229 -7q-12 0 -12 46zM362 1672q0 74 45 110q26 20 58 20q53 0 83 -54q17 -30 17 -66q0 -80 -48 -114q-23 -18 -52 -18q-67 0 -93 64q-10 24 -10 58z" />
<glyph unicode="&#xd0;" horiz-adv-x="1253" d="M11 671q0 47 12 47h143q24 0 24 29v409q0 109 -138 109q-11 0 -11 46q0 47 11 47q114 -6 230 -6l292 6q243 0 408 -139q208 -174 208 -493q0 -338 -160 -537q-159 -196 -417 -196l-279 7h-62q-132 0 -212 -7q-12 0 -12 46q0 47 12 47q130 0 130 116v392q0 31 -24 31h-143 q-12 0 -12 46zM385 273q0 -150 69 -186q32 -16 104 -16q171 0 283 153q131 178 131 492q0 177 -79 324q-131 240 -384 240h-63q-61 0 -61 -79v-454q0 -29 21 -29h184q11 0 11 -46q0 -47 -11 -47h-184q-21 0 -21 -31v-321z" />
<glyph unicode="&#xd1;" horiz-adv-x="1185" d="M30 1316q0 47 11 47q40 -5 141 -5q68 0 79 -2q47 -9 80 -57l569 -867q8 -14 19 -14q19 0 19 31v703q0 118 -122 118q-12 0 -12 46q0 47 12 47q81 -5 158 -5q80 0 154 5q12 0 12 -46q0 -47 -12 -47q-108 0 -108 -118v-1076q0 -97 -24 -97q-21 0 -60 57l-657 978 q-11 16 -16 16q-11 0 -11 -22v-806q0 -116 121 -116q12 0 12 -46q0 -48 -12 -47q-73 7 -160 7q-81 0 -171 -7q-11 -2 -11 46q0 47 11 47q127 0 127 116v954q0 114 -138 114q-11 0 -11 46zM337 1588q0 3 2 5q85 160 174 160q40 0 107 -33q60 -27 88 -27q51 0 97 62q2 3 5 3 q6 0 19 -13q15 -16 15 -27q0 -3 -2 -6q-88 -164 -175 -164q-33 0 -102 31q-75 33 -101 33q-51 0 -90 -59q-2 -3 -6 -3q-8 0 -19 14q-12 15 -12 24z" />
<glyph unicode="&#xd2;" horiz-adv-x="1219" d="M44 667q0 251 141 474q156 244 411 244q197 0 341 -155q207 -224 207 -567q0 -220 -116 -417q-162 -273 -435 -273q-180 0 -324 124q-225 194 -225 570zM262 724q0 -304 123 -495q103 -162 219 -162q212 0 286 279q36 130 36 303q0 255 -100 438q-113 210 -234 210 q-122 1 -214 -130q-116 -166 -116 -443zM300 1758q0 13 5 33q11 44 40 81q20 25 35 25q6 0 12 -5l303 -298q15 -15 15 -31q0 -11 -6 -22q-10 -17 -25 -17q-9 0 -21 7l-350 200q-8 9 -8 27z" />
<glyph unicode="&#xd3;" horiz-adv-x="1219" d="M44 667q0 251 141 474q156 244 411 244q197 0 341 -155q207 -224 207 -567q0 -220 -116 -417q-162 -273 -435 -273q-180 0 -324 124q-225 194 -225 570zM262 724q0 -304 123 -495q103 -162 219 -162q212 0 286 279q36 130 36 303q0 255 -100 438q-113 210 -234 210 q-122 1 -214 -130q-116 -166 -116 -443zM482 1563q0 16 15 31l303 298q6 5 13 5q14 0 34 -25q29 -37 40 -81q5 -20 5 -33q0 -18 -8 -27l-350 -200q-11 -7 -21 -7q-14 0 -24 17q-7 11 -7 22z" />
<glyph unicode="&#xd4;" horiz-adv-x="1219" d="M44 667q0 251 141 474q156 244 411 244q197 0 341 -155q207 -224 207 -567q0 -220 -116 -417q-162 -273 -435 -273q-180 0 -324 124q-225 194 -225 570zM262 724q0 -304 123 -495q103 -162 219 -162q212 0 286 279q36 130 36 303q0 255 -100 438q-113 210 -234 210 q-122 1 -214 -130q-116 -166 -116 -443zM321 1566q0 5 3 8l226 251q21 23 41 23t39 -23l226 -251q3 -4 3 -10q0 -8 -6 -21q-9 -19 -16 -19q-1 0 -2 1l-214 124q-16 8 -30.5 8t-29.5 -8l-213 -124l-2 -1q-9 4 -18 20q-7 14 -7 22z" />
<glyph unicode="&#xd5;" horiz-adv-x="1219" d="M44 667q0 251 141 474q156 244 411 244q197 0 341 -155q207 -224 207 -567q0 -220 -116 -417q-162 -273 -435 -273q-180 0 -324 124q-225 194 -225 570zM262 724q0 -304 123 -495q103 -162 219 -162q212 0 286 279q36 130 36 303q0 255 -100 438q-113 210 -234 210 q-122 1 -214 -130q-116 -166 -116 -443zM344 1588q0 3 2 5q85 160 174 160q40 0 107 -33q60 -27 88 -27q51 0 97 62q2 3 5 3q6 0 19 -13q15 -16 15 -27q0 -3 -2 -6q-88 -164 -175 -164q-33 0 -102 31q-75 33 -101 33q-51 0 -90 -59q-2 -3 -6 -3q-8 0 -19 14q-12 15 -12 24z " />
<glyph unicode="&#xd6;" horiz-adv-x="1219" d="M44 667q0 251 141 474q156 244 411 244q197 0 341 -155q207 -224 207 -567q0 -220 -116 -417q-162 -273 -435 -273q-180 0 -324 124q-225 194 -225 570zM262 724q0 -304 123 -495q103 -162 219 -162q212 0 286 279q36 130 36 303q0 255 -100 438q-113 210 -234 210 q-122 1 -214 -130q-116 -166 -116 -443zM306 1672q0 74 45 110q26 20 58 20q54 0 83 -54q17 -32 17 -66q0 -80 -48 -114q-23 -18 -52 -18q-67 0 -93 64q-10 24 -10 58zM650 1672q0 74 45 110q26 20 58 20q53 0 83 -54q17 -30 17 -66q0 -80 -48 -114q-23 -18 -52 -18 q-67 0 -93 64q-10 24 -10 58z" />
<glyph unicode="&#xd7;" horiz-adv-x="628" d="M14 98l194 244l-194 242l111 137l193 -242l195 242l109 -137l-194 -242l194 -244l-109 -137l-195 242l-193 -242z" />
<glyph unicode="&#xd8;" horiz-adv-x="1219" d="M44 667q0 251 141 474q156 244 411 244q197 0 341 -155q207 -224 207 -567q0 -220 -116 -417q-162 -273 -435 -273q-180 0 -324 124q-225 194 -225 570zM138 -25q0 7 2 10l806 1442q3 4 9 4q24 0 59 -34q25 -26 25 -39q0 -4 -1 -7l-808 -1444q-4 -7 -11 -7q-20 0 -49 28 q-32 30 -32 47zM262 724q0 -304 123 -495q103 -162 219 -162q212 0 286 279q36 130 36 303q0 255 -100 438q-113 210 -234 210q-122 1 -214 -130q-116 -166 -116 -443z" />
<glyph unicode="&#xd9;" horiz-adv-x="1209" d="M42 1316q0 47 12 47q117 -5 224 -5q117 0 236 5q11 0 11 -46q0 -47 -11 -47q-140 0 -140 -116v-468l9 -281q3 -124 44 -203q72 -135 221 -135q138 0 222 106q72 93 72 323v658q0 116 -126 116q-11 0 -11 46q0 47 11 47q110 -5 183 -5q74 0 182 5q12 0 12 -46 q0 -47 -12 -47q-123 0 -123 -116v-274q0 -276 -10 -416q-14 -245 -123 -373q-101 -118 -307 -118q-124 0 -214 42q-126 61 -175 185q-42 107 -50 345v609q0 116 -125 116q-12 0 -12 46zM356 1758q0 13 5 33q11 44 40 81q20 25 35 25q6 0 12 -5l303 -298q15 -15 15 -31 q0 -11 -6 -22q-10 -17 -25 -17q-9 0 -21 7l-350 200q-8 9 -8 27z" />
<glyph unicode="&#xda;" horiz-adv-x="1209" d="M42 1316q0 47 12 47q117 -5 224 -5q117 0 236 5q11 0 11 -46q0 -47 -11 -47q-140 0 -140 -116v-468l9 -281q3 -124 44 -203q72 -135 221 -135q138 0 222 106q72 93 72 323v658q0 116 -126 116q-11 0 -11 46q0 47 11 47q110 -5 183 -5q74 0 182 5q12 0 12 -46 q0 -47 -12 -47q-123 0 -123 -116v-274q0 -276 -10 -416q-14 -245 -123 -373q-101 -118 -307 -118q-124 0 -214 42q-126 61 -175 185q-42 107 -50 345v609q0 116 -125 116q-12 0 -12 46zM542 1563q0 16 15 31l303 298q6 5 13 5q14 0 34 -25q29 -37 40 -81q5 -20 5 -33 q0 -18 -8 -27l-350 -200q-11 -7 -21 -7q-14 0 -24 17q-7 11 -7 22z" />
<glyph unicode="&#xdb;" horiz-adv-x="1209" d="M42 1316q0 47 12 47q117 -5 224 -5q117 0 236 5q11 0 11 -46q0 -47 -11 -47q-140 0 -140 -116v-468l9 -281q3 -124 44 -203q72 -135 221 -135q138 0 222 106q72 93 72 323v658q0 116 -126 116q-11 0 -11 46q0 47 11 47q110 -5 183 -5q74 0 182 5q12 0 12 -46 q0 -47 -12 -47q-123 0 -123 -116v-274q0 -276 -10 -416q-14 -245 -123 -373q-101 -118 -307 -118q-124 0 -214 42q-126 61 -175 185q-42 107 -50 345v609q0 116 -125 116q-12 0 -12 46zM378 1566q0 5 3 8l226 251q21 23 41 23t39 -23l226 -251q3 -4 3 -10q0 -8 -6 -21 q-9 -19 -16 -19q-1 0 -2 1l-214 124q-16 8 -30.5 8t-29.5 -8l-213 -124l-2 -1q-9 4 -18 20q-7 14 -7 22z" />
<glyph unicode="&#xdc;" horiz-adv-x="1209" d="M42 1316q0 47 12 47q117 -5 224 -5q117 0 236 5q11 0 11 -46q0 -47 -11 -47q-140 0 -140 -116v-468l9 -281q3 -124 44 -203q72 -135 221 -135q138 0 222 106q72 93 72 323v658q0 116 -126 116q-11 0 -11 46q0 47 11 47q110 -5 183 -5q74 0 182 5q12 0 12 -46 q0 -47 -12 -47q-123 0 -123 -116v-274q0 -276 -10 -416q-14 -245 -123 -373q-101 -118 -307 -118q-124 0 -214 42q-126 61 -175 185q-42 107 -50 345v609q0 116 -125 116q-12 0 -12 46zM382 1672q0 74 45 110q26 20 58 20q54 0 83 -54q17 -32 17 -66q0 -80 -48 -114 q-23 -18 -52 -18q-67 0 -93 64q-10 24 -10 58zM726 1672q0 74 45 110q26 20 58 20q53 0 83 -54q17 -30 17 -66q0 -80 -48 -114q-23 -18 -52 -18q-67 0 -93 64q-10 24 -10 58z" />
<glyph unicode="&#xdd;" horiz-adv-x="1060" d="M-22 1316q0 47 12 47q37 -5 208 -5q173 0 213 5q11 0 11 -46q0 -47 -11 -47q-88 0 -88 -53q0 -31 16 -63l203 -405q9 -17 16 -17q8 0 18 19l214 395q19 34 19 60q0 64 -84 64q-12 0 -12 46q0 47 12 47q36 -5 177 -5q148 0 186 5q11 0 11 -46q0 -47 -11 -47 q-86 0 -143 -68l-27 -35l-269 -481q-31 -56 -36 -78q-7 -28 -7 -109v-297q0 -116 119 -116q10 0 10 -46q0 -47 -10 -47q-52 7 -213 7q-160 0 -218 -7q-12 0 -12 46q0 47 12 47q117 0 117 116v292q0 68 -8 94q-6 22 -44 96l-238 470q-42 82 -81 104q-22 12 -50 12 q-12 0 -12 46zM486 1563q0 16 15 31l303 298q6 5 13 5q14 0 34 -25q29 -37 40 -81q5 -20 5 -33q0 -18 -8 -27l-350 -200q-11 -7 -21 -7q-14 0 -24 17q-7 11 -7 22z" />
<glyph unicode="&#xde;" horiz-adv-x="980" d="M10 1274q0 47 12 47q140 0 260 60q16 8 33 8q32 0 35 -35l-6 -197q0 -23 14 -23q8 0 15 5q13 7 109 106q82 84 149 84q35 0 62 -22q125 -122 181 -322q34 -123 34 -257q0 -215 -113 -411q-105 -184 -268 -274q-74 -41 -153 -56q-28 -7 -28 -38v-193q0 -71 -114 -173 l-115 -99q-5 -4 -10 -4q-31 0 -61 61q-12 23 -12 39q0 9 4 13q66 71 83 97q28 45 28 102v1300q0 136 -127 136q-12 0 -12 46zM344 118q0 -36 22 -36q6 0 13 2q162 57 246 273q65 167 65 371q0 282 -123 444q-14 20 -23 20q-10 0 -18 -7q-5 -4 -49 -53q-58 -65 -115 -102 q-18 -12 -18 -46v-866z" />
<glyph unicode="&#xdf;" horiz-adv-x="922" d="M32 30q0 38 12 38q87 0 87 75v527q0 35 -25 35h-48q-13 0 -13 36q0 37 13 37q73 0 73 113q0 276 116 430q125 166 292 166q150 0 238 -105q70 -85 70 -204q0 -132 -157 -270q-92 -80 -92 -173q0 -89 110 -162q113 -75 160 -173q31 -64 31 -142q0 -144 -86 -224 q-64 -59 -163 -59q-87 0 -156 62q-22 71 -22 180q0 19 28 19q33 0 33 -17q0 -48 45 -106q45 -56 92 -56q76 0 76 117q0 130 -110 207q-189 132 -189 293q0 128 131 243q96 85 96 222q0 89 -39 164q-45 88 -117 88q-105 0 -164 -190q-40 -126 -40 -308v-750q0 -75 107 -75 q13 0 13 -37q0 -39 -13 -39q-64 8 -191 8q-119 0 -186 -8q-12 0 -12 38z" />
<glyph unicode="&#xe0;" horiz-adv-x="688" d="M34 586q0 67 45 144q25 44 52 65q96 75 211 75q91 0 156 -56q52 -44 54 -107v-508q0 -114 54 -114q24 -3 57 36q7 8 23 -9q11 -14 7 -24q-47 -113 -152 -113q-74 0 -130 82q-11 19 -17 19q-10 0 -22 -17q-66 -82 -159 -82q-100 0 -142 85q-21 43 -21 100q0 121 170 231 l121 72q28 20 28 47v190q0 72 -84 72q-63 0 -93 -51q-7 -14 -8 -75q0 -35 -4 -52q-20 -88 -74 -88q-72 0 -72 78zM140 1334q0 32 47 63q33 23 59 23q19 0 22 -14l94 -292q6 -22 6 -40q0 -54 -33 -54q-28 0 -56 49l-135 249q-4 8 -4 16zM234 205q0 -117 58 -117q77 0 77 105 v182q0 23 -11 23q-6 0 -11 -3q-113 -71 -113 -190z" />
<glyph unicode="&#xe1;" horiz-adv-x="688" d="M34 586q0 67 45 144q25 44 52 65q96 75 211 75q91 0 156 -56q52 -44 54 -107v-508q0 -114 54 -114q24 -3 57 36q7 8 23 -9q11 -14 7 -24q-47 -113 -152 -113q-74 0 -130 82q-11 19 -17 19q-10 0 -22 -17q-66 -82 -159 -82q-100 0 -142 85q-21 43 -21 100q0 121 170 231 l121 72q28 20 28 47v190q0 72 -84 72q-63 0 -93 -51q-7 -14 -8 -75q0 -35 -4 -52q-20 -88 -74 -88q-72 0 -72 78zM234 205q0 -117 58 -117q77 0 77 105v182q0 23 -11 23q-6 0 -11 -3q-113 -71 -113 -190zM278 1073q0 21 7 41l96 302q5 17 22 17q26 0 76 -43q30 -26 30 -47 q0 -6 -2 -11l-141 -263q-25 -49 -54 -49q-34 0 -34 53z" />
<glyph unicode="&#xe2;" horiz-adv-x="688" d="M34 586q0 67 45 144q25 44 52 65q96 75 211 75q91 0 156 -56q52 -44 54 -107v-508q0 -114 54 -114q24 -3 57 36q7 8 23 -9q11 -14 7 -24q-47 -113 -152 -113q-74 0 -130 82q-11 19 -17 19q-10 0 -22 -17q-66 -82 -159 -82q-100 0 -142 85q-21 43 -21 100q0 121 170 231 l121 72q28 20 28 47v190q0 72 -84 72q-63 0 -93 -51q-7 -14 -8 -75q0 -35 -4 -52q-20 -88 -74 -88q-72 0 -72 78zM80 1055q0 4 2 8l183 412q13 31 38 31q28 0 40 -31l184 -412q2 -4 2 -8q0 -12 -15 -24q-15 -11 -23 -11q-4 0 -7 4l-145 213q-20 28 -34 28q-15 0 -35 -28 l-146 -213q-3 -4 -8 -4q-8 0 -21 10q-15 13 -15 25zM234 205q0 -117 58 -117q77 0 77 105v182q0 23 -11 23q-6 0 -11 -3q-113 -71 -113 -190z" />
<glyph unicode="&#xe3;" horiz-adv-x="688" d="M34 586q0 67 45 144q25 44 52 65q96 75 211 75q91 0 156 -56q52 -44 54 -107v-508q0 -114 54 -114q24 -3 57 36q7 8 23 -9q11 -14 7 -24q-47 -113 -152 -113q-74 0 -130 82q-11 19 -17 19q-10 0 -22 -17q-66 -82 -159 -82q-100 0 -142 85q-21 43 -21 100q0 121 170 231 l121 72q28 20 28 47v190q0 72 -84 72q-63 0 -93 -51q-7 -14 -8 -75q0 -35 -4 -52q-20 -88 -74 -88q-72 0 -72 78zM73 1088q0 3 2 5q85 160 174 160q40 0 107 -33q60 -27 88 -27q51 0 97 62q2 3 5 3q6 0 19 -13q15 -16 15 -27q0 -3 -2 -6q-88 -164 -175 -164q-33 0 -102 31 q-75 33 -101 33q-51 0 -90 -59q-2 -3 -6 -3q-8 0 -19 14q-12 15 -12 24zM234 205q0 -117 58 -117q77 0 77 105v182q0 23 -11 23q-6 0 -11 -3q-113 -71 -113 -190z" />
<glyph unicode="&#xe4;" horiz-adv-x="688" d="M34 586q0 67 45 144q25 44 52 65q96 75 211 75q91 0 156 -56q52 -44 54 -107v-508q0 -114 54 -114q24 -3 57 36q7 8 23 -9q11 -14 7 -24q-47 -113 -152 -113q-74 0 -130 82q-11 19 -17 19q-10 0 -22 -17q-66 -82 -159 -82q-100 0 -142 85q-21 43 -21 100q0 121 170 231 l121 72q28 20 28 47v190q0 72 -84 72q-63 0 -93 -51q-7 -14 -8 -75q0 -35 -4 -52q-20 -88 -74 -88q-72 0 -72 78zM40 1169q0 74 45 111q26 20 58 20q54 0 83 -54q17 -32 17 -67q0 -79 -48 -114q-23 -17 -52 -17q-67 0 -93 63q-10 25 -10 58zM234 205q0 -117 58 -117 q77 0 77 105v182q0 23 -11 23q-6 0 -11 -3q-113 -71 -113 -190zM384 1169q0 74 45 111q26 20 58 20q53 0 83 -54q17 -31 17 -67q0 -79 -48 -114q-23 -17 -52 -17q-67 0 -93 63q-10 25 -10 58z" />
<glyph unicode="&#xe5;" horiz-adv-x="688" d="M34 586q0 67 45 144q25 44 52 65q96 75 211 75q91 0 156 -56q52 -44 54 -107v-508q0 -114 54 -114q24 -3 57 36q7 8 23 -9q11 -14 7 -24q-47 -113 -152 -113q-74 0 -130 82q-11 19 -17 19q-10 0 -22 -17q-66 -82 -159 -82q-100 0 -142 85q-21 43 -21 100q0 121 170 231 l121 72q28 20 28 47v190q0 72 -84 72q-63 0 -93 -51q-7 -14 -8 -75q0 -35 -4 -52q-20 -88 -74 -88q-72 0 -72 78zM135 1245q0 96 59 161q55 62 138 62q102 0 159 -88q38 -59 38 -135q0 -112 -82 -185q-45 -40 -115 -40q-101 0 -157 88q-40 60 -40 137zM234 205 q0 -117 58 -117q77 0 77 105v182q0 23 -11 23q-6 0 -11 -3q-113 -71 -113 -190zM246 1245q0 -86 41 -122q20 -17 45 -17q55 0 77 68q10 32 10 71q0 78 -42 124q-18 19 -45 19q-51 0 -77 -75q-9 -29 -9 -68z" />
<glyph unicode="&#xe6;" horiz-adv-x="991" d="M47 588q0 65 44 140q24 40 50 60q110 82 200 82q83 0 141 -56q21 -25 31 -25t28 20q61 61 144 61q146 0 221 -88q31 -40 31 -65q0 -27 -46 -51l-309 -162q-33 -16 -33 -80q0 -89 42 -174q59 -117 156 -117q63 0 127 48q12 9 19 18q11 13 33 -9q22 -26 15 -36 q-119 -177 -289 -177q-83 0 -157 69q-22 21 -40 46q-13 22 -21 22q-6 0 -26 -22q-48 -67 -94 -87q-32 -15 -76 -15q-121 0 -165 87q-19 37 -19 85q0 153 128 219l165 90q28 15 28 59v148q0 110 -78 110q-52 0 -89 -61q-7 -12 -7 -49l1 -41q0 -75 -37 -110q-20 -19 -47 -19 q-71 0 -71 80zM238 190q0 -61 35 -87q15 -11 32 -11q36 0 78 68q15 24 15 44q0 10 -3 21q-12 38 -20 142q-1 22 -11 22q-6 0 -15 -6q-111 -77 -111 -193zM560 606q0 -16 12 -16l194 98q14 6 14 25q0 29 -31 54q-26 21 -56 21q-48 0 -95 -76q-36 -59 -38 -106z" />
<glyph unicode="&#xe7;" horiz-adv-x="704" d="M53 387q0 170 85 307q108 176 280 176q108 0 178 -45q31 -20 43 -45q5 -16 5 -40q0 -52 -25 -85q-28 -35 -52 -35q-29 0 -45 29l-31 66q-31 59 -89 59q-65 0 -113 -93q-53 -102 -53 -245q0 -133 70 -227q64 -84 144 -84q88 0 150 55q14 12 37 -30q21 -43 7 -54l-66 -53 q-92 -66 -212 -66q-112 0 -201 99q-112 123 -112 311zM127 -438q0 42 29 61q10 7 23 7q25 0 60 -39q34 -37 52 -37q42 0 42 51q0 77 -113 142q-16 9 -16 17q0 5 4 13l113 209h87l-62 -106q-7 -12 -7 -18q0 -10 22 -26q99 -66 99 -174q0 -86 -70 -142q-59 -48 -138 -48 q-99 0 -120 61q-5 13 -5 29z" />
<glyph unicode="&#xe8;" horiz-adv-x="700" d="M54 436q0 165 86 291q98 143 229 143q142 0 226 -119q52 -89 52 -139q0 -75 -72 -75h-308q-29 0 -29 -27q0 -237 89 -334q50 -53 122 -53q65 0 133 55q16 11 39 -26q21 -35 12 -46q-39 -49 -107 -88q-71 -41 -162 -41q-108 0 -194 109q-116 144 -116 350zM205 1334 q0 32 47 63q33 23 59 23q19 0 22 -14l94 -292q6 -22 6 -40q0 -54 -33 -54q-28 0 -56 49l-135 249q-4 8 -4 16zM247 653q0 -26 30 -26h162q30 0 30 24q0 67 -44 112q-27 28 -55 28q-51 0 -90 -43q-33 -40 -33 -95z" />
<glyph unicode="&#xe9;" horiz-adv-x="700" d="M54 436q0 165 86 291q98 143 229 143q142 0 226 -119q52 -89 52 -139q0 -75 -72 -75h-308q-29 0 -29 -27q0 -237 89 -334q50 -53 122 -53q65 0 133 55q16 11 39 -26q21 -35 12 -46q-39 -49 -107 -88q-71 -41 -162 -41q-108 0 -194 109q-116 144 -116 350zM247 653 q0 -26 30 -26h162q30 0 30 24q0 67 -44 112q-27 28 -55 28q-51 0 -90 -43q-33 -40 -33 -95zM328 1073q0 21 7 41l96 302q5 17 22 17q26 0 76 -43q30 -26 30 -47q0 -6 -2 -11l-141 -263q-25 -49 -54 -49q-34 0 -34 53z" />
<glyph unicode="&#xea;" horiz-adv-x="700" d="M54 436q0 165 86 291q98 143 229 143q142 0 226 -119q52 -89 52 -139q0 -75 -72 -75h-308q-29 0 -29 -27q0 -237 89 -334q50 -53 122 -53q65 0 133 55q16 11 39 -26q21 -35 12 -46q-39 -49 -107 -88q-71 -41 -162 -41q-108 0 -194 109q-116 144 -116 350zM145 1055 q0 4 2 8l183 412q13 31 38 31q28 0 40 -31l184 -412q2 -4 2 -8q0 -12 -15 -24q-15 -11 -23 -11q-4 0 -7 4l-145 213q-20 28 -34 28q-15 0 -35 -28l-146 -213q-3 -4 -8 -4q-8 0 -21 10q-15 13 -15 25zM247 653q0 -26 30 -26h162q30 0 30 24q0 67 -44 112q-27 28 -55 28 q-51 0 -90 -43q-33 -40 -33 -95z" />
<glyph unicode="&#xeb;" horiz-adv-x="700" d="M54 436q0 165 86 291q98 143 229 143q142 0 226 -119q52 -89 52 -139q0 -75 -72 -75h-308q-29 0 -29 -27q0 -237 89 -334q50 -53 122 -53q65 0 133 55q16 11 39 -26q21 -35 12 -46q-39 -49 -107 -88q-71 -41 -162 -41q-108 0 -194 109q-116 144 -116 350zM96 1169 q0 74 45 111q26 20 58 20q54 0 83 -54q17 -32 17 -67q0 -79 -48 -114q-23 -17 -52 -17q-67 0 -93 63q-10 25 -10 58zM247 653q0 -26 30 -26h162q30 0 30 24q0 67 -44 112q-27 28 -55 28q-51 0 -90 -43q-33 -40 -33 -95zM440 1169q0 74 45 111q26 20 58 20q53 0 83 -54 q17 -31 17 -67q0 -79 -48 -114q-23 -17 -52 -17q-67 0 -93 63q-10 25 -10 58z" />
<glyph unicode="&#xec;" horiz-adv-x="419" d="M35 30q0 38 12 38q84 0 84 75v414q0 125 -73 125q-13 0 -13 37t13 37q40 0 149 68q51 31 67 48q10 11 24 11q23 0 21 -27q-5 -84 -5 -174v-539q0 -75 83 -75q12 0 12 -38t-12 -38q-67 8 -167 8q-116 0 -183 -8q-12 0 -12 38zM73 1334q0 32 47 63q33 23 59 23q19 0 22 -14 l94 -292q6 -22 6 -40q0 -54 -33 -54q-28 0 -56 49l-135 249q-4 8 -4 16z" />
<glyph unicode="&#xed;" horiz-adv-x="419" d="M35 30q0 38 12 38q84 0 84 75v414q0 125 -73 125q-13 0 -13 37t13 37q40 0 149 68q51 31 67 48q10 11 24 11q23 0 21 -27q-5 -84 -5 -174v-539q0 -75 83 -75q12 0 12 -38t-12 -38q-67 8 -167 8q-116 0 -183 -8q-12 0 -12 38zM135 1073q0 21 7 41l96 302q5 17 22 17 q26 0 76 -43q30 -26 30 -47q0 -6 -2 -11l-141 -263q-25 -49 -54 -49q-34 0 -34 53z" />
<glyph unicode="&#xee;" horiz-adv-x="419" d="M1 1055q0 4 2 8l183 412q13 31 38 31q28 0 40 -31l184 -412q2 -4 2 -8q0 -12 -15 -24q-15 -11 -23 -11q-4 0 -7 4l-145 213q-20 28 -34 28q-15 0 -35 -28l-146 -213q-3 -4 -8 -4q-8 0 -21 10q-15 13 -15 25zM35 30q0 38 12 38q84 0 84 75v414q0 125 -73 125q-13 0 -13 37 t13 37q40 0 149 68q51 31 67 48q10 11 24 11q23 0 21 -27q-5 -84 -5 -174v-539q0 -75 83 -75q12 0 12 -38t-12 -38q-67 8 -167 8q-116 0 -183 -8q-12 0 -12 38z" />
<glyph unicode="&#xef;" horiz-adv-x="419" d="M-65 1169q0 74 45 111q26 20 58 20q54 0 83 -54q17 -32 17 -67q0 -79 -48 -114q-23 -17 -52 -17q-67 0 -93 63q-10 25 -10 58zM35 30q0 38 12 38q84 0 84 75v414q0 125 -73 125q-13 0 -13 37t13 37q40 0 149 68q51 31 67 48q10 11 24 11q23 0 21 -27q-5 -84 -5 -174v-539 q0 -75 83 -75q12 0 12 -38t-12 -38q-67 8 -167 8q-116 0 -183 -8q-12 0 -12 38zM279 1169q0 74 45 111q26 20 58 20q53 0 83 -54q17 -31 17 -67q0 -79 -48 -114q-23 -17 -52 -17q-67 0 -93 63q-10 25 -10 58z" />
<glyph unicode="&#xf0;" horiz-adv-x="860" d="M-32 1014q0 8 6 4q52 -33 76 -33q18 0 30 12l70 70q15 14 15 22q0 9 -15 19q-104 68 -144 88q-14 7 5 60q16 44 31 36q121 -62 184 -104q16 -11 26 -11q12 0 31 19l236 229q11 10 55 -61q36 -56 44 -71q0 -9 -5 -9l-94 25q-16 0 -25 -9l-148 -147q-15 -14 -15 -23 q0 -11 18 -24q267 -196 365 -373q85 -153 85 -282q0 -221 -101 -350q-97 -124 -264 -124q-166 0 -272 124q-109 130 -109 348q0 150 84 267q109 154 289 154q-61 76 -160 156q-14 11 -24 11q-12 0 -28 -15l-160 -158q-10 -9 -52 72q-33 65 -34 78zM255 444q0 -180 65 -294 q50 -89 114 -89q76 0 121 121q41 107 41 262q0 163 -58 267q-45 82 -104 82q-62 0 -114 -84q-65 -106 -65 -265z" />
<glyph unicode="&#xf1;" horiz-adv-x="869" d="M34 30q0 38 12 38q85 0 85 75v406q0 133 -73 133q-13 0 -13 36q0 38 13 38q40 0 149 68q51 31 67 48q10 11 21 11q23 0 24 -27l-5 -68q0 -19 7.5 -19t14.5 9q34 55 110 81q33 11 76 11q152 0 220 -185q28 -73 28 -220v-329q0 -68 85 -68q13 0 13 -38t-13 -38 q-85 8 -169 8t-180 -8q-12 -1 -12 37.5t12 38.5q81 0 81 62v407q0 149 -47 200q-23 25 -77 25q-49 0 -95 -50q-54 -58 -54 -120v-449q0 -75 80 -75q12 0 12 -38t-12 -38q-68 8 -173 8q-108 0 -175 -8q-12 0 -12 38zM187 1088q0 3 2 5q85 160 174 160q40 0 107 -33 q60 -27 88 -27q51 0 97 62q2 3 5 3q6 0 19 -13q15 -16 15 -27q0 -3 -2 -6q-88 -164 -175 -164q-33 0 -102 31q-75 33 -101 33q-51 0 -90 -59q-2 -3 -6 -3q-8 0 -19 14q-12 15 -12 24z" />
<glyph unicode="&#xf2;" horiz-adv-x="825" d="M53 424q0 170 88 296q105 150 272 150q174 0 281 -158q81 -122 81 -286q0 -209 -98 -331q-95 -118 -263 -118q-148 0 -250 122q-111 131 -111 325zM242 1334q0 32 47 63q33 23 59 23q19 0 22 -14l94 -292q6 -22 6 -40q0 -54 -33 -54q-28 0 -56 49l-135 249q-4 8 -4 16z M255 420q0 -185 59 -287q41 -72 99 -72q75 0 120 114q39 99 39 245q0 184 -57 292q-42 81 -101 81q-65 0 -111 -104q-48 -109 -48 -269z" />
<glyph unicode="&#xf3;" horiz-adv-x="825" d="M53 424q0 170 88 296q105 150 272 150q174 0 281 -158q81 -122 81 -286q0 -209 -98 -331q-95 -118 -263 -118q-148 0 -250 122q-111 131 -111 325zM255 420q0 -185 59 -287q41 -72 99 -72q75 0 120 114q39 99 39 245q0 184 -57 292q-42 81 -101 81q-65 0 -111 -104 q-48 -109 -48 -269zM353 1073q0 21 7 41l96 302q5 17 22 17q26 0 76 -43q30 -26 30 -47q0 -6 -2 -11l-141 -263q-25 -49 -54 -49q-34 0 -34 53z" />
<glyph unicode="&#xf4;" horiz-adv-x="825" d="M53 424q0 170 88 296q105 150 272 150q174 0 281 -158q81 -122 81 -286q0 -209 -98 -331q-95 -118 -263 -118q-148 0 -250 122q-111 131 -111 325zM185 1055q0 4 2 8l183 412q13 31 38 31q28 0 40 -31l184 -412q2 -4 2 -8q0 -12 -15 -24q-15 -11 -23 -11q-4 0 -7 4 l-145 213q-20 28 -34 28q-15 0 -35 -28l-146 -213q-3 -4 -8 -4q-8 0 -21 10q-15 13 -15 25zM255 420q0 -185 59 -287q41 -72 99 -72q75 0 120 114q39 99 39 245q0 184 -57 292q-42 81 -101 81q-65 0 -111 -104q-48 -109 -48 -269z" />
<glyph unicode="&#xf5;" horiz-adv-x="825" d="M53 424q0 170 88 296q105 150 272 150q174 0 281 -158q81 -122 81 -286q0 -209 -98 -331q-95 -118 -263 -118q-148 0 -250 122q-111 131 -111 325zM160 1088q0 3 2 5q85 160 174 160q40 0 107 -33q60 -27 88 -27q51 0 97 62q2 3 5 3q6 0 19 -13q15 -16 15 -27q0 -3 -2 -6 q-88 -164 -175 -164q-33 0 -102 31q-75 33 -101 33q-51 0 -90 -59q-2 -3 -6 -3q-8 0 -19 14q-12 15 -12 24zM255 420q0 -185 59 -287q41 -72 99 -72q75 0 120 114q39 99 39 245q0 184 -57 292q-42 81 -101 81q-65 0 -111 -104q-48 -109 -48 -269z" />
<glyph unicode="&#xf6;" horiz-adv-x="825" d="M53 424q0 170 88 296q105 150 272 150q174 0 281 -158q81 -122 81 -286q0 -209 -98 -331q-95 -118 -263 -118q-148 0 -250 122q-111 131 -111 325zM140 1169q0 74 45 111q26 20 58 20q54 0 83 -54q17 -32 17 -67q0 -79 -48 -114q-23 -17 -52 -17q-67 0 -93 63 q-10 25 -10 58zM255 420q0 -185 59 -287q41 -72 99 -72q75 0 120 114q39 99 39 245q0 184 -57 292q-42 81 -101 81q-65 0 -111 -104q-48 -109 -48 -269zM484 1169q0 74 45 111q26 20 58 20q53 0 83 -54q17 -31 17 -67q0 -79 -48 -114q-23 -17 -52 -17q-67 0 -93 63 q-10 25 -10 58z" />
<glyph unicode="&#xf7;" horiz-adv-x="840" d="M66 383v158h711v-158h-711zM313 137q0 50 29 86q30 37 82 37t83 -52q20 -35 20 -83q0 -73 -49 -107l-23 -11q-15 -5 -31 -5q-51 0 -83 41q-28 36 -28 94zM313 799q0 50 29 86q30 37 82 37t82 -52q21 -36 21 -84q0 -71 -48 -105q-25 -17 -55 -17q-52 0 -84 42 q-27 35 -27 93z" />
<glyph unicode="&#xf8;" horiz-adv-x="825" d="M53 424q0 170 88 296q105 150 272 150q174 0 281 -158q81 -122 81 -286q0 -209 -98 -331q-95 -118 -263 -118q-148 0 -250 122q-111 131 -111 325zM118 -35l547 953q5 8 13 8q10 0 28 -14q32 -26 20 -48l-549 -952q-4 -7 -11 -7q-11 0 -31 19q-25 27 -17 41zM255 420 q0 -185 59 -287q41 -72 99 -72q75 0 120 114q39 99 39 245q0 184 -57 292q-42 81 -101 81q-65 0 -111 -104q-48 -109 -48 -269z" />
<glyph unicode="&#xf9;" horiz-adv-x="822" d="M22 794.5q0 36.5 12 36.5q90 0 180 18q24 5 40 5q36 0 36 -44q-5 -98 -5 -161v-342q0 -123 40 -182q22 -33 78 -33q51 0 106 55q43 44 43 93v415q0 103 -67 103q-13 0 -13 36.5t13 36.5q89 0 183 19q20 4 31 4q43 0 43 -36q-7 -95 -7 -156v-406q0 -90 8 -117 q11 -40 43 -40q10 0 26 5q13 4 22 -32q5 -36 -4 -41q-6 -2 -84 -21l-40 -10q-45 -12 -92 -31q-10 -4 -19 -4q-12 0 -12 45v47q0 23 -9.5 23t-21.5 -14q-74 -89 -197 -89q-101 0 -136 35q-117 118 -117 297v346q0 103 -68 103q-12 0 -12 36.5zM247 1334q0 32 47 63 q33 23 59 23q19 0 22 -14l94 -292q6 -22 6 -40q0 -54 -33 -54q-28 0 -56 49l-135 249q-4 8 -4 16z" />
<glyph unicode="&#xfa;" horiz-adv-x="822" d="M22 794.5q0 36.5 12 36.5q90 0 180 18q24 5 40 5q36 0 36 -44q-5 -98 -5 -161v-342q0 -123 40 -182q22 -33 78 -33q51 0 106 55q43 44 43 93v415q0 103 -67 103q-13 0 -13 36.5t13 36.5q89 0 183 19q20 4 31 4q43 0 43 -36q-7 -95 -7 -156v-406q0 -90 8 -117 q11 -40 43 -40q10 0 26 5q13 4 22 -32q5 -36 -4 -41q-6 -2 -84 -21l-40 -10q-45 -12 -92 -31q-10 -4 -19 -4q-12 0 -12 45v47q0 23 -9.5 23t-21.5 -14q-74 -89 -197 -89q-101 0 -136 35q-117 118 -117 297v346q0 103 -68 103q-12 0 -12 36.5zM341 1073q0 21 7 41l96 302 q5 17 22 17q26 0 76 -43q30 -26 30 -47q0 -6 -2 -11l-141 -263q-25 -49 -54 -49q-34 0 -34 53z" />
<glyph unicode="&#xfb;" horiz-adv-x="822" d="M22 794.5q0 36.5 12 36.5q90 0 180 18q24 5 40 5q36 0 36 -44q-5 -98 -5 -161v-342q0 -123 40 -182q22 -33 78 -33q51 0 106 55q43 44 43 93v415q0 103 -67 103q-13 0 -13 36.5t13 36.5q89 0 183 19q20 4 31 4q43 0 43 -36q-7 -95 -7 -156v-406q0 -90 8 -117 q11 -40 43 -40q10 0 26 5q13 4 22 -32q5 -36 -4 -41q-6 -2 -84 -21l-40 -10q-45 -12 -92 -31q-10 -4 -19 -4q-12 0 -12 45v47q0 23 -9.5 23t-21.5 -14q-74 -89 -197 -89q-101 0 -136 35q-117 118 -117 297v346q0 103 -68 103q-12 0 -12 36.5zM177 1055q0 4 2 8l183 412 q13 31 38 31q28 0 40 -31l184 -412q2 -4 2 -8q0 -12 -15 -24q-15 -11 -23 -11q-4 0 -7 4l-145 213q-20 28 -34 28q-15 0 -35 -28l-146 -213q-3 -4 -8 -4q-8 0 -21 10q-15 13 -15 25z" />
<glyph unicode="&#xfc;" horiz-adv-x="822" d="M22 794.5q0 36.5 12 36.5q90 0 180 18q24 5 40 5q36 0 36 -44q-5 -98 -5 -161v-342q0 -123 40 -182q22 -33 78 -33q51 0 106 55q43 44 43 93v415q0 103 -67 103q-13 0 -13 36.5t13 36.5q89 0 183 19q20 4 31 4q43 0 43 -36q-7 -95 -7 -156v-406q0 -90 8 -117 q11 -40 43 -40q10 0 26 5q13 4 22 -32q5 -36 -4 -41q-6 -2 -84 -21l-40 -10q-45 -12 -92 -31q-10 -4 -19 -4q-12 0 -12 45v47q0 23 -9.5 23t-21.5 -14q-74 -89 -197 -89q-101 0 -136 35q-117 118 -117 297v346q0 103 -68 103q-12 0 -12 36.5zM121 1169q0 74 45 111 q26 20 58 20q54 0 83 -54q17 -32 17 -67q0 -79 -48 -114q-23 -17 -52 -17q-67 0 -93 63q-10 25 -10 58zM465 1169q0 74 45 111q26 20 58 20q53 0 83 -54q17 -31 17 -67q0 -79 -48 -114q-23 -17 -52 -17q-67 0 -93 63q-10 25 -10 58z" />
<glyph unicode="&#xfd;" horiz-adv-x="707" d="M-43 820q0 36 12 36q50 -6 162 -6q119 0 169 6q12 0 12 -36t-12 -36q-64 0 -64 -47q0 -15 6 -37l122 -424q6 -20 14 -20q10 0 17 23l132 421q4 13 4 23q0 61 -97 61q-12 0 -12 36t12 36q48 -6 156 -6q91 0 139 6q13 0 13 -36t-13 -36q-74 0 -100 -59l-359 -1124 q-32 -106 -102 -141q-26 -13 -55 -13q-50 0 -81 43q-21 30 -21 68q0 61 47 91q24 15 53 15q83 0 97 39l62 182q6 18 6 35t-6 35l-216 758q-20 71 -85 71q-12 0 -12 36zM315 1073q0 21 7 41l96 302q5 17 22 17q26 0 76 -43q30 -26 30 -47q0 -6 -2 -11l-141 -263 q-25 -49 -54 -49q-34 0 -34 53z" />
<glyph unicode="&#xfe;" horiz-adv-x="836" d="M24 1323q0 37 12 37q35 0 150 68q52 31 68 49q12 10 23 10q23 0 23 -29q-6 -131 -6 -229v-404q0 -23 11 -23q6 0 14 9q56 59 151 59q128 0 212 -78q100 -94 100 -284q0 -264 -193 -416q-84 -66 -276 -104q-19 -4 -19 -33v-348q0 -80 -66 -107l-139 -57q-23 -7 -43 39 q-15 38 3 53l49 43q12 8 12 31v1544q0 133 -74 133q-12 0 -12 37zM294 100q0 -19 15 -19q3 0 7 1q106 16 169 112q93 143 93 263q0 321 -142 321q-84 0 -133 -90q-9 -24 -9 -63v-525z" />
<glyph unicode="&#xff;" horiz-adv-x="707" d="M-43 820q0 36 12 36q50 -6 162 -6q119 0 169 6q12 0 12 -36t-12 -36q-64 0 -64 -47q0 -15 6 -37l122 -424q6 -20 14 -20q10 0 17 23l132 421q4 13 4 23q0 61 -97 61q-12 0 -12 36t12 36q48 -6 156 -6q91 0 139 6q13 0 13 -36t-13 -36q-74 0 -100 -59l-359 -1124 q-32 -106 -102 -141q-26 -13 -55 -13q-50 0 -81 43q-21 30 -21 68q0 61 47 91q24 15 53 15q83 0 97 39l62 182q6 18 6 35t-6 35l-216 758q-20 71 -85 71q-12 0 -12 36zM92 1169q0 74 45 111q26 20 58 20q54 0 83 -54q17 -32 17 -67q0 -79 -48 -114q-23 -17 -52 -17 q-67 0 -93 63q-10 25 -10 58zM436 1169q0 74 45 111q26 20 58 20q53 0 83 -54q17 -31 17 -67q0 -79 -48 -114q-23 -17 -52 -17q-67 0 -93 63q-10 25 -10 58z" />
<glyph unicode="&#x152;" horiz-adv-x="1608" d="M42 661q0 200 96 388q19 37 41 72q151 237 399 237l311 -6h4q72 0 500 6h34q65 0 76 -14l6 -10l2 -25v-2v-306q0 -16 -37 -17l-26 3l-14 6q-4 3 -4 8q0 130 -79 205q-48 46 -100 49q-34 2 -237 10q-17 0 -20 -30q-1 -5 -1 -10v-509q5 -27 23 -29h109q97 0 97 91v99 q0 14 42 14q22 0 34 -5q8 -4 8 -9q-5 -67 -5 -233q0 -162 5 -225q0 -15 -41 -15q-22 0 -34 5q-9 4 -9 10v86q0 89 -97 89h-109q-23 0 -23 -31v-341q0 -76 59 -115q32 -21 66 -21h4l174 5q126 5 164 137q14 50 14 116q0 17 38 18l26 -3q18 -5 18 -15v-287q0 -42 -12 -52 l-14 -8q-16 -4 -68 -4l-564 7h-1q-19 0 -229 -9q-54 -2 -94 -2q-105 0 -217 59q-51 27 -95 63q-91 74 -152 213q-68 156 -68 337zM261 718q0 -294 120 -482q73 -113 158 -147q25 -9 46 -9q101 0 143 17q70 27 70 105v954q0 109 -175 115q-14 1 -50 1q-111 0 -197 -122 q-95 -134 -112 -350q-3 -40 -3 -82z" />
<glyph unicode="&#x153;" horiz-adv-x="1238" d="M42 424q0 170 88 295q90 128 228 148q23 3 45 3q164 0 264 -139l5 -6q75 109 173 137q26 8 51 8q128 0 217 -114q52 -67 61 -130v-14q0 -75 -72 -75h-328q-9 0 -9 -27q0 -194 61 -304q51 -93 134 -93q62 0 125 47q21 16 24 18l8 2q17 -1 32 -30q5 -10 5 -19l-1 -10l-1 -2 q-49 -66 -124 -107q-67 -37 -137 -37q-104 0 -189 106q-12 15 -24 32q-95 -136 -273 -136q-147 0 -251 121q-95 112 -109 275q-3 26 -3 51zM246 420q0 -185 58 -287q42 -72 99 -72q76 0 120 115q39 99 39 244q0 185 -57 293q-42 80 -100 80q-67 0 -112 -105 q-47 -109 -47 -268zM775 637q3 -10 16 -10h187q17 0 18 14v10q-6 82 -52 121q-22 19 -46 19q-107 0 -123 -138v-16z" />
<glyph unicode="&#x178;" horiz-adv-x="1060" d="M-22 1316q0 47 12 47q37 -5 208 -5q173 0 213 5q11 0 11 -46q0 -47 -11 -47q-88 0 -88 -53q0 -31 16 -63l203 -405q9 -17 16 -17q8 0 18 19l214 395q19 34 19 60q0 64 -84 64q-12 0 -12 46q0 47 12 47q36 -5 177 -5q148 0 186 5q11 0 11 -46q0 -47 -11 -47 q-86 0 -143 -68l-27 -35l-269 -481q-31 -56 -36 -78q-7 -28 -7 -109v-297q0 -116 119 -116q10 0 10 -46q0 -47 -10 -47q-52 7 -213 7q-160 0 -218 -7q-12 0 -12 46q0 47 12 47q117 0 117 116v292q0 68 -8 94q-6 22 -44 96l-238 470q-42 82 -81 104q-22 12 -50 12 q-12 0 -12 46zM290 1672q0 74 45 110q26 20 58 20q54 0 83 -54q17 -32 17 -66q0 -80 -48 -114q-23 -18 -52 -18q-67 0 -93 64q-10 24 -10 58zM634 1672q0 74 45 110q26 20 58 20q53 0 83 -54q17 -30 17 -66q0 -80 -48 -114q-23 -18 -52 -18q-67 0 -93 64q-10 24 -10 58z" />
<glyph unicode="&#x2c6;" horiz-adv-x="622" d="M87 1055q0 4 2 8l183 412q13 31 38 31q28 0 40 -31l184 -412q2 -4 2 -8q0 -12 -15 -24q-15 -11 -23 -11q-4 0 -7 4l-145 213q-20 28 -34 28q-15 0 -35 -28l-146 -213q-3 -4 -8 -4q-8 0 -21 10q-15 13 -15 25z" />
<glyph unicode="&#x2dc;" horiz-adv-x="464" d="M-21 1088q0 3 2 5q85 160 174 160q40 0 107 -33q60 -27 88 -27q51 0 97 62q2 3 5 3q6 0 19 -13q15 -16 15 -27q0 -3 -2 -6q-88 -164 -175 -164q-33 0 -102 31q-75 33 -101 33q-51 0 -90 -59q-2 -3 -6 -3q-8 0 -19 14q-12 15 -12 24z" />
<glyph unicode="&#x2000;" horiz-adv-x="948" />
<glyph unicode="&#x2001;" horiz-adv-x="1897" />
<glyph unicode="&#x2002;" horiz-adv-x="948" />
<glyph unicode="&#x2003;" horiz-adv-x="1897" />
<glyph unicode="&#x2004;" horiz-adv-x="632" />
<glyph unicode="&#x2005;" horiz-adv-x="474" />
<glyph unicode="&#x2006;" horiz-adv-x="316" />
<glyph unicode="&#x2007;" horiz-adv-x="316" />
<glyph unicode="&#x2008;" horiz-adv-x="237" />
<glyph unicode="&#x2009;" horiz-adv-x="379" />
<glyph unicode="&#x200a;" horiz-adv-x="105" />
<glyph unicode="&#x2010;" horiz-adv-x="661" d="M85 544.5q0 65.5 15 65.5h458q16 0 16 -65.5t-17 -65.5h-457q-15 0 -15 65.5z" />
<glyph unicode="&#x2011;" horiz-adv-x="661" d="M85 544.5q0 65.5 15 65.5h458q16 0 16 -65.5t-17 -65.5h-457q-15 0 -15 65.5z" />
<glyph unicode="&#x2012;" horiz-adv-x="661" d="M85 544.5q0 65.5 15 65.5h458q16 0 16 -65.5t-17 -65.5h-457q-15 0 -15 65.5z" />
<glyph unicode="&#x2013;" horiz-adv-x="819" d="M13 529.5q0 66.5 12 66.5h769q12 0 12 -66.5t-12 -66.5h-769q-12 0 -12 66.5z" />
<glyph unicode="&#x2014;" horiz-adv-x="1638" d="M13 529.5q0 66.5 12 66.5h1589q12 0 12 -66.5t-12 -66.5h-1589q-12 0 -12 66.5z" />
<glyph unicode="&#x2018;" horiz-adv-x="344" d="M22 1133q0 155 127 280q49 47 92 70h9q12 -5 18 -22l1 -11q0 -2 -2 -4q-55 -54 -81 -143q-14 -47 -14 -93q0 -27 11 -32q51 -25 71 -63q16 -33 16 -77q0 -57 -44 -88q-30 -20 -70 -20q-53 0 -93.5 59t-40.5 144z" />
<glyph unicode="&#x2019;" horiz-adv-x="344" d="M61 1362q0 59 45 90q29 21 69 21q53 0 94 -59t41 -144q0 -154 -125 -278q-51 -50 -95 -72l-8 -1q-11 3 -17 17l-3 13q0 3 2 5q56 60 81 150q13 45 13 88q0 26 -11 31q-36 20 -49 34q-37 39 -37 105z" />
<glyph unicode="&#x201a;" horiz-adv-x="344" d="M59 145q0 62 47 93q29 18 68 18q51 0 92 -58q40 -59 40 -145q0 -154 -124 -278q-50 -50 -95 -72l-9 -1q-12 4 -18 23l-1 10q1 2 2 3q57 59 82 149q13 45 13 88q0 26 -12 31q-36 21 -50 36q-35 39 -35 103z" />
<glyph unicode="&#x201c;" horiz-adv-x="707" d="M54 1133q0 155 127 279q49 48 93 71h8q12 -5 18 -22l2 -11q0 -2 -2 -4q-55 -54 -82 -143q-13 -47 -13 -93q0 -27 11 -32q50 -25 70 -63q17 -33 17 -77q0 -57 -45 -88q-29 -20 -69 -20q-53 0 -94 59t-41 144zM382 1133q0 155 126 279q50 48 94 71h8q12 -5 18 -22l1 -11 q0 -2 -2 -4q-55 -54 -81 -144q-13 -47 -13 -92q0 -27 11 -32q45 -23 64 -53l12 -25q10 -28 10 -62q0 -57 -44 -88l-25 -12q-21 -8 -45 -8q-53 0 -93.5 59t-40.5 144z" />
<glyph unicode="&#x201d;" horiz-adv-x="707" d="M72 949q0 3 2 5q56 57 82 148q13 46 13 90q0 26 -11 31q-40 21 -56 41q-30 38 -30 98q0 61 46 92q29 19 68 19q52 0 92 -58q27 -39 36 -91q5 -26 5 -54q0 -154 -121 -276q-52 -52 -98 -74l-9 -1q-10 3 -17 17zM383 948q0 4 2 6q57 57 82 148q13 46 13 90q0 26 -11 31 q-39 21 -55 41q-31 38 -31 98t47 91q28 20 68 20q52 0 92 -58q26 -39 36 -92q4 -26 4 -53q0 -154 -121 -276q-52 -52 -98 -74l-9 -1q-4 1 -9 6q-10 11 -10 23z" />
<glyph unicode="&#x201e;" horiz-adv-x="707" d="M91 -266q1 3 3 4q57 59 82 149q13 45 13 88q0 26 -12 31q-36 21 -51 36q-34 39 -34 103q0 62 47 93q29 18 67 18q52 0 92 -58q41 -59 41 -145q0 -154 -125 -278q-49 -50 -94 -72l-9 -1q-13 4 -18 22zM403 145q0 62 47 93q29 18 68 18q51 0 92 -58q40 -59 40 -145 q0 -154 -124 -278q-50 -50 -95 -72l-9 -1q-4 2 -8 6q-12 12 -11 24q0 4 2 6q57 59 82 149q13 45 13 88q0 26 -12 31q-36 21 -50 36q-35 39 -35 103z" />
<glyph unicode="&#x2022;" horiz-adv-x="646" d="M69 688q0 135 74 228q74 92 179 92q107 0 181 -93q75 -94 75 -227q0 -136 -76 -230q-74 -91 -179.5 -91t-179.5 93t-74 228z" />
<glyph unicode="&#x202f;" horiz-adv-x="379" />
<glyph unicode="&#x2039;" horiz-adv-x="425" d="M60 436.5q0 18.5 14 37.5l253 359q10 14 26 -3t11 -28l-133 -334q-7 -18 -7 -29.5t4 -23.5l136 -348q6 -15 -11 -29.5t-26 -1.5l-253 363q-14 19 -14 37.5z" />
<glyph unicode="&#x203a;" horiz-adv-x="425" d="M60 67l136 348q4 12 4 23.5t-7 29.5l-133 334q-5 11 11 28t26 3l253 -359q14 -19 14 -37.5t-14 -37.5l-253 -363q-9 -13 -26 1.5t-11 29.5z" />
<glyph unicode="&#x205f;" horiz-adv-x="474" />
<glyph unicode="&#x20ac;" horiz-adv-x="1008" d="M-34 550.5q0 65.5 15 65.5h64q-1 25 -1 51q0 34 2 66h-65q-15 0 -15 65.5t15 65.5h81q42 209 174 365t321 156q108 0 198.5 -42.5t128 -94t37.5 -90.5q0 -31 -24.5 -54t-54.5 -23q-42 0 -74 47l-46 68q-34 52 -77 76.5t-92 24.5q-107 0 -183 -131.5t-98 -301.5h454 q16 0 16 -65.5t-17 -65.5h-462q-1 -10 -1 -21q0 -47 6 -96h458q16 0 16 -65.5t-17 -65.5h-434q40 -159 107.5 -269t182.5 -110q97 1 168 39t106 67t37 29q8 0 18 -24.5t10 -33t-6 -15.5q-110 -113 -190 -154t-170 -41q-181 0 -321 140t-176 372h-76q-15 0 -15 65.5z" />
<glyph unicode="&#x2122;" horiz-adv-x="1521" d="M44 1221v159q0 19 9 23q8 4 39 4l271 -4h12l287 4h1q39 0 43 -11l2 -16v-159q0 -9 -22 -10l-17 3l-5 5q-1 1 -1 2q0 77 -61 116q-19 12 -38 15l-122 6q-12 0 -14 -17v-553q0 -63 74 -63q7 0 7 -24l-3 -19q-1 -6 -4 -6q-34 4 -125 4q-98 0 -131 -4q-8 0 -8 24l3 19 q1 6 5 6q76 0 76 63v553q0 15 -11 17l-128 -8q-29 -2 -60 -36q-34 -39 -34 -93q0 -10 -23 -10q-15 0 -20 6q-2 2 -2 4zM718 700l3 19q1 6 5 6q57 0 64 53q1 7 1 15l27 485l-1 31q-6 41 -46 47l-27 2q-7 0 -7 25l2 20q2 6 5 6q32 -4 74 -4q52 0 59 -2q33 -7 47 -43l192 -481 q4 -11 6 -12l4 3q1 2 4 9l199 485q17 39 43 41h35q43 0 75 4q8 0 8 -24l-2 -19q-2 -5 -6 -6q-50 0 -61 -35l-5 -26l-1 -17l4 -491q0 -43 25 -57q17 -9 46 -9q7 0 7 -24l-3 -19q-1 -6 -4 -6q-34 4 -125 4q-84 0 -116 -4q-7 0 -8 24l2 19q3 6 6 6q65 0 65 66l-2 358 q0 11 -2 11l-4 -2l-4 -7l-195 -471q-6 -12 -21 -12q-16 0 -21 14l-195 516q-4 10 -8 11l-2 -3q-2 -4 -2 -12l-23 -403l3 -22q11 -44 72 -44q7 0 7 -24l-3 -19q-1 -6 -4 -6q-34 4 -99 4q-52 0 -85 -4q-8 0 -8 24z" />
<glyph unicode="&#x25fc;" horiz-adv-x="855" d="M0 0v855h855v-855h-855z" />
</font>
</defs>
</svg>
