<?xml version="1.0" standalone="no"?>
<!DOCTYPE svg PUBLIC "-//W3C//DTD SVG 1.1//EN" "http://www.w3.org/Graphics/SVG/1.1/DTD/svg11.dtd" >
<svg xmlns="http://www.w3.org/2000/svg">
<metadata></metadata>
<defs>
<font id="junicodeitaliccondensed" horiz-adv-x="764" >
<font-face units-per-em="2048" ascent="1638" descent="-410" />
<missing-glyph horiz-adv-x="447" />
<glyph unicode="&#x2e;&#x2e;&#x2e;" horiz-adv-x="1638" d="M58 92q0 43 25.5 81t73.5 38t71.5 -38.5t23.5 -87t-26.5 -79.5t-72.5 -31t-70.5 37t-24.5 80zM615 92q0 43 25.5 81t73.5 38t71.5 -38.5t23.5 -87t-26.5 -79.5t-72.5 -31t-70.5 37t-24.5 80zM1164 92q0 43 25.5 81t73.5 38t71.5 -38.5t23.5 -87t-26.5 -79.5t-72.5 -31 t-70.5 37t-24.5 80z" />
<glyph unicode="&#xfb01;" horiz-adv-x="745" d="M-244 -446q0 31 16 55t34 24q50 0 71 -50t51 -50t64.5 55.5t43.5 114.5l162 1044h-146q-6 0 -6 15t9 39t19 24h136q33 205 71 345t120.5 217t192.5 77q66 0 109 -45.5t43 -120.5q0 -96 -53 -96q-19 0 -39.5 18t-20.5 54q0 121 -81.5 121t-131 -99t-67.5 -192t-46 -279 h261q41 0 80.5 13.5t42.5 13.5q10 0 10 -8q0 -6 -2 -13l-142 -628q-8 -35 -8 -67q0 -34 26.5 -34t102.5 95q2 2 6.5 2t15.5 -13.5t11 -20.5t-1 -9q-34 -51 -103 -117t-129 -66q-43 0 -43 87q0 36 9 77l98 434q16 71 16 99q0 77 -50 77h-214l-133 -858q-15 -93 -45.5 -203.5 t-91 -173.5t-147.5 -63q-51 0 -86 36.5t-35 68.5z" />
<glyph unicode="&#xfb02;" horiz-adv-x="740" d="M-242 -446q0 31 15 55t35 24q50 0 70.5 -50t51.5 -50q29 0 63.5 53.5t44.5 116.5l164 1060h-148q-6 0 -6 14.5t9 39.5t18 25h139q16 109 51 268t117.5 256.5t211.5 97.5q44 0 78 -18q23 7 59.5 24t43.5 17t7 -11l-232 -1267q-5 -31 -5 -63q0 -33 22 -33q40 0 105 94 q8 13 23 -8.5t10 -28.5q-143 -197 -222 -197q-48 0 -48 99q0 32 6 63l114 628h-257l-136 -874q-13 -86 -46.5 -205t-99 -177t-138.5 -58q-51 0 -85.5 36.5t-34.5 68.5zM310 842h260l66 358q6 37 6 67q0 128 -93 128q-77 0 -126 -94.5t-67.5 -186.5t-45.5 -272z" />
<glyph unicode="&#xfb03;" horiz-adv-x="1117" d="M-244 -446q0 31 16 55t34 24q47 0 69.5 -50t52.5 -50t65 55q34 55 43 115l162 1044h-148q-5 0 -5 15t8.5 39t18.5 24h138q52 335 116 449q95 168 267 168q43 0 84.5 -26t60.5 -70q89 118 230 118q66 0 109.5 -47t43.5 -119q0 -96 -55 -96q-20 0 -40 18t-20 54 q0 121 -83 121q-141 0 -201 -318q-5 -30 -40 -252h256q40 0 80 13.5t49 13.5q5 0 5 -11l-4 -13q-12 -59 -50 -225l-89 -400q-9 -39 -9 -61q0 -40 25 -40q29 0 105 95q2 2 7.5 2t16 -13t10.5 -20t-1 -8q-27 -46 -99 -115.5t-134 -69.5q-43 0 -43 87q0 38 9 77l98 434 q16 71 16 105q0 71 -52 71h-208l-131 -829q-15 -99 -52 -224t-107 -170.5t-122 -45.5q-53 0 -88.5 37t-35.5 69q0 33 15.5 55.5t35.5 22.5q47 0 69 -50t59 -50q22 0 57 56t44 114l159 1015h-279l-133 -858q-16 -104 -53.5 -222t-95.5 -168t-135 -50q-51 0 -86 36.5t-35 68.5 zM306 825h279q48 303 95 426q-33 125 -124 125q-147 0 -211 -313q-7 -33 -39 -238z" />
<glyph unicode="&#xfb04;" horiz-adv-x="1114" d="M-244 -446q0 31 16 55t34 24q49 0 70.5 -50t51.5 -50t64.5 55.5t43.5 114.5l163 1060h-145q-6 0 -6 15.5t9 39.5t18 24h137q50 320 114 432q95 168 267 168q43 0 84.5 -26t60.5 -70q89 118 230 118q42 0 74 -19q22 8 58 25t45 17t9 -14l-230 -1264q-6 -28 -6 -47 q0 -49 21 -49q40 0 107 94q2 3 7.5 3t16 -12.5t10.5 -19t-2 -8.5q-140 -197 -221 -197q-48 0 -48 107q0 27 5 55l115 628h-258l-132 -845q-15 -100 -51.5 -219.5t-102 -170t-127.5 -50.5q-53 0 -88.5 37t-35.5 69q0 33 15.5 55.5t35.5 22.5q49 0 70 -50t58 -50q22 0 57.5 57 t43.5 113l160 1031h-278l-135 -874q-15 -103 -51.5 -219.5t-94.5 -168.5t-138 -52q-51 0 -86 36.5t-35 68.5zM308 842h279q45 286 93 409q-33 125 -124 125q-145 0 -210 -307q-12 -59 -38 -227zM683 842h259l68 358q6 40 6 70q0 125 -95 125q-136 0 -199 -320 q-8 -38 -39 -233z" />
<glyph horiz-adv-x="0" />
<glyph unicode="&#xd;" horiz-adv-x="682" />
<glyph unicode=" "  horiz-adv-x="447" />
<glyph unicode="&#x09;" horiz-adv-x="447" />
<glyph unicode="&#xa0;" horiz-adv-x="447" />
<glyph unicode="!" horiz-adv-x="416" d="M58 82.5q0 50.5 24.5 89.5t69.5 39t73.5 -34.5t28.5 -86.5t-28 -83.5t-65.5 -31.5t-70 28.5t-32.5 79zM206 432l148 854q7 38 37.5 75.5t65.5 37.5q63 0 63 -70q0 -27 -7 -51l-254 -842q-5 -17 -29 -17t-24 13z" />
<glyph unicode="&#x22;" horiz-adv-x="606" d="M286 944q11 55 32 242q20 187 24 209q20 86 97 86q59 0 59 -54q0 -19 -4 -30q-56 -157 -152 -453h-56zM549 944q10 55 31 242q20 187 25 209q19 86 87 86q69 0 69 -54q0 -12 -4 -30q-64 -174 -154 -453h-54z" />
<glyph unicode="#" horiz-adv-x="819" d="M149 401l34 99h174l109 336h-180l39 100h173l115 354h77l-116 -354h184l114 354h78l-116 -354h164l-33 -100h-164l-111 -336h160l-34 -99h-156l-129 -395h-71l126 395h-186l-130 -395h-68l126 395h-179zM430 500h186l110 336h-185z" />
<glyph unicode="$" horiz-adv-x="740" d="M48 88q0 154 25 269q5 19 30.5 19t23.5 -16q-5 -34 -5 -53q0 -198 164 -236l124 534q-119 70 -157.5 130t-38.5 152q0 173 109.5 295t250.5 130l40 171q4 15 35 15t28 -15l-40 -173q25 0 91.5 -17.5t79.5 -17.5q-2 -104 -27 -246q-3 -18 -28 -18t-25 16l-1 56 q-2 131 -106 160l-113 -487q107 -50 150.5 -109.5t43.5 -156.5q0 -180 -112 -330t-259 -163l-45 -192q-3 -16 -34 -16t-27 16l44 192q-100 6 -221 91zM326 950q0 -107 126 -168q101 434 108 468q-98 0 -166 -88t-68 -212zM346 65q92 2 160 101.5t68 215.5t-109 190z" />
<glyph unicode="%" horiz-adv-x="1538" d="M230 848q0 166 130 337.5t266 171.5q157 0 188 -166q60 -26 112 -26q215 0 391 256q6 9 34 9t26 -9l-961 -1541q-6 -10 -45 -10t-34 10l818 1307l-4 4q-116 -80 -214 -80q-60 0 -116 22v-14q0 -180 -114.5 -369.5t-255.5 -189.5q-119 0 -170 82t-51 206zM338 770 q0 -151 108 -151q116 0 213.5 178t97.5 331q0 19 -2 39q-72 49 -100 129q-68 0 -140.5 -97.5t-124.5 -218.5t-52 -210zM883 247q0 166 129.5 338t261.5 172q102 0 151 -64.5t49 -173.5q0 -181 -114.5 -370.5t-256.5 -189.5q-115 0 -167.5 80.5t-52.5 207.5zM990 169 q0 -151 108 -151q116 0 214 178t98 339t-105 161q-92 0 -203.5 -202t-111.5 -325z" />
<glyph unicode="&#x26;" horiz-adv-x="1261" d="M114 385q0 101 37 226t147 252.5t216 127.5q43 0 62 -17t42 -65q96 97 193 237t97 234q0 32 -19 59.5t-19 47.5q0 42 21.5 64t44.5 22q75 0 75 -111q0 -321 -788 -1003v-17q0 -173 85.5 -263.5t198.5 -90.5q112 0 231.5 96.5t187.5 275.5t74 384q-33 35 -84 35 q-50 0 -85.5 -44t-35.5 -75.5t12 -75.5t12 -63q0 -58 -53 -58q-71 0 -71 82q0 108 93.5 213t180.5 105q43 0 85.5 -27.5t107 -107.5t98.5 -80q31 0 31 63q0 18 -13 81q0 27 18 40.5t34 13.5q61 0 61 -117q0 -89 -43 -104q-21 -6 -70.5 -25t-92.5 -43q-4 -2 -12 -2t-18 17 q-50 87 -113 147q0 -86 -6.5 -180t-64.5 -255.5t-192 -287t-312 -125.5q-162 0 -257.5 112.5t-95.5 301.5zM226 539q176 151 268 252q1 24 1 49q0 63 -54 63q-31 0 -85 -54.5t-87 -146.5t-43 -163z" />
<glyph unicode="'" horiz-adv-x="337" d="M285 944q18 180 54 451q19 86 95 86q61 0 61 -55q0 -11 -4 -29q-58 -163 -152 -453h-54z" />
<glyph unicode="(" horiz-adv-x="540" d="M107 211q0 170 50 388.5t193 477.5t341 439q16 14 32 14t22.5 -10t5 -23.5t-21.5 -32.5q-154 -150 -274.5 -368t-179.5 -472t-59 -436q0 -267 114 -475q5 -11 5 -27.5t-14 -29t-29 -11t-25 16.5q-160 251 -160 549z" />
<glyph unicode=")" horiz-adv-x="540" d="M-151 -319q1 11 21 30q182 182 295 404t166.5 453t53.5 419q0 264 -115 475q-9 16 -2 42t31.5 26t33.5 -14q160 -253 160 -558q0 -172 -52 -398t-205.5 -482.5t-327.5 -415.5q-18 -16 -32 -16t-21 12t-6 23z" />
<glyph unicode="*" horiz-adv-x="645" d="M48 904l218 140l-172 142l39 62l172 -141l47 277h58l-48 -279l223 144l18 -62l-222 -143l172 -141l-39 -62l-173 141l-49 -288h-58l49 287l-217 -139z" />
<glyph unicode="+" horiz-adv-x="819" d="M95 371v100h267v336h96v-336h268v-100h-268v-371h-96v371h-267z" />
<glyph unicode="," horiz-adv-x="416" d="M-72 -346q0 5 3 8q67 62 124 133.5t75 147.5q2 11 2 32t-14 29q-67 39 -67 104q0 51 35 89.5t83 38.5q50 0 76.5 -43.5t26.5 -88.5q0 -76 -38.5 -163.5t-119.5 -175t-167 -134.5q-1 -1 -4 -1q-7 0 -11 8.5t-4 15.5z" />
<glyph unicode="-" horiz-adv-x="661" d="M133 506q0 19 11 57.5t20 38.5h458q5 0 5 -21.5t-12 -57.5t-19 -36h-458q-5 0 -5 19z" />
<glyph unicode="." horiz-adv-x="416" d="M58 92q0 43 25.5 81t73.5 38t71.5 -38.5t23.5 -87t-26.5 -79.5t-72.5 -31t-70.5 37t-24.5 80z" />
<glyph unicode="/" horiz-adv-x="432" d="M-8 19q0 8 2 14l488 1440q4 15 26 15t38.5 -18.5t16.5 -26t-1 -13.5l-490 -1442q-5 -15 -26.5 -15t-37.5 19t-16 27z" />
<glyph unicode="0" d="M94 338q0 149 49.5 376.5t172 423t287.5 195.5q218 0 218 -356q0 -153 -47 -369t-171.5 -420t-289.5 -204q-219 0 -219 354zM218 281q0 -230 107 -230t184.5 172t133 434t55.5 437q0 174 -107 174q-103 0 -185.5 -182t-135 -428t-52.5 -377z" />
<glyph unicode="1" d="M108 7q0 15 4 28.5t17 13.5q101 0 135.5 34t65.5 177l186 871q4 18 4 27q0 18 -10 18t-22 -7l-114 -57q-11 -6 -13.5 16.5t7.5 28.5q129 70 302 209q11 8 18.5 8t7.5 -10q-28 -98 -45 -176l-198 -926q-22 -100 -22 -144t25.5 -56.5t93.5 -12.5q8 0 8 -15t-4 -28.5 t-16 -13.5q-68 8 -211 8t-211 -8q-8 0 -8 15z" />
<glyph unicode="2" d="M-54 22q0 16 12 27q227 233 382 423.5t234.5 332t79.5 243.5q0 82 -37 120t-91 38q-117 0 -236 -182q-4 -5 -14.5 -5t-18.5 12t-8 16.5t1 6.5q72 117 170 198t203 81q86 0 135 -65t49 -166q0 -142 -95 -295.5t-545 -626.5q-18 -20 -18 -31.5t21 -11.5h238q127 0 190 57 q28 25 52 66q3 7 22.5 7t19.5 -19q0 -3 -1 -4l-126 -219q-19 -33 -49 -33q-98 8 -268 8t-274 -8q-28 0 -28 30z" />
<glyph unicode="3" d="M35 102q0 47 30 73t56 26q25 0 63 -74t101 -74q101 0 182 146.5t81 283.5q0 207 -172 207q-53 0 -94 -16q-6 0 -6 22.5t9 40t14 17.5q131 0 236.5 91t105.5 240q0 71 -32.5 106.5t-81.5 35.5q-95 0 -195 -137q-2 -3 -11 -3t-16.5 14.5t-7.5 19.5t2 10q152 202 304 202 q78 0 122.5 -56.5t44.5 -143.5q0 -224 -212 -351q-32 -19 -32 -26.5t20 -13.5q145 -41 145 -218q0 -212 -146 -379.5t-328 -167.5t-182 125z" />
<glyph unicode="4" d="M35 419.5q0 28.5 58 100.5l241 301q296 369 466 604q11 12 42.5 12t31.5 -24v-6l-710 -897q-11 -14 -11 -23.5t18 -9.5h311q16 0 21 21l95 444q4 15 64 15t60 -15l-96 -444q-4 -21 12 -21h95q6 0 6 -23t-9.5 -43t-15.5 -20h-95q-16 0 -20 -20l-53 -244q-2 -11 -2 -21 q0 -57 81 -57q8 0 8 -15.5t-4 -28.5t-16 -13q-68 8 -172 8t-172 -8q-8 0 -8 16t4 28.5t16 12.5q126 0 143 78l52 244q4 20 -12 20h-382q-47 0 -47 28.5z" />
<glyph unicode="5" d="M29 84q0 55 30.5 82t56.5 27q27 0 71.5 -62.5t95.5 -62.5q112 0 202.5 151.5t90.5 300.5q0 223 -207 223q-45 0 -107 -19q-18 -5 -18 12q0 11 4 22l186 530q12 29 33 29h377q3 -1 3 -13.5t-25 -71t-36 -58.5h-307q-23 0 -33 -27l-84 -234q-9 -26 7 -23q33 5 64 5 q273 0 273 -289q0 -203 -149 -412.5t-359 -209.5q-67 0 -118 25t-51 75z" />
<glyph unicode="6" d="M94 287q0 141 62.5 326t247.5 413t427 352q9 4 14 -4t5 -24.5t-8 -20.5q-128 -78 -227 -175t-178 -222t-143 -303q153 137 251 137q81 0 129 -71.5t48 -184.5q0 -203 -126 -364.5t-286 -161.5q-216 0 -216 303zM221 264q0 -201 125 -201q101 0 170 121.5t69 255.5 q0 213 -135 213q-90 0 -183 -110q-46 -141 -46 -279z" />
<glyph unicode="7" d="M117 -2q0 1 25.5 40.5t116.5 199.5l511 901q13 26 13 34.5t-24 8.5h-171q-131 0 -173 -13.5t-78.5 -45t-65.5 -85.5q-7 -14 -29.5 -14t-17.5 14l95 248q12 31 39 31h545q27 0 27 -13.5t-14 -39.5l-678 -1264q-9 -15 -65 -15t-56 13z" />
<glyph unicode="8" d="M75 223q0 266 304 445q-125 126 -125 256q0 166 109.5 287.5t226.5 121.5t170.5 -56.5t53.5 -141.5q0 -273 -261 -424q143 -137 143 -305q0 -167 -121 -294.5t-253 -127.5q-122 0 -184.5 67t-62.5 172zM206 243q0 -87 40.5 -139.5t105.5 -52.5q88 0 151 88t63 199 q0 133 -150 287q-106 -69 -158 -171.5t-52 -210.5zM365 1026q0 -68 28.5 -123.5t124.5 -148.5q176 129 176 331q0 82 -34 127t-94 45q-77 0 -139 -71.5t-62 -159.5z" />
<glyph unicode="9" d="M77.5 -3q-0.5 25 6.5 30q229 145 346 302t191 357q-130 -135 -237 -135q-88 0 -140 74.5t-52 164.5q0 114 41 225t137.5 214.5t229.5 103.5q109 0 165.5 -81t56.5 -215q0 -156 -66 -337.5t-238 -389t-420 -345.5h-8q-12 7 -12.5 32zM330 871q0 -101 35.5 -155t95.5 -54 q89 0 186 112q47 141 47 279q0 198 -129 198q-99 0 -167 -125.5t-68 -254.5z" />
<glyph unicode=":" horiz-adv-x="448" d="M90 95q0 44 26 80t74.5 36t71.5 -38.5t23 -87.5t-27.5 -79t-73.5 -29.5t-70 37.5t-24 81zM230 734q0 44 26 80t74 36t71 -38t23 -87t-27.5 -79t-73 -30t-69.5 37t-24 81z" />
<glyph unicode=";" horiz-adv-x="448" d="M-39 -346q0 5 3 8q67 62 124 133.5t74 147.5q3 11 3 32t-15 29q-66 39 -66 104q0 51 35 89.5t83 38.5q49 0 76 -43.5t27 -88.5q0 -76 -38.5 -163.5t-119.5 -175t-167 -134.5q-2 -1 -4 -1q-7 0 -11 8.5t-4 15.5zM205 734q0 44 26 80t74.5 36t71 -38t22.5 -87t-27.5 -79 t-73 -30t-69.5 37t-24 81z" />
<glyph unicode="&#x3c;" horiz-adv-x="819" d="M92 375v92l637 379v-119l-519 -303v-4l519 -305v-117z" />
<glyph unicode="=" horiz-adv-x="819" d="M95 330v100h631v-100h-631zM95 596v100h631v-100h-631z" />
<glyph unicode="&#x3e;" horiz-adv-x="819" d="M90 -2v117l520 305v4l-520 303v119l637 -379v-92z" />
<glyph unicode="?" horiz-adv-x="542" d="M60 92q0 43 25.5 81t74 38t71.5 -38.5t23 -87t-26.5 -79.5t-72 -31t-70.5 37t-25 80zM194 575q0 137 132 213l96 56q136 78 136 211q0 139 -194 139q-13 0 -26 19.5t-13 46.5q0 44 28.5 73t60.5 29q83 0 143.5 -94t60.5 -209t-42 -206t-79 -112l-153 -88q-70 -40 -80 -90 q-13 -45 -14 -125q0 -13 -18 -17.5t-19 5.5q-19 88 -19 149z" />
<glyph unicode="@" horiz-adv-x="1244" d="M90 600q0 348 192 566t456 218q224 0 353.5 -156.5t129.5 -369.5q0 -212 -117 -356t-308 -144q-65 0 -81.5 15.5t-16.5 45.5t40 177l-8 4q-143 -239 -242 -239q-74 0 -74 126q0 157 102.5 342t222.5 185q44 0 79 -41l15 56q4 14 37 14q37 0 33 -18l-113 -492 q-10 -47 -10 -75q0 -32 38 -32q142 0 237 114.5t95 315.5q0 200 -121 329.5t-307 129.5q-235 0 -377 -208.5t-142 -504.5q0 -242 126.5 -402.5t361.5 -160.5q121 0 255 72q3 1 8.5 -6t6.5 -18.5t-3 -14.5q-133 -105 -316 -105q-223 0 -387.5 165t-164.5 468zM503 513 q0 -70 35 -70q44 0 134 128q78 111 102 217l28 114q-27 63 -79 63q-83 0 -151.5 -168t-68.5 -284z" />
<glyph unicode="A" horiz-adv-x="886" d="M-106 13q0 20 9 38t14 18q61 0 101 22t88 110l539 998q13 23 13 38q0 7 -6.5 18t-6.5 18q0 10 20 20q78 39 116 65.5t51 26.5q12 0 12 -18q0 -7 -7 -45t-16 -143l-94 -993q-1 -7 -1 -21q0 -96 116 -96q6 0 6 -21t-9 -38t-13 -17q-71 7 -171 7t-169 -7q-7 0 -6.5 20.5 t9.5 38t14 17.5q65 0 87.5 30.5t27.5 86.5l30 310q3 35 -22 35h-248q-25 0 -39 -25l-168 -324q-18 -35 -18 -58q0 -55 105 -55q6 0 6 -21t-9 -38t-13 -17q-69 7 -170.5 7t-170.5 -7q-7 0 -7 20zM396 609.5q0 -9.5 15 -9.5h220q26 0 28 29l50 530q1 9 -9 9t-15 -9l-283 -530 q-6 -10 -6 -19.5z" />
<glyph unicode="B" horiz-adv-x="973" d="M17 13q0 20 8.5 38t13.5 18q85 0 120.5 23.5t51.5 93.5l227 986q4 17 4 37q0 47 -34 60t-96 13q-6 0 -6 21t8.5 38t13.5 17q128 -4 185 -4t110 2t100 2q137 0 210 -76.5t73 -186.5q0 -158 -70 -244.5t-209 -117.5q-9 -2 -9 -7.5t9 -9.5q199 -83 199 -326 q0 -162 -109 -279.5t-377 -117.5q-50 0 -108.5 3.5t-136 3.5t-172.5 -7q-6 0 -6 20zM330 167q0 -110 113 -110q165 0 263 94.5t98 270.5q0 134 -73.5 203.5t-200.5 69.5q-88 0 -101 -59l-82 -359q-17 -72 -17 -110zM465 783q0 -30 76 -30q159 0 256 92.5t97 228.5 q0 119 -70 175t-202 56q-40 0 -56 -75l-100 -435q-1 -10 -1 -12z" />
<glyph unicode="C" horiz-adv-x="1176" d="M172 458q0 355 232.5 641t514.5 286q118 0 191 -21.5t148 -36.5q-12 -158 -47 -308q-6 -17 -31.5 -17t-24.5 12q7 60 7 78q0 102 -60 162t-195 60q-254 0 -429.5 -273t-175.5 -582q0 -176 82 -293.5t220 -117.5q140 0 234.5 55t133 115.5t56.5 98.5q6 10 29 10t23 -19 q0 -20 -57 -132t-77 -140q-27 -5 -65 -17q-139 -46 -311 -46t-285 130t-113 355z" />
<glyph unicode="D" horiz-adv-x="1211" d="M17 13q0 20 8.5 38t13.5 18q71 0 104 15q51 25 68 102l227 986q4 22 4 36q0 74 -130 74q-6 0 -6 21t8.5 38t13.5 17q106 -4 201.5 -4t160 2t124.5 2q197 0 318 -119t121 -335q0 -327 -213.5 -619t-501.5 -292q-77 0 -165.5 3.5t-166 3.5t-183.5 -7q-6 0 -6 20zM333 177 q0 -124 164 -124q245 0 435.5 264.5t190.5 562.5q0 182 -98.5 299t-292.5 117q-76 0 -102.5 -7t-45 -33t-30.5 -77l-203 -881q-18 -78 -18 -121z" />
<glyph unicode="E" horiz-adv-x="1004" d="M17 11q0 18 8.5 38t13.5 20q76 0 114.5 21t56.5 96l226 986q3 14 3 33q0 77 -125 77q-7 0 -7 19.5t9 38t14 18.5q106 -4 220 -4t261.5 2t262.5 2q50 0 50 -22q0 -5 -2 -16l-71 -310q-3 -14 -34.5 -14t-29.5 14q9 56 9 78q0 95 -51 142t-102 50q-170 9 -242 9 q-23 0 -28 -22l-128 -554q-2 -9 -2 -15q0 -22 23 -22h154q55 0 73 12q28 18 41 76l21 100q3 15 32 15t27 -15q-70 -251 -99 -428q-3 -15 -30 -15t-23 16l20 90q5 25 5 39q0 41 -82 41h-159q-26 0 -32 -26l-64 -281q-22 -94 -22 -140q0 -99 91 -99l192 8q186 8 263 275 q4 14 36.5 14t29.5 -14l-75 -325q-6 -26 -23 -26q-36 0 -231.5 3.5t-338 3.5t-249.5 -7q-6 0 -6 18z" />
<glyph unicode="F" horiz-adv-x="973" d="M17 11q0 18 8.5 38t13.5 20q76 0 108 18q45 24 63 99l226 986q3 14 3 33q0 77 -125 77q-7 0 -7 19.5t9 38t14 18.5q100 -4 177.5 -4t278.5 2t288 2q50 0 50 -22q0 -5 -2 -16l-71 -310q-3 -14 -34.5 -14t-29.5 14q9 56 9 78q0 92 -51 140.5t-102 51.5q-170 9 -242 9 q-23 0 -28 -22l-119 -514q-2 -7 -2 -19q0 -18 23 -18h124q97 0 126 130l25 117q3 14 29.5 14t25.5 -14q-23 -73 -70.5 -284.5t-59.5 -283.5q-3 -15 -31.5 -15t-25.5 15l28 117q6 23 6 47q0 81 -70 81h-128q-26 0 -32 -27l-96 -427q-5 -21 -5 -38q0 -79 131 -79q6 0 6 -21.5 t-8.5 -38t-13.5 -16.5q-69 7 -197.5 7t-215.5 -7q-6 0 -6 18z" />
<glyph unicode="G" horiz-adv-x="1180" d="M174 454q0 342 229 636.5t501 294.5q136 0 238.5 -29t115.5 -29q0 -105 -47 -308q-4 -18 -30.5 -18t-25.5 13q4 31 4 62q0 124 -72 181t-205 57q-239 0 -408.5 -267.5t-169.5 -571.5q0 -173 83 -300t237 -127q244 0 272 125l42 190q8 32 8 49q0 42 -34.5 54t-129.5 12 q-5 0 -5 20.5t9 38t15 17.5q60 -5 208 -5t197 5q6 0 6 -19.5t-9.5 -38t-15.5 -18.5q-75 0 -99 -21.5t-40 -93.5l-52 -230q-5 -21 -5 -36.5t14 -18.5t14 -15q0 -32 -17 -32q-30 0 -142 -20t-164 -29t-119 -9q-177 0 -290 130.5t-113 350.5z" />
<glyph unicode="H" horiz-adv-x="1202" d="M17 11q0 18 8.5 38t13.5 20q94 0 126 31t45 86l226 986q4 17 4 35q0 80 -125 80q-6 0 -6 19.5t8.5 38t13.5 18.5q37 -5 204 -5t204 5q7 0 7 -19.5t-9 -38t-14 -18.5q-93 0 -126 -29.5t-46 -85.5l-89 -392q-5 -19 -5 -30t23 -11h437q27 0 37 41l90 392q4 17 4 35 q0 80 -125 80q-6 0 -6 21.5t8.5 38t14.5 16.5q60 -5 202.5 -5t204.5 5q7 0 7 -21t-9 -38t-14 -17q-85 0 -121 -26t-51 -89l-225 -986q-5 -21 -5 -34q0 -83 125 -83q7 0 7 -18t-9 -38t-14 -20q-71 7 -198.5 7t-208.5 -7q-5 0 -5 19.5t8.5 38t13.5 18.5q86 0 120.5 27t49.5 90 l100 441q4 15 4 25.5t-24 10.5h-437q-26 0 -34 -36l-101 -441q-5 -21 -5 -35q0 -82 125 -82q6 0 6 -21.5t-9 -38t-14 -16.5q-68 7 -205.5 7t-200.5 -7q-6 0 -6 18z" />
<glyph unicode="I" horiz-adv-x="583" d="M17 13q0 20 8.5 38t13.5 18q71 0 112.5 21.5t58.5 95.5l226 986q4 22 4 35q0 80 -125 80q-6 0 -6 21t8.5 38t13.5 17q37 -5 204 -5t204 5q7 0 7 -21t-9 -38t-14 -17q-91 0 -124.5 -27.5t-47.5 -87.5l-225 -986q-5 -20 -5 -34q0 -83 125 -83q6 0 6 -21.5t-9 -38t-14 -16.5 q-69 7 -203 7t-203 -7q-6 0 -6 20z" />
<glyph unicode="J" horiz-adv-x="576" d="M-212 -330.5q0 45.5 29.5 80t84.5 34.5q43 0 69 -34t26 -67q64 25 115.5 127.5t215.5 823.5l122 538q4 18 4 29q0 86 -128 86q-7 0 -7 21.5t9 38t14 16.5q38 -5 193.5 -5t213.5 5q6 0 6 -20.5t-8.5 -38t-14.5 -17.5q-79 0 -114.5 -26.5t-50.5 -88.5l-240 -1012 q-68 -289 -196.5 -434t-258.5 -145q-25 0 -54.5 21.5t-29.5 67z" />
<glyph unicode="K" horiz-adv-x="1040" d="M17 13q0 20 8.5 38t13.5 18q99 0 129 33t42 84l226 986q5 21 5 39q0 76 -127 76q-8 0 -8 22.5t8.5 38t13.5 15.5q38 -5 205.5 -5t204.5 5q6 0 6 -21t-9 -38t-13 -17q-96 0 -127.5 -30.5t-43.5 -84.5l-102 -443q-2 -6 -2 -11t8 -5q33 0 118 97l320 365q49 57 49 87 q0 25 -38 25q-6 0 -6 21.5t9 38t15 16.5q36 -5 153 -5t154 5q6 0 6 -20.5t-8.5 -38t-14.5 -17.5q-80 0 -129.5 -27.5t-123.5 -109.5l-357 -403q-8 -8 -8 -19q0 -10 4 -19l212 -536q25 -64 65.5 -84t116.5 -20q10 0 10 -22.5t-8.5 -38t-13.5 -15.5q-70 7 -191.5 7t-190.5 -7 q-6 0 -6 21t9 38t13 17q82 0 82 47q0 25 -18 70l-136 353q-20 51 -48.5 78.5t-47 27.5t-21.5 -20l-99 -439q-6 -21 -6 -40q0 -77 120 -77q6 0 6 -22t-9 -38t-14 -16q-69 7 -200 7t-200 -7q-6 0 -6 20z" />
<glyph unicode="L" horiz-adv-x="1049" d="M17 14.5q0 21.5 10.5 38t16.5 16.5q78 0 113 20.5t51 87.5l230 995q3 17 3 33q0 82 -127 82q-8 0 -8 22.5t8.5 38t13.5 15.5q38 -5 208.5 -5t209.5 5q5 0 5 -21t-8.5 -38t-13.5 -17q-83 0 -121 -20t-55 -95l-206 -895q-17 -77 -17 -118q0 -97 97 -97l267 13 q206 11 275 304q2 14 33 14t31 -14l-81 -352q-6 -26 -15 -30t-58 -4q-138 0 -304.5 3.5t-316.5 3.5t-235 -7q-6 0 -6 21.5z" />
<glyph unicode="M" horiz-adv-x="1542" d="M3 13.5q0 20.5 9 38t14 17.5q56 0 95.5 27.5t56.5 89.5l260 924q13 47 13 83q0 94 -124 94q-6 0 -6 21.5t8.5 38t14.5 16.5q37 -5 110 -5t88 -6q34 -12 41 -67l154 -1008q3 -26 15 -26q11 0 26 24l624 1016q31 51 68 62q16 5 82.5 5t104.5 5q5 0 5 -21t-8 -37t-14 -18 q-77 0 -111 -36.5t-59 -144.5l-212 -920q-4 -22 -4 -36q0 -81 111 -81q5 0 5 -21.5t-9 -38t-14 -16.5q-69 7 -178.5 7t-178.5 -7q-6 0 -6 20.5t9 38t14 17.5q57 0 90.5 30.5t47.5 86.5l193 853q1 3 1 7q0 12 -7.5 12t-16.5 -13l-638 -1041q-7 -12 -16.5 -12t-11.5 14 l-136 1035q-4 30 -16.5 30t-21.5 -30l-237 -855q-6 -22 -6 -39q0 -78 112 -78q6 0 6 -20.5t-9 -38t-14 -17.5q-69 7 -159 7t-159 -7q-6 0 -6 20.5z" />
<glyph unicode="N" horiz-adv-x="1231" d="M17 13q0 20 8.5 38t13.5 18q72 0 110.5 21t55.5 96l211 928q11 50 11 98t-38 65q-24 10 -77 10q-6 0 -6 21t8.5 38t13.5 17q38 -5 104 -5t89 -4.5t37 -41.5l392 -1024q12 -28 24 -28q13 0 19 30l205 882q6 24 6 44q0 71 -119 71q-6 0 -6 20t9.5 38t14.5 18 q38 -5 154.5 -5t154.5 5q6 0 6 -21t-9 -38t-14 -17q-62 0 -93.5 -19.5t-48.5 -95.5l-267 -1168q-8 -33 -21 -33t-25 29l-431 1117q-7 20 -20.5 20t-18.5 -31l-210 -920q-6 -27 -6 -45q0 -72 106 -72q6 0 6 -21t-8.5 -38t-13.5 -17q-69 7 -160.5 7t-160.5 -7q-6 0 -6 20z" />
<glyph unicode="O" horiz-adv-x="1182" d="M174 441q0 361 221 652.5t468 291.5q175 0 269.5 -144.5t94.5 -354.5q0 -350 -220 -631.5t-469 -281.5q-142 0 -253 112t-111 356zM304 456q0 -179 80.5 -294.5t181.5 -115.5q168 0 288.5 148t181.5 344t61 368q0 173 -77.5 290t-194.5 118q-126 0 -252 -133 t-197.5 -328.5t-71.5 -396.5z" />
<glyph unicode="P" horiz-adv-x="947" d="M18 14q0 21 9 38t14 17q72 0 113 24t57 93l227 986q3 14 3 29q0 81 -127 81q-7 0 -7 21t9 38t14 17q80 -3 182.5 -3t152 1.5t110.5 1.5q127 0 207 -75t80 -202q0 -213 -148.5 -352.5t-328.5 -139.5q-57 0 -143 13q-20 3 -25 -19l-90 -397q-5 -21 -5 -38q0 -79 126 -79 q6 0 6 -21t-9 -38t-14 -17q-69 7 -203 7t-203 -7q-7 0 -7 21zM443 698q-1 -5 -1 -10q0 -14 12 -17q51 -13 96 -13q164 0 273 114t109 296q0 103 -61 165.5t-176 62.5t-122 -31z" />
<glyph unicode="Q" horiz-adv-x="1182" d="M174 443q0 353 220 647.5t469 294.5q173 0 268.5 -142t95.5 -357q0 -155 -55.5 -325t-173 -319.5t-243.5 -212.5q-6 -3 -6 -9t3 -11q42 -63 170.5 -150.5t291.5 -142.5q7 -3 7 -21.5t-13 -36.5q-13 -17 -20 -17h-2q-218 57 -427 158t-345 184.5t-188 183.5t-52 276z M304 448q0 -163 77 -282t185 -119q218 0 374.5 267.5t156.5 571.5q0 194 -75.5 310.5t-193.5 117.5q-126 0 -251.5 -130t-199 -332t-73.5 -404z" />
<glyph unicode="R" horiz-adv-x="1086" d="M17 13q0 20 8.5 38t13.5 18q83 0 120 25t52 92l227 986q4 17 4 43q0 67 -130 67q-6 0 -6 21t8.5 38t13.5 17q80 -3 194.5 -3t158.5 1.5t106 1.5q131 0 216.5 -72.5t85.5 -202.5t-79.5 -261.5t-265.5 -196.5q-14 -5 -14 -20.5t4 -31.5q67 -277 183 -453q69 -105 157 -105 q8 0 8 -10q0 -24 -17 -26q-33 -3 -63 -3q-91 0 -142.5 23.5t-103 101t-71.5 144.5l-74 242q-15 52 -40 87q-15 22 -54 22t-63 3.5t-29 -1.5q-6 -6 -8 -15l-90 -397q-5 -25 -5 -43q0 -74 128 -74q6 0 6 -21.5t-8.5 -38t-13.5 -16.5q-69 7 -205.5 7t-205.5 -7q-6 0 -6 20z M442 684.5q0 -9.5 14 -13.5q55 -13 94 -13q168 0 288.5 109t120.5 299q0 102 -67.5 166t-201.5 64q-76 0 -94.5 -7.5t-22.5 -23.5l-130 -567q-1 -4 -1 -13.5z" />
<glyph unicode="S" horiz-adv-x="833" d="M93 73l1 72q9 173 27 220q7 16 31 16t25 -7q-6 -38 -6 -67q0 -129 68 -194t179 -65q91 0 165 106.5t74 230.5q0 156 -123 222l-142 76q-122 64 -122 251q0 186 123.5 318.5t277.5 132.5q86 0 151.5 -20t83.5 -20q-1 -97 -28 -264q-4 -19 -30 -19t-27 17l-1 56 q-14 183 -179 183q-105 0 -178 -95t-73 -227q0 -106 104 -163l194 -103q105 -56 105 -226q0 -201 -129.5 -366t-292.5 -165q-92 0 -142.5 20t-135.5 80z" />
<glyph unicode="T" horiz-adv-x="1020" d="M220 1006l74 321q7 31 62 31q90 0 195 -2t198 -2t201.5 2t228.5 2q58 0 58 -20l-78 -332q-3 -14 -34.5 -14t-29.5 14q12 70 12 98q0 178 -157 178h-107q-33 0 -41 -37l-243 -1059q-4 -17 -4 -37q0 -80 126 -80q5 0 5 -21.5t-8 -38t-13 -16.5q-71 7 -212 7t-210 -7 q-6 0 -6 21t8.5 38t13.5 17q93 0 132.5 28t53.5 89l241 1054q4 18 4 23q0 19 -30 19h-110q-205 0 -268 -276q-3 -14 -31.5 -14t-30.5 14z" />
<glyph unicode="U" horiz-adv-x="1185" d="M236 263q0 102 39 276l145 633q6 29 6 46q0 44 -28 56.5t-84 12.5q-8 0 -8 22.5t8.5 38t13.5 15.5q38 -5 196 -5t194 5q6 0 6 -21.5t-9 -38t-13 -16.5q-102 0 -127.5 -31t-37.5 -84l-112 -485q-71 -316 -71 -419t56 -161t158 -58q159 0 262.5 104t156.5 334l158 685 q5 22 5 41q0 74 -111 74q-5 0 -5 21t8.5 38t13.5 17q56 -5 183 -5t163 5q7 0 7 -21t-9 -38t-14 -17q-70 0 -105.5 -22t-51.5 -93l-64 -282q-88 -387 -146.5 -544t-181 -265t-305.5 -108q-146 0 -221 69.5t-75 220.5z" />
<glyph unicode="V" horiz-adv-x="964" d="M166 1308.5q0 21.5 9 38t15 16.5q44 -5 175 -5t193 5q6 0 6 -20.5t-9 -38t-14 -17.5q-85 1 -111 -29q-24 -27 -24 -68v-6l44 -903q2 -28 11 -28q8 0 21 24l268 498q43 78 196 388q25 50 25 79q0 45 -83 45q-6 0 -6 19.5t8.5 38t13.5 18.5q34 -5 166.5 -5t176.5 5 q6 0 6 -21t-9 -38t-14 -17q-119 -2 -170 -86q-123 -201 -298 -525l-372 -689q-14 -25 -26 -25t-14 44l-60 1166q-3 70 -28.5 92.5t-89.5 22.5q-6 0 -6 21.5z" />
<glyph unicode="W" horiz-adv-x="1555" d="M172 1306.5q0 19.5 9 38t13 18.5q37 -5 167 -5t189 5q6 0 6 -19.5t-9 -38t-13 -18.5q-129 0 -129 -78q0 -19 3 -37l159 -920q5 -26 17 -26q11 0 26 24l192 340q19 34 19 62q0 29 -3 48l-80 472q-13 77 -31.5 96t-70.5 19q-6 0 -6 19.5t8.5 38t13.5 18.5q37 -5 164 -5 t177 5q6 0 6 -21t-8.5 -37t-13.5 -18q-129 0 -129 -78q0 -18 3 -37l56 -325q5 -32 11 -32q5 0 20 32l165 316q27 49 27 83q0 41 -84 41q-7 0 -7 19.5t9 38t14 18.5q37 -5 164 -5t178 5q6 0 6 -21t-8 -37t-14 -18q-121 0 -170 -86l-254 -438q-24 -41 -24 -71t2 -45l68 -395 q5 -27 16 -27q12 0 27 25q149 244 493 913q27 54 27 83q0 41 -84 41q-7 0 -7 19.5t9 38t14 18.5q37 -5 170 -5t172 5q7 0 7 -21t-9 -38t-14 -17q-118 0 -170 -86q-125 -201 -299 -515l-387 -699q-12 -23 -23 -23q-10 0 -17 42l-85 505q-4 25 -9 25q-6 0 -19 -25l-290 -524 q-11 -23 -23 -23q-11 0 -17 42l-198 1166q-12 73 -36 94t-80 21q-6 0 -6 19.5z" />
<glyph unicode="X" horiz-adv-x="1084" d="M-72 11q0 18 9 38t13 20q127 0 200 86l426 503q14 15 14 32t-5 32l-142 457q-21 66 -53.5 87t-100.5 21q-7 0 -7 21.5t9.5 38t14.5 16.5q62 -5 175.5 -5t224.5 5q5 0 5 -21.5t-8.5 -38t-12.5 -16.5q-130 0 -130 -74q0 -19 7 -42l99 -347q6 -18 15 -18t22 16l284 341 q52 62 52 93t-61 31q-6 0 -6 19.5t9 38t13 18.5q47 -5 154.5 -5t165.5 5q6 0 6 -21t-8.5 -37t-13.5 -18q-76 0 -136 -39.5t-158 -155.5l-289 -343q-13 -15 -13 -32t4 -28l147 -503q33 -117 165 -117q5 0 5 -24t-8.5 -38t-13.5 -14q-72 7 -177.5 7t-189.5 -7q-6 0 -6 19.5 t9 38t13 18.5q109 0 109 64q0 24 -10 58l-123 398q-5 19 -14 19q-8 0 -22 -16l-241 -290q-110 -131 -110 -187q0 -46 75 -46q5 0 5 -21.5t-8.5 -38t-14.5 -16.5q-65 7 -175 7t-187 -7q-6 0 -6 18z" />
<glyph unicode="Y" horiz-adv-x="982" d="M211 1308q0 21 9 38t14 17q36 -5 172 -5t175 5q5 0 5 -21t-8.5 -38t-13.5 -17q-78 0 -96 -20t-18 -45q0 -21 7 -50l121 -483q4 -18 12 -18t20 15l356 477q40 54 40 84q0 40 -80 40q-6 0 -6 21.5t9 38t14 16.5q53 -5 154 -5t161 5q6 0 6 -20.5t-9 -38t-14 -17.5 q-74 0 -115 -28.5t-169 -199.5l-305 -406q-46 -61 -70 -166l-68 -301q-8 -32 -8 -60t27.5 -42.5t84.5 -14.5q7 0 7 -21t-9 -38t-14 -17q-69 7 -190.5 7t-189.5 -7q-6 0 -6 21t9 38t13 17q76 0 110 20t51 97l61 266q22 94 22 128.5t-19 108.5l-121 483q-19 78 -51.5 96.5 t-73.5 18.5q-6 0 -6 21z" />
<glyph unicode="Z" horiz-adv-x="959" d="M-44 20q0 20 9 31l989 1216q7 9 7 15.5t-16 6.5h-458q-34 0 -73 -35.5t-94 -128.5q-51 -87 -78 -151q-5 -12 -21.5 -5t-13.5 19q58 169 107 357q5 22 22 22q3 0 6 -1l23 -4q62 -12 192 -12h11q138 0 266 4l300 8q13 0 13 -15t-13 -31l-973 -1205q-7 -8 -7 -25t18 -17 q343 0 516 13q96 7 230 270q5 8 22.5 1t13.5 -17q-69 -161 -116 -343q-6 -26 -17 -26h-2l-41 12q-73 21 -524 21h-282q-16 0 -16 20z" />
<glyph unicode="[" horiz-adv-x="580" d="M66 -341q0 4 1 9l423 1843q3 19 21 19h336q6 0 6 -19t-10.5 -39t-16.5 -20h-221q-19 0 -23 -22l-384 -1678q-6 -28 5 -28h241q6 0 6 -22t-9.5 -39t-14.5 -17h-346q-14 0 -14 13z" />
<glyph unicode="\" horiz-adv-x="573" d="M2 1441q0 26 33 42q15 7 30 7t20 -15l485 -1450q1 -2 1 -6q0 -22 -38 -36q-14 -5 -27 -5t-16 10l-487 1444q-1 6 -1 9z" />
<glyph unicode="]" horiz-adv-x="580" d="M-192 -333.5q0 20.5 6.5 39t15.5 18.5h244q11 0 16 24l387 1682q5 22 -10 22h-223q-7 0 -7 23.5t8.5 39t13.5 15.5h335q13 0 13 -12q0 -3 -1 -7l-423 -1843q-5 -22 -22 -22h-346q-7 0 -7 20.5z" />
<glyph unicode="^" horiz-adv-x="981" d="M170 535l310 837h85l308 -837h-109l-242 681l-241 -681h-111z" />
<glyph unicode="_" horiz-adv-x="819" d="M0 -154h819v-102h-819v102z" />
<glyph unicode="`" horiz-adv-x="455" d="M161 1265q0 20 26.5 41t43 21t22.5 -16l116 -325q4 -12 4 -20q0 -37 -29 -37q-19 0 -33 27l-149 301q-1 2 -1 8z" />
<glyph unicode="a" horiz-adv-x="734" d="M50 141q0 211 139 457t294 246q58 0 107 -56l19 70q6 24 53 24t41 -24l-151 -655q-8 -35 -8 -59q0 -41 26 -41t104 94q7 9 22 -11q11 -13 11 -22q0 -5 -2 -8q-53 -81 -117 -132t-111 -51q-49 0 -49 79q0 56 19 120l35 115l-10 4q-190 -318 -323 -318q-48 0 -73.5 48 t-25.5 120zM169 176q0 -94 47 -94q44 0 124 100.5t125 186.5t66 174l36 151q-34 84 -105 84q-108 0 -200.5 -220t-92.5 -382z" />
<glyph unicode="b" horiz-adv-x="681" d="M78 133q0 39 9 92l182 975q13 67 13 99q0 79 -63 79q-12 0 -12 26t12 26q44 0 109.5 27.5t76.5 27.5q9 0 9 -13q0 -7 -1 -14l-159 -860l16 -6q159 260 277 260q133 0 133 -193q0 -253 -144 -469.5t-342 -216.5q-116 0 -116 160zM182 163q0 -118 79 -118q113 0 209 197.5 t96 359.5q0 152 -68 152q-77 0 -170.5 -160t-119.5 -262.5t-26 -168.5z" />
<glyph unicode="c" horiz-adv-x="539" d="M78 256q0 203 115 399.5t253 196.5q49 0 90 -29.5t41 -68.5q0 -32 -20 -54.5t-41 -22.5q-22 0 -30 19q-7 57 -12 66q-16 26 -71 26q-72 0 -144 -161.5t-73 -302.5q0 -121 30 -191t79 -70q50 0 80.5 21.5t65.5 60.5q4 4 14 0.5t13 -15t-1 -17.5q-112 -140 -226 -140 q-74 0 -118.5 79.5t-44.5 203.5z" />
<glyph unicode="d" horiz-adv-x="766" d="M50 145q0 213 138.5 460t294.5 247q64 0 105 -63l74 411q12 67 12 96q0 82 -61 82q-12 0 -12 26t12 26q56 0 118.5 27.5t66.5 27.5q10 0 10 -13q0 -3 -2 -12l-229 -1251q-6 -29 -6 -47q0 -49 20 -49q41 0 107 94q2 3 12.5 -2t16.5 -18t3 -17q-138 -197 -220 -197 q-48 0 -48 107q0 26 5 55l32 178l-11 11q-82 -149 -171 -250t-168 -101q-49 0 -74 51.5t-25 120.5zM169 180q0 -98 47 -98q56 0 159 144.5t159 277.5l34 184q-35 98 -106 98q-108 0 -200.5 -223t-92.5 -383z" />
<glyph unicode="e" horiz-adv-x="556" d="M77 215q0 191 128 414t269 223q104 0 104 -115q0 -135 -130.5 -244t-253.5 -137q-12 -75 -12 -118q0 -166 88 -166q33 0 67.5 21t112.5 104q6 6 15.5 0.5t10.5 -17t-2 -16.5q-125 -191 -235 -191q-162 0 -162 242zM208 420q99 26 177.5 104t78.5 187q0 61 -43 61 q-59 0 -117 -102.5t-96 -249.5z" />
<glyph unicode="f" horiz-adv-x="383" d="M-244 -446q0 36 17 57.5t33 21.5q48 0 70 -50t58 -50q33 0 62 49.5t40 120.5l163 1060h-145q-6 0 -6 12q0 27 14 54q7 13 13 13h136q58 373 146.5 497.5t236.5 124.5q70 0 111 -47.5t41 -118.5q0 -96 -53 -96q-27 0 -43.5 22.5t-16.5 49.5q0 121 -84 121 q-82 0 -136.5 -111.5t-103.5 -441.5h225q6 0 6 -12q0 -25 -15 -53q-7 -14 -14 -14h-215l-135 -874q-24 -156 -63.5 -254.5t-95.5 -142t-120 -43.5q-57 0 -91.5 36t-34.5 69z" />
<glyph unicode="g" horiz-adv-x="612" d="M-94 -351.5q0 91.5 81 166t193 119.5q-74 44 -74 92q0 58 85 161q-130 42 -130 214.5t110.5 311.5t252.5 139q19 0 49.5 -18t45.5 -20q46 -6 83 -6t96 5q14 1 14 -27q0 -59 -18 -59q-72 0 -156 29q23 -47 23 -125.5t-34 -166.5t-93.5 -158t-155.5 -107q-20 -8 -30 -14 q-50 -32 -50 -80.5t99 -114.5q31 -21 155.5 -108t124.5 -201.5t-125.5 -177t-272.5 -62.5q-117 0 -195 58t-78 149.5zM21 -327.5q0 -77.5 77.5 -120t154.5 -42.5t146 37.5t69 100.5t-97 150t-154.5 87t-126.5 -67.5t-69 -145zM154 321q0 -73 64 -73q91 0 171.5 163.5 t80.5 308.5q0 71 -64 71q-85 0 -168.5 -161t-83.5 -309z" />
<glyph unicode="h" horiz-adv-x="703" d="M61 0l223 1201q13 69 13 103q0 73 -62 73q-12 0 -12 26t12 26q61 0 121.5 27.5t63.5 27.5q13 0 10 -18l-169 -921l8 -10q150 317 297 317q130 0 130 -234q0 -182 -85.5 -413.5t-213.5 -231.5q-38 0 -65 29.5t-27 58.5q0 54 15 77.5t35 23.5q51 0 60 -51.5t35 -51.5 t56.5 70.5t55 202t24.5 237.5q0 174 -60 174q-94 0 -251 -282q-40 -72 -73 -240l-44 -221q-6 -27 -50 -27q-47 0 -47 23v4z" />
<glyph unicode="i" horiz-adv-x="422" d="M89 657q0 3 1 6q30 59 101 124t117 65q45 0 45 -86q0 -37 -9 -76l-110 -487q-8 -39 -8 -61q0 -40 22.5 -40t105.5 93q7 8 21 -9q11 -13 11 -22q0 -3 -1 -6q-16 -35 -94.5 -110t-134.5 -75q-43 0 -43 87q0 38 9 77l109 488q4 18 4 36q0 50 -19.5 50t-93.5 -88 q-8 -9 -23 11q-10 14 -10 23zM273 1100q0 52 27.5 88.5t63.5 36.5q68 0 68 -90q0 -57 -27 -91t-63 -34q-69 0 -69 90z" />
<glyph unicode="j" horiz-adv-x="336" d="M-244 -477q0 29 21 44t45 15t46.5 -24.5t41.5 -24.5q55 0 94.5 66t53.5 141l161 883q4 22 4 36q0 43 -25 43t-84 -92q-9 -14 -28 20q-4 7 -4 13q0 3 1 6q122 203 203 203q49 0 49 -97q0 -30 -5 -61l-102 -555q-21 -112 -62.5 -282.5t-129 -290t-221.5 -119.5 q-25 0 -42 25.5t-17 50.5zM273 1100q0 52 27.5 88.5t63.5 36.5q68 0 68 -90q0 -57 -27 -91t-63 -34q-69 0 -69 90z" />
<glyph unicode="k" horiz-adv-x="714" d="M66 -4l221 1201q13 69 13 98q0 82 -62 82q-12 0 -12 26t12 26q57 0 120 27.5t67 27.5q13 0 11 -13l-154 -832l10 -6q55 100 125.5 159.5t128.5 59.5q54 0 78 -45t24 -98q0 -81 -78 -174t-182 -158q-6 -4 -6 -10q0 -8 6 -19l118 -207q48 -84 92 -84q34 0 76 49q2 3 6 3 q13 0 19 -8t6 -22q0 -3 -2 -7q-66 -99 -129 -99q-61 0 -93.5 24.5t-67.5 96.5l-110 221q-12 25 -51 25q-26 0 -33 -39l-57 -305q-4 -23 -52.5 -23t-43.5 23zM236 398q0 -11 18 -11q98 0 193 96t95 189q0 80 -54 80q-89 0 -202 -177q-26 -42 -32 -75l-16 -88q-2 -8 -2 -14z " />
<glyph unicode="l" horiz-adv-x="396" d="M91 80q0 24 6 55l194 1062q12 66 12 98q0 82 -61 82q-12 0 -12 26t12 26q58 0 119 27.5t66 27.5q11 0 11 -9q0 -2 -1 -5l-231 -1261q-5 -31 -5 -47q0 -49 20 -49q41 0 107 94q2 3 5 3q9 0 19.5 -13t10.5 -21q0 -4 -2 -6q-136 -197 -222 -197q-48 0 -48 107z" />
<glyph unicode="m" horiz-adv-x="1205" d="M90 6l141 619q5 21 5 39q0 47 -23 47t-88 -86q-3 -3 -7 -3q-11 0 -19.5 13t-8.5 21q0 4 2 6q123 190 214 190q48 0 48 -90q0 -38 -8 -72l-72 -307l6 -4q70 199 174 336t190 137q88 0 88 -129q0 -57 -16 -127l-49 -213l10 -4q197 473 363 473q86 0 86 -125q0 -65 -22 -160 l-83 -364q-8 -35 -8 -56q0 -45 25 -45t99 93q3 4 7 4q9 0 18 -12.5t9 -24.5q0 -4 -1 -6q-128 -183 -228 -183q-43 0 -43 88q0 37 9 76l100 445q26 114 26 147q0 43 -26 43q-41 0 -95.5 -71t-148 -246.5t-184.5 -452.5q-10 -29 -57 -29t-40 33l120 526q33 144 33 193 q0 47 -33 47q-36 0 -109.5 -95.5t-158.5 -279.5t-149 -395q-8 -29 -56 -29q-41 0 -41 25q0 4 1 8z" />
<glyph unicode="n" horiz-adv-x="806" d="M90 6l141 619q5 21 5 39q0 47 -25.5 47t-85.5 -86q-3 -3 -6 -3q-9 0 -19 12.5t-10 21.5q0 4 2 6q123 190 214 190q46 0 46 -90q0 -42 -23 -138l-55 -241l6 -4q197 473 359 473q85 0 85 -125q0 -61 -22 -160l-83 -364q-8 -34 -8 -62q0 -39 27.5 -39t99.5 93q2 3 5 3 q10 0 19.5 -13t9.5 -20t-2 -9q-128 -183 -228 -183q-44 0 -44 84q0 39 8 80l100 445q24 106 24 145q0 45 -24 45q-68 0 -195 -231t-225 -539q-8 -29 -56 -29q-41 0 -41 25q0 4 1 8z" />
<glyph unicode="o" horiz-adv-x="670" d="M77 305q0 195 120.5 371t264.5 176q96 0 144.5 -85t48.5 -230q0 -213 -109.5 -388.5t-275.5 -175.5q-98 0 -145.5 91.5t-47.5 240.5zM170 231q0 -163 107 -163q87 0 188 186.5t101 333.5q0 180 -104 180q-93 0 -192.5 -190.5t-99.5 -346.5z" />
<glyph unicode="p" horiz-adv-x="701" d="M-112 -546q0 12 5.5 27t16.5 15q101 0 115 76l213 1133q-71 -45 -118 -99q-2 -3 -7 -3q-12 0 -23.5 13t-11.5 24q0 5 4 9q84 96 172 146l34 209q4 25 37.5 51t57.5 26q19 0 17 -13l-45 -239q31 13 95 13q106 0 173.5 -90t67.5 -242q0 -203 -133.5 -370t-291.5 -167 q-29 0 -68 13l-75 -406q-3 -17 -3 -28q0 -56 99 -56q7 0 7 -12t-5.5 -27.5t-15.5 -15.5q-72 8 -155 8t-155 -8q-7 0 -7 13zM219 98q0 -59 61 -59q117 0 208.5 135t91.5 303q0 118 -48 198.5t-119 80.5q-38 0 -74 -13l-118 -626q-2 -14 -2 -19z" />
<glyph unicode="q" horiz-adv-x="761" d="M75 133q0 225 146.5 472t344.5 247q72 0 97 -123l71 166q4 8 16 8q32 0 32 -19q0 -3 -1 -6l-68 -346l-171 -919q-1 -9 -1 -19q0 -48 55 -48q16 0 33 3q9 2 9 -17q0 -42 -15 -42q-116 0 -312 -49q-9 0 -9 16q0 41 19 43q107 10 125 109l140 774l-8 -2 q-63 -138 -181.5 -273t-214.5 -135q-49 0 -78 44t-29 116zM194 141q0 -78 39 -78q37 0 130.5 95.5t160.5 216.5q81 148 81 268q0 145 -66 145q-110 0 -227.5 -246t-117.5 -401z" />
<glyph unicode="r" horiz-adv-x="603" d="M86 644q0 5 1 7q99 134 141 167.5t77 33.5q43 0 43 -82q0 -16 -27 -143l-36 -168l8 -2q167 395 298 395q40 0 57.5 -21.5t17.5 -58.5q0 -36 -22.5 -62t-46.5 -26q-29 0 -42.5 14.5t-37.5 14.5q-48 0 -163.5 -237t-164.5 -472q-7 -31 -53 -31t-46 25q0 2 1 6l132 623 q6 26 6 35q0 43 -19.5 43t-91.5 -91q-3 -3 -7 -3q-13 0 -22 20q-3 7 -3 13z" />
<glyph unicode="s" horiz-adv-x="419" d="M18 82q0 36 12 58t32 22q53 0 74.5 -53.5t68.5 -53.5q65 0 65 121q0 64 -72 190t-72 226q0 105 52 182.5t152 77.5q41 0 72.5 -40t31.5 -81q0 -23 -15 -41t-29 -18q-42 0 -57.5 58t-65.5 58q-28 0 -46 -38t-18 -72q0 -70 78 -211t78 -231q0 -112 -70 -187.5t-163 -75.5 q-43 0 -75.5 35.5t-32.5 73.5z" />
<glyph unicode="t" horiz-adv-x="483" d="M98 76q0 44 6 72l134 582h-124q-10 0 -10 19q0 36 18 40l133 29l83 203q4 12 24 12q32 0 32 -19q0 -2 -1 -6l-39 -200h179q6 0 6 -20.5t-8.5 -39t-14.5 -18.5h-179l-116 -505q-10 -42 -10 -71q0 -52 28 -52q51 0 179 199q1 3 4 3q13 0 23 -22q5 -13 1 -22 q-94 -162 -155 -224.5t-125 -62.5q-32 0 -50 30.5t-18 72.5z" />
<glyph unicode="u" horiz-adv-x="792" d="M92 656q0 4 2 6q123 190 214 190q44 0 44 -82q0 -47 -20 -134l-70 -302q-32 -142 -32 -187t22 -45q35 0 127 122t183 317q46 100 96 288q7 23 48 23q51 0 51 -21q0 -2 -1 -5l-142 -623q-9 -42 -9 -62q0 -39 27 -39t100 93q2 3 6 3q11 0 19 -12q10 -14 10 -22q0 -5 -2 -8 q-131 -183 -227 -183q-47 0 -47 90q0 35 9 74l66 287q-196 -308 -268 -379.5t-117 -71.5q-67 0 -67 99q0 38 16 108l101 445q5 21 5 41q0 45 -23 45t-42 -27q-21 -29 -45 -59q-2 -3 -6 -3q-15 0 -25 22q-3 7 -3 12z" />
<glyph unicode="v" horiz-adv-x="658" d="M91 657q0 3 1 5q124 190 216 190q23 0 33.5 -22t10.5 -62q0 -42 -9 -79l-109 -482q-8 -35 -8 -60q0 -71 66 -71q65 0 167.5 162.5t102.5 345.5q0 119 -29 194q0 74 55 74q40 0 59 -49t18 -98q0 -125 -63 -304t-176 -303.5t-220 -124.5q-46 0 -67.5 38.5t-21.5 73.5t5 56 l109 484q5 21 5 37q0 49 -26 49q-25 0 -85 -86q-6 -8 -22 10q-12 14 -12 22z" />
<glyph unicode="w" horiz-adv-x="991" d="M90 656q0 4 2 6q123 190 216 190q44 0 44 -84q0 -45 -22 -143l-96 -418q-8 -35 -8 -60q0 -71 66 -71q38 0 81 46t76.5 100.5t54.5 146.5l101 448q8 35 52.5 35t44.5 -26v-9l-135 -610q-8 -36 -8 -60q0 -71 65.5 -71t167.5 162.5t102 345.5q0 119 -29 194q0 74 56 74 q37 0 57 -45t20 -102q0 -117 -63 -300.5t-176.5 -307.5t-219.5 -124q-89 0 -89 124q0 10 1 28q-131 -152 -245 -152q-45 0 -67 38t-22 79q0 30 5 51l109 484q5 21 5 37q0 49 -24.5 49t-86.5 -86q-3 -3 -8 -3t-16 14t-11 20z" />
<glyph unicode="x" horiz-adv-x="770" d="M41 45q0 55 18.5 97t42.5 42t42.5 -37.5t25.5 -37.5q22 0 63 65l129 207l-116 299q-11 27 -25 27q-16 0 -33.5 -33t-33.5 -74q-1 -4 -11 -4t-19 13.5t-6 19.5q75 223 137 223q44 0 83 -107l88 -245l101 170q109 182 178 182q30 0 51.5 -29t21.5 -69q0 -109 -54 -109 q-25 0 -40 39t-29 39q-35 0 -81 -78l-125 -209l75 -200q45 -119 69 -119q33 0 70 125q3 8 12.5 8t17.5 -4.5t7 -12.5q-32 -260 -126 -260q-51 0 -108 144l-80 198l-109 -180q-99 -162 -169 -162q-32 0 -49.5 23.5t-17.5 48.5z" />
<glyph unicode="y" horiz-adv-x="634" d="M-90 -459q0 40 13.5 64t45.5 24q33 0 49 -34.5t48 -34.5q52 0 111 92.5t84 204.5t25 278q0 228 -27 405t-67 177q-36 0 -89 -131q-3 -7 -14.5 -5.5t-18.5 8.5t-4 15q83 248 176 248q68 0 104 -183t36 -442q0 -87 -7 -188h8q59 130 105 322.5t46 277.5q0 69 -15 145 q0 68 57.5 68t57.5 -64q0 -74 -35 -254.5t-124 -401.5t-129 -303.5t-142 -233t-202 -150.5q-42 0 -67 30.5t-25 65.5z" />
<glyph unicode="z" horiz-adv-x="712" d="M26 23q0 5 3 8l451 628q7 10 7 18q0 16 -32 28q-105 40 -193 40q-72 0 -72 -57q0 -13 15.5 -38t15.5 -54q0 -64 -49 -64q-62 0 -62 80q0 68 62.5 149t163.5 81q50 0 122 -28t108 -28q41 0 60 25l32 45q4 5 12 5q17 0 28 -21q4 -8 4 -15q0 -5 -3 -8l-473 -655l2 -8l34 -3 q49 -4 152 -57t133 -53q67 0 67 88q0 22 -22 46.5t-22 55.5q0 64 56 64q32 0 50 -33.5t18 -71.5q0 -106 -63 -177.5t-128 -71.5q-35 0 -85.5 22.5t-119 62.5t-100.5 40q-49 0 -113 -89q-3 -6 -11 -6q-20 0 -40 33q-8 13 -8 19z" />
<glyph unicode="{" horiz-adv-x="458" d="M59 -164q0 96 74.5 307t74.5 295q0 85 -111 94q-6 1 -6 8q0 37 14 38q84 10 122 42t53.5 87.5t52.5 291t93 321.5q76 116 224 116q8 0 8 -17.5t-12 -19.5q-149 -27 -185 -203q-19 -88 -43.5 -274t-68.5 -261t-129 -102l-2 -8q84 -26 84 -143q0 -63 -76 -275t-76 -283 q0 -115 100 -141q4 -1 3.5 -18t-12.5 -19q-182 0 -182 164z" />
<glyph unicode="|" horiz-adv-x="429" d="M186 -313v1747h66v-1747h-66z" />
<glyph unicode="}" horiz-adv-x="478" d="M-113 -310q0 17 12 19q152 30 185 203q23 125 45.5 294t67 243t128.5 100l1 8q-83 26 -83 143q0 63 76 275t76 283q0 115 -100 141q-5 1 -5 19t14 18q182 0 182 -164q0 -96 -74.5 -307t-74.5 -301q0 -79 111 -88q6 -1 6 -8q0 -37 -14 -38q-85 -10 -124 -43.5t-53 -90.5 t-51 -288t-93 -320q-75 -117 -224 -116q-8 0 -8 18z" />
<glyph unicode="~" horiz-adv-x="540" d="M18 365q0 6 1 7q80 151 142.5 151t132.5 -32t109 -32t96 72q2 2 4 2q19 0 19 -20q0 -43 -66.5 -103t-102.5 -60t-106.5 33.5t-114 33.5t-93.5 -65q-2 -3 -5 -3q-4 0 -10 5t-6 11z" />
<glyph unicode="&#xa1;" horiz-adv-x="416" d="M-102 -485q0 27 7 51l253 842q6 17 30 17t24 -13l-148 -854q-7 -38 -37.5 -75.5t-65.5 -37.5q-63 0 -63 70zM164 754q0 52 27.5 83.5t65 31.5t70.5 -28.5t33 -79t-25 -89.5t-69.5 -39t-73 34.5t-28.5 86.5z" />
<glyph unicode="&#xa2;" horiz-adv-x="692" d="M129 590q0 121 51 230.5t152.5 179t209.5 73.5l43 180q2 10 17 10t30.5 -7.5t13.5 -18.5l-40 -169q130 -24 146 -84q4 -15 4 -30q0 -27 -17 -52.5t-31 -25.5q-11 0 -32.5 32.5t-37.5 53t-49 37.5l-162 -685q23 -7 61 -7q54 0 166 57q7 4 15.5 -12.5t8.5 -27t-3 -13.5 q-104 -91 -256 -91h-14l-50 -212q-3 -14 -19 -14t-29.5 9.5t-11.5 19.5l49 208q-98 32 -156.5 135.5t-58.5 223.5zM254 623q0 -195 116 -281l158 669q-111 -6 -192.5 -126t-81.5 -262z" />
<glyph unicode="&#xa3;" horiz-adv-x="864" d="M-6 20q0 54 59.5 92t128.5 51t116 117t60 304h-184q-7 0 -7 18.5t5 32.5t16 14h178q15 180 48.5 327.5t121.5 247t190 99.5q78 0 117 -47.5t39 -121.5q0 -34 -10.5 -62.5t-41.5 -28.5q-59 0 -60 82q-2 110 -91 110q-44 0 -93 -59.5t-88 -546.5h234q9 0 9 -17t-5.5 -32.5 t-13.5 -15.5h-232q-43 -304 -221 -422v-4q72 0 181 -61.5t162 -61.5q40 0 55 23.5t15 117.5q0 74 37 74q28 0 44.5 -28t16.5 -64q0 -98 -85 -154.5t-166 -56.5q-92 0 -181 57t-160 92q-33 -6 -57 -65.5t-81 -59.5q-56 0 -56 49z" />
<glyph unicode="&#xa4;" horiz-adv-x="819" d="M64 667q0 145 70 261l-64 80q-1 2 -1 5q0 12 26 46.5t38 34.5q3 0 5 -2l63 -79q92 88 209 88t209 -88l63 79q2 3 5 3q12 0 38 -33.5t26 -47.5q0 -4 -2 -6l-63 -78q71 -115 71 -262t-71 -262l63 -79q1 -2 1 -5q0 -14 -25.5 -48t-36.5 -34q-4 0 -6 3l-63 79 q-92 -88 -208 -88t-210 89l-63 -80q-2 -3 -6 -3q-11 0 -37.5 33.5t-26.5 47.5q0 4 2 6l64 80q-70 115 -70 260zM134 668.5q0 -143.5 81.5 -245.5t196 -102t195.5 101.5t81 245.5t-81 245t-196.5 101t-196 -101t-80.5 -244.5z" />
<glyph unicode="&#xa5;" horiz-adv-x="1053" d="M214 522q0 50 12 50h285q11 64 -14 165h-222q-12 0 -12 51t12 51h197l-105 418q-17 69 -47.5 96t-86.5 27q-7 0 -7 18.5t8.5 41t15.5 22.5q82 -6 175 -6t197 6q7 0 7 -18.5t-8 -41t-16 -22.5q-59 0 -83 -9q-40 -17 -40 -66q0 -21 8 -48l129 -518q5 -20 14 -20t21 16 l381 512q43 59 43 90q0 43 -85 43q-7 0 -7 17.5t8.5 41t16.5 23.5q69 -6 172 -6t166 6q6 0 6 -17.5t-8 -41t-17 -23.5q-91 0 -148 -50q-31 -27 -156 -195l-223 -296h185q12 0 12 -51t-12 -51h-260l-29 -37q-41 -52 -62 -128h302q12 0 12 -50t-12 -50h-326l-63 -273 q-7 -31 -7 -53q0 -50 43 -65q20 -7 77 -7q7 0 7 -18.5t-8.5 -41t-15.5 -22.5q-53 8 -195.5 8t-212.5 -8q-7 0 -7 18.5t8.5 41t15.5 22.5q82 0 118.5 22t54.5 103l62 273h-264q-12 0 -12 50z" />
<glyph unicode="&#xa6;" horiz-adv-x="444" d="M250 -33v623h96v-623h-96zM250 817v582h96v-582h-96z" />
<glyph unicode="&#xa7;" horiz-adv-x="791" d="M11 -115q0 39 28 39q8 0 69.5 -47t120.5 -47t101 47t42 127q0 132 -86 384t-86 388q0 137 90 288t220 264.5t206 113.5q46 0 81 -39.5t35 -95.5q0 -80 -44 -80q-2 0 -38.5 59.5t-95.5 59.5q-60 0 -101.5 -48.5t-41.5 -128.5q0 -137 89.5 -402t89.5 -383t-49 -212 q-72 -139 -225.5 -292.5t-261.5 -153.5q-59 0 -101 44.5t-42 114.5zM298 866q0 -154 81 -395t81 -328t-5 -133l3 -4q127 143 127 326q0 114 -80.5 365.5t-80.5 293.5q0 144 15 183l-6 4q-135 -158 -135 -312z" />
<glyph unicode="&#xa8;" horiz-adv-x="727" d="M321 1100q0 52 28 88.5t64 36.5q68 0 68 -90q0 -57 -27 -91t-63 -34q-70 0 -70 90zM607 1100q0 52 28 88.5t64 36.5q68 0 68 -90q0 -57 -27 -91t-63 -34q-70 0 -70 90z" />
<glyph unicode="&#xa9;" horiz-adv-x="1252" d="M59 748q0 299 169 509.5t408 210.5t408 -210.5t169 -509.5t-169 -510t-408 -211t-408 211t-169 510zM115 747q0 -268 153 -459t369 -191t367.5 189.5t151.5 460t-152.5 461t-367 190.5t-368 -191.5t-153.5 -459.5zM344 737q0 173 86.5 284.5t213.5 111.5q60 0 120 -15.5 t69 -15.5q13 -35 13 -166q0 -8 -14.5 -8.5t-15.5 6.5q-14 161 -174 161q-92 0 -153.5 -102.5t-61.5 -223.5q2 -176 70.5 -264.5t142.5 -88.5q157 0 194 144q0 6 13.5 6t14.5 -12q-6 -82 -38 -144q-22 -6 -33 -10q-62 -24 -157 -24q-124 0 -207 105t-83 256z" />
<glyph unicode="&#xaa;" horiz-adv-x="513" d="M41 936q0 148 97.5 320.5t206.5 172.5q40 0 75 -39l13 49q5 17 38 17q29 0 29 -13q0 -2 -1 -4l-106 -460q-5 -24 -5 -41q0 -29 18 -29t73 66q5 7 16 -7q7 -10 7 -16q0 -3 -1 -6q-37 -56 -82 -92t-79 -36t-34 55q0 40 14 85l24 80l-7 3q-134 -223 -227 -223 q-33 0 -51 33.5t-18 84.5zM124 961q0 -66 33 -66q31 0 87.5 70.5t88 131t46.5 121.5l25 106q-24 59 -74 59q-76 0 -141 -154.5t-65 -267.5z" />
<glyph unicode="&#xab;" horiz-adv-x="709" d="M77 417.5q0 26.5 33 60.5l307 312q3 3 7 3q18 0 18 -24q0 -5 -2 -9l-222 -294q-20 -27 -20 -52t6 -41l94 -279q3 -10 -9.5 -23.5t-19.5 -13.5t-9 3l-173 312q-10 19 -10 45.5zM358 417.5q0 26.5 33 60.5l306 312q4 3 8 3q18 0 18 -24q0 -5 -3 -9l-221 -294 q-20 -27 -20 -52t6 -41l93 -279q4 -10 -8.5 -23.5t-19.5 -13.5t-9 3l-173 312q-10 19 -10 45.5z" />
<glyph unicode="&#xac;" horiz-adv-x="1092" d="M0 537v120h1093v-657h-99v537h-994z" />
<glyph unicode="&#xad;" horiz-adv-x="661" d="M133 506q0 19 11 57.5t20 38.5h458q5 0 5 -18.5t-11.5 -57.5t-21.5 -39h-456q-5 0 -5 19z" />
<glyph unicode="&#xae;" horiz-adv-x="1252" d="M59 748q0 299 169 509.5t408 210.5t408 -210.5t169 -509.5t-169 -510t-408 -211t-408 211t-169 510zM115 747q0 -268 153 -459t369 -191t367.5 189.5t151.5 460t-152.5 461t-367 190.5t-368 -191.5t-153.5 -459.5zM390 1097.5q0 20.5 7 20.5q56 -4 115 -4t132 3 q102 0 162 -52.5t60 -146.5q0 -144 -125 -187q-7 -2 -7 -9.5t7 -21.5q60 -134 153 -245q48 -57 80 -57q7 0 7 -8.5t-7 -10.5q-89 -7 -138 32.5t-95 121.5l-64 118q-30 46 -36.5 52.5t-31.5 6.5t-40.5 1.5t-15.5 -11.5v-211q0 -62 83 -62q6 0 6 -20.5t-6 -20.5q-36 4 -116 4 t-119 -4q-7 0 -7 20.5t7 20.5q77 0 77 62v530q0 58 -81 58q-7 0 -7 20.5zM553 768q0 -26 62 -26q165 0 165 176q0 70 -45 118t-113.5 48t-68.5 -16v-300z" />
<glyph unicode="&#xaf;" horiz-adv-x="486" d="M217 1081.5q0 17.5 9.5 47t18.5 29.5h361q4 0 4 -15t-10.5 -47t-20.5 -32h-357q-5 0 -5 17.5z" />
<glyph unicode="&#xb0;" horiz-adv-x="503" d="M172 1045q0 119 63.5 192.5t155.5 73.5t156 -73.5t64 -192.5t-62.5 -191t-156.5 -72t-157 72t-63 191zM264 1047q0 -87 36 -140t91 -53t91.5 53t36.5 140t-36.5 139.5t-91.5 52.5t-91 -52.5t-36 -139.5z" />
<glyph unicode="&#xb1;" horiz-adv-x="819" d="M95 2v100h631v-100h-631zM95 596v100h267v336h96v-336h268v-100h-268v-371h-96v371h-267z" />
<glyph unicode="&#xb2;" horiz-adv-x="582" d="M42 555q0 10 8 17q150 154 252 280t155 219t53 161q0 53 -24.5 78.5t-61.5 25.5q-77 0 -155 -120q-3 -3 -10 -3t-12 7.5t-5 10.5t1 5q47 77 112 130.5t134 53.5q56 0 88.5 -43t32.5 -110q0 -93 -62.5 -194.5t-359.5 -413.5q-12 -13 -12 -21t14 -8h157q84 0 125 38 q18 17 34 44q2 4 15 4t13 -12v-3l-84 -145q-12 -21 -32 -21q-64 5 -176.5 5t-181.5 -5q-18 0 -18 20z" />
<glyph unicode="&#xb3;" horiz-adv-x="576" d="M92 607q0 31 20 48.5t37 17.5q16 0 41.5 -49t66.5 -49q67 0 120 96.5t53 187.5q0 136 -113 136q-35 0 -62 -10q-4 0 -4 15t6 26.5t9 11.5q87 0 156.5 60t69.5 158q0 47 -21.5 70.5t-53.5 23.5q-63 0 -129 -91q-2 -2 -7.5 -2t-10.5 10t-5 13t1 6q101 134 201 134 q51 0 80.5 -37.5t29.5 -94.5q0 -148 -140 -232q-21 -12 -21 -17t13 -9q96 -27 96 -144q0 -140 -96.5 -250.5t-216.5 -110.5t-120 82z" />
<glyph unicode="&#xb4;" horiz-adv-x="734" d="M260 948q0 19 10 37l199 339q5 9 21 9t33.5 -27t17.5 -36t-3 -12l-219 -303q-19 -26 -39 -26t-20 19z" />
<glyph unicode="&#xb5;" horiz-adv-x="792" d="M-25 -528q0 29 9 69l247 1084q5 21 5 41q0 45 -24 45q-17 0 -86 -86q-7 -9 -23.5 7t-8.5 30q123 190 214 190q44 0 44 -82q0 -45 -8 -80l-82 -356q-32 -143 -32 -188q0 -44 22 -44q35 0 126.5 120t164.5 277.5t115 329.5q6 23 54.5 23t43.5 -24l-142 -625q-9 -42 -9 -62 q0 -39 24 -39q29 0 103 93q7 9 25 -10q17 -16 9 -28q-131 -184 -228 -184q-47 0 -47 90q0 35 9 74l66 287q-128 -202 -171 -259q-141 -192 -210 -192q-11 0 -23 4q-23 -62 -34 -142.5t-8 -134t3 -97.5q0 -160 -117 -160q-31 0 -31 29z" />
<glyph unicode="&#xb6;" horiz-adv-x="797" d="M69 970q0 205 143 345.5t311 140.5q190 -4 258.5 -4t132.5 4q8 0 8 -13.5t-3.5 -29.5t-16.5 -15q-95 0 -111 -74l-347 -1607q-3 -16 -40 -16t-34 14l348 1609q3 11 3 24q0 50 -47 50q-71 0 -87 -74l-349 -1609q-3 -14 -39.5 -14t-33.5 14l210 962q-166 0 -236 80.5 t-70 212.5z" />
<glyph unicode="&#xb7;" horiz-adv-x="416" d="M156 515.5q0 52.5 27 87t71 34.5t70 -35t26 -87t-28 -84t-66 -32t-69 32t-31 84.5z" />
<glyph unicode="&#xb8;" horiz-adv-x="589" d="M58 -358q0 49 40 49q16 0 40 -30t34 -30q46 0 46 71q0 63 -73 111q-17 12 -6 30l94 157h53l-48 -80q-15 -23 8 -45q60 -61 60 -131q0 -71 -52.5 -119.5t-114.5 -48.5q-81 0 -81 66z" />
<glyph unicode="&#xb9;" horiz-adv-x="540" d="M111 545q0 10 3 18.5t11 8.5q67 0 89.5 22.5t43.5 117.5l123 574q2 12 2 18q0 12 -6.5 12t-14.5 -4l-75 -38q-8 -4 -9.5 10.5t5.5 19.5q85 46 199 138q7 5 12 5t5 -7q-18 -65 -29 -116l-131 -611q-14 -66 -14 -95t16.5 -37.5t61.5 -8.5q5 0 5 -10t-2.5 -18.5t-10.5 -8.5 q-45 5 -139.5 5t-138.5 -5q-6 0 -6 10z" />
<glyph unicode="&#xba;" horiz-adv-x="468" d="M49 1051q0 137 85 261t187 124q68 0 102 -60t34 -162q0 -150 -77.5 -273.5t-193.5 -123.5q-70 0 -103.5 64.5t-33.5 169.5zM115 999q0 -115 75 -115q62 0 133 131.5t71 234.5q0 127 -73 127q-66 0 -136 -134t-70 -244z" />
<glyph unicode="&#xbb;" horiz-adv-x="642" d="M26 81q0 5 3 9l221 294q20 26 20 51.5t-5 41.5l-94 279q-3 10 9 23.5t19 13.5t9 -3l173 -312q11 -19 11 -45.5t-34 -60.5l-306 -312q-4 -3 -8 -3q-18 0 -18 24zM307 81q0 5 3 9l221 294q20 26 20 51.5t-5 41.5l-94 279q-4 10 8.5 23.5t19.5 13.5t9 -3l173 -312 q11 -19 11 -45.5t-34 -60.5l-306 -312q-4 -3 -8 -3q-18 0 -18 24z" />
<glyph unicode="&#xbc;" horiz-adv-x="1352" d="M99 529.5q0 9.5 2.5 17.5t10.5 8q62 0 84 21.5t40 109.5l116 540q3 11 3 17q0 11 -6.5 11t-13.5 -4l-71 -36q-7 -3 -8.5 10.5t4.5 17.5q80 44 187 130q7 5 12 5t5 -6q-18 -61 -28 -109l-123 -575q-14 -62 -14 -89t16 -35t58 -8q5 0 5 -9t-2.5 -17.5t-10.5 -8.5 q-42 5 -130.5 5t-130.5 -5q-5 0 -5 9.5zM215 -44.5q0 11.5 3 15.5l913 1368q3 4 11.5 4t23.5 -16.5t15 -25.5t-3 -13l-915 -1370q-4 -6 -13.5 -6t-22 16t-12.5 27.5zM801 264q0 18 36 63l153 191q187 234 295 382q7 8 27 8t20 -15q0 -3 -1 -4l-449 -568q-7 -9 -7 -15t12 -6 h197q10 0 13 13l60 282q2 9 40 9t38 -9l-60 -282q-3 -13 7 -13h60q4 0 4 -14.5t-6 -27t-9 -12.5h-61q-10 0 -12 -13l-34 -155q-1 -7 -1 -13q0 -36 51 -36q5 0 5 -10t-2.5 -18t-10.5 -8q-43 5 -108.5 5t-108.5 -5q-6 0 -6 10t3 18t10 8q80 0 91 49l33 155q2 13 -8 13h-241 q-30 0 -30 18z" />
<glyph unicode="&#xbd;" horiz-adv-x="1352" d="M101 528.5q0 9.5 2.5 18t10.5 8.5q64 0 85.5 21t40.5 111l117 547q3 11 3 16q0 12 -6.5 12t-13.5 -5l-72 -35q-7 -4 -8.5 10t4.5 18q81 44 189 131q7 5 12 5t5 -6q-18 -62 -28 -111l-125 -581q-13 -62 -13 -90t16 -35.5t58 -7.5q5 0 5 -9.5t-2 -18t-10 -8.5 q-43 5 -132.5 5t-132.5 -5q-5 0 -5 9.5zM186 -44.5q0 11.5 3 15.5l913 1368q3 4 11.5 4t23 -16.5t14.5 -25.5t-2 -13l-915 -1370q-4 -6 -14 -6t-22 16t-12 27.5zM779 12q0 10 7 16q141 145 237.5 263.5t146 206.5t49.5 152q0 50 -23 74t-57 24q-73 0 -147 -113 q-2 -3 -8.5 -3t-11.5 7.5t-5 10t1 3.5q44 73 105 123.5t126 50.5q54 0 84.5 -40.5t30.5 -103.5q0 -88 -59 -183.5t-339 -389.5q-11 -12 -11 -19.5t13 -7.5h148q79 0 118 36q17 15 32 41q2 4 14 4t12 -12v-2l-79 -136q-12 -21 -30 -21q-61 5 -167 5t-170 -5q-17 0 -17 19z " />
<glyph unicode="&#xbe;" horiz-adv-x="1352" d="M57 525q0 32 20 49t37 17q18 0 43 -49.5t67 -49.5q68 0 122 98t54 190q0 138 -115 138q-35 0 -63 -10q-4 0 -4 15t6 26.5t10 11.5q87 0 157.5 61t70.5 161q0 47 -21.5 71t-54.5 24q-63 0 -130 -92q-2 -2 -8 -2t-11 9.5t-5 13t2 6.5q101 136 203 136q52 0 81.5 -38 t29.5 -96q0 -150 -141 -235q-22 -13 -22 -18t13 -9q98 -27 98 -146q0 -141 -97.5 -253t-219.5 -112t-122 83zM221 -44.5q0 11.5 3 15.5l913 1368q3 4 11.5 4t23 -16.5t14.5 -25.5t-2 -13l-915 -1370q-4 -6 -13.5 -6t-22 16t-12.5 27.5zM749 288.5q0 19.5 33 68.5l139 207 q170 254 268 415q7 8 25 8t18 -16v-4l-409 -617q-6 -9 -6 -15.5t10 -6.5h180q9 0 12 14l54 305q2 11 36.5 11t34.5 -11l-55 -305q-2 -14 7 -14h55q3 0 3 -16t-5.5 -29.5t-8.5 -13.5h-55q-9 0 -11 -14l-31 -168q-1 -7 -1 -14q0 -39 47 -39q4 0 4 -11t-2 -19.5t-9 -8.5 q-40 5 -99.5 5t-98.5 -5q-5 0 -5 11t2.5 19.5t8.5 8.5q73 0 83 53l30 168q2 14 -7 14h-220q-27 0 -27 19.5z" />
<glyph unicode="&#xbf;" horiz-adv-x="542" d="M-83 -219q0 115 42 206t79 112l152 88q71 40 80 90q13 45 14 125q0 13 18 17.5t20 -5.5q19 -88 19 -149q0 -137 -133 -213l-96 -56q-136 -78 -136 -211q0 -139 194 -139q13 0 26.5 -19.5t13.5 -46.5q0 -44 -29 -73t-61 -29q-82 0 -142.5 94t-60.5 209zM280 754.5 q0 48.5 26.5 79.5t72.5 31t70.5 -37t24.5 -80t-25.5 -81t-73.5 -38t-71.5 38.5t-23.5 87z" />
<glyph unicode="&#xc0;" horiz-adv-x="886" d="M-106 13q0 20 9 38t14 18q61 0 101 22t88 110l539 998q13 23 13 38q0 7 -6.5 18t-6.5 18q0 10 20 20q78 39 116 65.5t51 26.5q12 0 12 -18q0 -7 -7 -45t-16 -143l-94 -993q-1 -7 -1 -21q0 -96 116 -96q6 0 6 -21t-9 -38t-13 -17q-71 7 -171 7t-169 -7q-7 0 -6.5 20.5 t9.5 38t14 17.5q65 0 87.5 30.5t27.5 86.5l30 310q3 35 -22 35h-248q-25 0 -39 -25l-168 -324q-18 -35 -18 -58q0 -55 105 -55q6 0 6 -21t-9 -38t-13 -17q-69 7 -170.5 7t-170.5 -7q-7 0 -7 20zM396 609.5q0 -9.5 15 -9.5h220q26 0 28 29l50 530q1 9 -9 9t-15 -9l-283 -530 q-6 -10 -6 -19.5zM430 1800q0 16 8 37q16 41 36 41q9 0 18 -7l371 -279q26 -19 26 -40q0 -6 -3 -12q-6 -16 -20 -16q-9 0 -23 8l-389 226q-24 14 -24 42z" />
<glyph unicode="&#xc1;" horiz-adv-x="886" d="M-106 13q0 20 9 38t14 18q61 0 101 22t88 110l539 998q13 23 13 38q0 7 -6.5 18t-6.5 18q0 10 20 20q78 39 116 65.5t51 26.5q12 0 12 -18q0 -7 -7 -45t-16 -143l-94 -993q-1 -7 -1 -21q0 -96 116 -96q6 0 6 -21t-9 -38t-13 -17q-71 7 -171 7t-169 -7q-7 0 -6.5 20.5 t9.5 38t14 17.5q65 0 87.5 30.5t27.5 86.5l30 310q3 35 -22 35h-248q-25 0 -39 -25l-168 -324q-18 -35 -18 -58q0 -55 105 -55q6 0 6 -21t-9 -38t-13 -17q-69 7 -170.5 7t-170.5 -7q-7 0 -7 20zM396 609.5q0 -9.5 15 -9.5h220q26 0 28 29l50 530q1 9 -9 9t-15 -9l-283 -530 q-6 -10 -6 -19.5zM631 1553q0 20 26 39l372 279q9 7 17 7q20 0 36 -41q9 -21 9 -38q0 -27 -24 -41l-390 -226q-13 -8 -23 -8q-14 0 -20 16q-3 6 -3 13z" />
<glyph unicode="&#xc2;" horiz-adv-x="886" d="M-106 13q0 20 9 38t14 18q61 0 101 22t88 110l539 998q13 23 13 38q0 7 -6.5 18t-6.5 18q0 10 20 20q78 39 116 65.5t51 26.5q12 0 12 -18q0 -7 -7 -45t-16 -143l-94 -993q-1 -7 -1 -21q0 -96 116 -96q6 0 6 -21t-9 -38t-13 -17q-71 7 -171 7t-169 -7q-7 0 -6.5 20.5 t9.5 38t14 17.5q65 0 87.5 30.5t27.5 86.5l30 310q3 35 -22 35h-248q-25 0 -39 -25l-168 -324q-18 -35 -18 -58q0 -55 105 -55q6 0 6 -21t-9 -38t-13 -17q-69 7 -170.5 7t-170.5 -7q-7 0 -7 20zM396 609.5q0 -9.5 15 -9.5h220q26 0 28 29l50 530q1 9 -9 9t-15 -9l-283 -530 q-6 -10 -6 -19.5zM568 1544q0 6 4 11l243 233q21 20 37 20t28 -20l146 -233q1 -3 1 -5q0 -7 -8 -16.5t-13 -9.5q-3 0 -5 2l-156 130q-13 12 -22.5 12t-27.5 -12l-208 -130l-6 -2q-7 0 -11 9q-2 6 -2 11z" />
<glyph unicode="&#xc3;" horiz-adv-x="886" d="M-106 13q0 20 9 38t14 18q61 0 101 22t88 110l539 998q13 23 13 38q0 7 -6.5 18t-6.5 18q0 10 20 20q78 39 116 65.5t51 26.5q12 0 12 -18q0 -7 -7 -45t-16 -143l-94 -993q-1 -7 -1 -21q0 -96 116 -96q6 0 6 -21t-9 -38t-13 -17q-71 7 -171 7t-169 -7q-7 0 -6.5 20.5 t9.5 38t14 17.5q65 0 87.5 30.5t27.5 86.5l30 310q3 35 -22 35h-248q-25 0 -39 -25l-168 -324q-18 -35 -18 -58q0 -55 105 -55q6 0 6 -21t-9 -38t-13 -17q-69 7 -170.5 7t-170.5 -7q-7 0 -7 20zM396 609.5q0 -9.5 15 -9.5h220q26 0 28 29l50 530q1 9 -9 9t-15 -9l-283 -530 q-6 -10 -6 -19.5zM539 1546q30 197 145 197q38 0 117 -43t114 -43q26 0 48 30.5t26 63.5h39q-15 -79 -51.5 -140t-91.5 -61q-37 0 -117.5 44t-109.5 44q-32 0 -52.5 -26t-27.5 -66h-39z" />
<glyph unicode="&#xc4;" horiz-adv-x="886" d="M-106 13q0 20 9 38t14 18q61 0 101 22t88 110l539 998q13 23 13 38q0 7 -6.5 18t-6.5 18q0 10 20 20q78 39 116 65.5t51 26.5q12 0 12 -18q0 -7 -7 -45t-16 -143l-94 -993q-1 -7 -1 -21q0 -96 116 -96q6 0 6 -21t-9 -38t-13 -17q-71 7 -171 7t-169 -7q-7 0 -6.5 20.5 t9.5 38t14 17.5q65 0 87.5 30.5t27.5 86.5l30 310q3 35 -22 35h-248q-25 0 -39 -25l-168 -324q-18 -35 -18 -58q0 -55 105 -55q6 0 6 -21t-9 -38t-13 -17q-69 7 -170.5 7t-170.5 -7q-7 0 -7 20zM396 609.5q0 -9.5 15 -9.5h220q26 0 28 29l50 530q1 9 -9 9t-15 -9l-283 -530 q-6 -10 -6 -19.5zM559 1639q0 53 27.5 89.5t63.5 36.5q68 0 68 -90q0 -57 -27 -91t-63 -34q-69 0 -69 89zM878 1639q0 53 28 89.5t64 36.5q68 0 68 -90q0 -57 -27 -91t-63 -34q-70 0 -70 89z" />
<glyph unicode="&#xc5;" horiz-adv-x="886" d="M-106 13q0 20 9 38t14 18q61 0 101 22t88 110l625 1158q-69 53 -69 153q0 71 44 125.5t114 54.5q66 0 107 -54.5t41 -137.5q0 -60 -38 -109.5t-90 -58.5q-12 -89 -19 -153l-94 -993q-1 -7 -1 -21q0 -96 116 -96q6 0 6 -21t-8.5 -36.5t-13.5 -18.5q-71 7 -171 7t-169 -7 q-6 0 -6 20.5t9 38t14 17.5q61 0 85.5 28.5t29.5 88.5l30 310q3 35 -22 35h-248q-25 0 -39 -25l-168 -324q-18 -35 -18 -58q0 -55 105 -55q6 0 6 -21t-9 -38t-13 -17q-69 7 -170.5 7t-170.5 -7q-7 0 -7 20zM402 629q-15 -29 9 -29h220q25 0 28 29l50 530q-1 9 -10 9t-14 -9z M734 1512q0 -54 24.5 -86.5t56.5 -32.5q40 0 60.5 35.5t20.5 83.5t-21.5 83t-59.5 35q-37 0 -59 -35.5t-22 -82.5z" />
<glyph unicode="&#xc6;" horiz-adv-x="1424" d="M-127 13.5q0 20.5 8.5 38t14.5 17.5q66 0 98 25t84 101l681 1001q27 39 27 58q0 28 -60 28q-8 0 -8 21t9.5 38t14.5 17q125 -4 212 -4q217 0 519 4q49 0 49 -20q0 -6 -1 -13l-75 -319q-3 -14 -35.5 -14t-29.5 14q14 72 14 111q0 162 -159 166l-222 6q-16 0 -21 -22 l-128 -559q-3 -11 -3 -18q0 -14 17 -14h177q51 0 68.5 14t30.5 74l22 100q3 15 32 15t26 -15q-68 -247 -98 -428q-3 -15 -30 -15t-25 12l21 94q9 40 9 48q0 32 -73 32h-176q-22 0 -27 -24l-65 -283q-21 -94 -21 -139q0 -99 90 -99h10l183 7q201 8 263 275q4 14 36.5 13.5 t29.5 -13.5l-76 -325q-6 -26 -22 -26h-60q-326 7 -542 7q-120 0 -212 -7q-5 0 -5 21.5t8.5 38t12.5 16.5q77 0 111.5 20t50.5 88l91 393q3 16 3 25q0 12 -18 12h-262q-20 0 -31 -17l-265 -422q-25 -39 -25 -64.5t26.5 -30t84.5 -4.5q6 0 6 -21t-8.5 -38t-13.5 -17 q-70 7 -166 7t-171 -7q-6 0 -6 20.5zM482 682.5q0 -7.5 12 -6.5h229q21 0 26 24l113 496q2 9 2 20.5t-10.5 11.5t-27.5 -25l-339 -505q-5 -8 -5 -15.5z" />
<glyph unicode="&#xc7;" horiz-adv-x="1176" d="M172 458q0 355 232.5 641t514.5 286q118 0 191 -21.5t148 -36.5q-12 -158 -47 -308q-6 -17 -31.5 -17t-24.5 12q7 60 7 78q0 102 -60 162t-195 60q-254 0 -429.5 -273t-175.5 -582q0 -176 82 -293.5t220 -117.5q140 0 234.5 55t133 115.5t56.5 98.5q6 10 29 10t23 -19 q0 -20 -57 -132t-77 -140q-27 -5 -65 -17q-139 -46 -311 -46t-285 130t-113 355zM418 -358q0 49 40 49q16 0 40 -30t34 -30q46 0 46 71q0 63 -73 111q-17 12 -6 30l94 157h53l-48 -80q-15 -23 8 -45q60 -61 60 -131q0 -71 -52.5 -119.5t-114.5 -48.5q-81 0 -81 66z" />
<glyph unicode="&#xc8;" horiz-adv-x="1004" d="M17 11q0 18 8.5 38t13.5 20q76 0 114.5 21t56.5 96l226 986q3 14 3 33q0 77 -125 77q-7 0 -7 19.5t9 38t14 18.5q106 -4 220 -4t261.5 2t262.5 2q50 0 50 -22q0 -5 -2 -16l-71 -310q-3 -14 -34.5 -14t-29.5 14q9 56 9 78q0 95 -51 142t-102 50q-170 9 -242 9 q-23 0 -28 -22l-128 -554q-2 -9 -2 -15q0 -22 23 -22h154q55 0 73 12q28 18 41 76l21 100q3 15 32 15t27 -15q-70 -251 -99 -428q-3 -15 -30 -15t-23 16l20 90q5 25 5 39q0 41 -82 41h-159q-26 0 -32 -26l-64 -281q-22 -94 -22 -140q0 -99 91 -99l192 8q186 8 263 275 q4 14 36.5 14t29.5 -14l-75 -325q-6 -26 -23 -26q-36 0 -231.5 3.5t-338 3.5t-249.5 -7q-6 0 -6 18zM530 1800q0 16 8 37q16 41 36 41q9 0 18 -7l371 -279q26 -19 26 -40q0 -6 -3 -12q-6 -16 -20 -16q-9 0 -23 8l-389 226q-24 14 -24 42z" />
<glyph unicode="&#xc9;" horiz-adv-x="1004" d="M17 11q0 18 8.5 38t13.5 20q76 0 114.5 21t56.5 96l226 986q3 14 3 33q0 77 -125 77q-7 0 -7 19.5t9 38t14 18.5q106 -4 220 -4t261.5 2t262.5 2q50 0 50 -22q0 -5 -2 -16l-71 -310q-3 -14 -34.5 -14t-29.5 14q9 56 9 78q0 95 -51 142t-102 50q-170 9 -242 9 q-23 0 -28 -22l-128 -554q-2 -9 -2 -15q0 -22 23 -22h154q55 0 73 12q28 18 41 76l21 100q3 15 32 15t27 -15q-70 -251 -99 -428q-3 -15 -30 -15t-23 16l20 90q5 25 5 39q0 41 -82 41h-159q-26 0 -32 -26l-64 -281q-22 -94 -22 -140q0 -99 91 -99l192 8q186 8 263 275 q4 14 36.5 14t29.5 -14l-75 -325q-6 -26 -23 -26q-36 0 -231.5 3.5t-338 3.5t-249.5 -7q-6 0 -6 18zM659 1553q0 20 26 39l372 279q9 7 17 7q20 0 36 -41q9 -21 9 -38q0 -27 -24 -41l-390 -226q-13 -8 -23 -8q-14 0 -20 16q-3 6 -3 13z" />
<glyph unicode="&#xca;" horiz-adv-x="1004" d="M17 11q0 18 8.5 38t13.5 20q76 0 114.5 21t56.5 96l226 986q3 14 3 33q0 77 -125 77q-7 0 -7 19.5t9 38t14 18.5q106 -4 220 -4t261.5 2t262.5 2q50 0 50 -22q0 -5 -2 -16l-71 -310q-3 -14 -34.5 -14t-29.5 14q9 56 9 78q0 95 -51 142t-102 50q-170 9 -242 9 q-23 0 -28 -22l-128 -554q-2 -9 -2 -15q0 -22 23 -22h154q55 0 73 12q28 18 41 76l21 100q3 15 32 15t27 -15q-70 -251 -99 -428q-3 -15 -30 -15t-23 16l20 90q5 25 5 39q0 41 -82 41h-159q-26 0 -32 -26l-64 -281q-22 -94 -22 -140q0 -99 91 -99l192 8q186 8 263 275 q4 14 36.5 14t29.5 -14l-75 -325q-6 -26 -23 -26q-36 0 -231.5 3.5t-338 3.5t-249.5 -7q-6 0 -6 18zM552 1544q0 6 4 11l243 233q21 20 37 20t28 -20l146 -233q1 -3 1 -5q0 -7 -8 -16.5t-13 -9.5q-3 0 -5 2l-156 130q-13 12 -22.5 12t-27.5 -12l-208 -130l-6 -2q-7 0 -11 9 q-2 6 -2 11z" />
<glyph unicode="&#xcb;" horiz-adv-x="1004" d="M17 11q0 18 8.5 38t13.5 20q76 0 114.5 21t56.5 96l226 986q3 14 3 33q0 77 -125 77q-7 0 -7 19.5t9 38t14 18.5q106 -4 220 -4t261.5 2t262.5 2q50 0 50 -22q0 -5 -2 -16l-71 -310q-3 -14 -34.5 -14t-29.5 14q9 56 9 78q0 95 -51 142t-102 50q-170 9 -242 9 q-23 0 -28 -22l-128 -554q-2 -9 -2 -15q0 -22 23 -22h154q55 0 73 12q28 18 41 76l21 100q3 15 32 15t27 -15q-70 -251 -99 -428q-3 -15 -30 -15t-23 16l20 90q5 25 5 39q0 41 -82 41h-159q-26 0 -32 -26l-64 -281q-22 -94 -22 -140q0 -99 91 -99l192 8q186 8 263 275 q4 14 36.5 14t29.5 -14l-75 -325q-6 -26 -23 -26q-36 0 -231.5 3.5t-338 3.5t-249.5 -7q-6 0 -6 18zM573 1639q0 53 27.5 89.5t63.5 36.5q68 0 68 -90q0 -57 -27 -91t-63 -34q-69 0 -69 89zM892 1639q0 53 28 89.5t64 36.5q68 0 68 -90q0 -57 -27 -91t-63 -34q-70 0 -70 89z " />
<glyph unicode="&#xcc;" horiz-adv-x="583" d="M17 13q0 20 8.5 38t13.5 18q71 0 112.5 21.5t58.5 95.5l226 986q4 22 4 35q0 80 -125 80q-6 0 -6 21t8.5 38t13.5 17q37 -5 204 -5t204 5q7 0 7 -21t-9 -38t-14 -17q-91 0 -124.5 -27.5t-47.5 -87.5l-225 -986q-5 -20 -5 -34q0 -83 125 -83q6 0 6 -21.5t-9 -38t-14 -16.5 q-69 7 -203 7t-203 -7q-6 0 -6 20zM258 1800q0 16 8 37q16 41 36 41q9 0 18 -7l371 -279q26 -19 26 -40q0 -6 -3 -12q-6 -16 -20 -16q-9 0 -23 8l-389 226q-24 14 -24 42z" />
<glyph unicode="&#xcd;" horiz-adv-x="583" d="M17 13q0 20 8.5 38t13.5 18q71 0 112.5 21.5t58.5 95.5l226 986q4 22 4 35q0 80 -125 80q-6 0 -6 21t8.5 38t13.5 17q37 -5 204 -5t204 5q7 0 7 -21t-9 -38t-14 -17q-91 0 -124.5 -27.5t-47.5 -87.5l-225 -986q-5 -20 -5 -34q0 -83 125 -83q6 0 6 -21.5t-9 -38t-14 -16.5 q-69 7 -203 7t-203 -7q-6 0 -6 20zM439 1553q0 20 26 39l372 279q9 7 17 7q20 0 36 -41q9 -21 9 -38q0 -27 -24 -41l-390 -226q-13 -8 -23 -8q-14 0 -20 16q-3 6 -3 13z" />
<glyph unicode="&#xce;" horiz-adv-x="583" d="M17 13q0 20 8.5 38t13.5 18q71 0 112.5 21.5t58.5 95.5l226 986q4 22 4 35q0 80 -125 80q-6 0 -6 21t8.5 38t13.5 17q37 -5 204 -5t204 5q7 0 7 -21t-9 -38t-14 -17q-91 0 -124.5 -27.5t-47.5 -87.5l-225 -986q-5 -20 -5 -34q0 -83 125 -83q6 0 6 -21.5t-9 -38t-14 -16.5 q-69 7 -203 7t-203 -7q-6 0 -6 20zM340 1544q0 6 4 11l243 233q21 20 37 20t28 -20l146 -233q1 -3 1 -5q0 -7 -8 -16.5t-13 -9.5q-3 0 -5 2l-156 130q-13 12 -22.5 12t-27.5 -12l-208 -130l-6 -2q-7 0 -11 9q-2 6 -2 11z" />
<glyph unicode="&#xcf;" horiz-adv-x="583" d="M17 13q0 20 8.5 38t13.5 18q71 0 112.5 21.5t58.5 95.5l226 986q4 22 4 35q0 80 -125 80q-6 0 -6 21t8.5 38t13.5 17q37 -5 204 -5t204 5q7 0 7 -21t-9 -38t-14 -17q-91 0 -124.5 -27.5t-47.5 -87.5l-225 -986q-5 -20 -5 -34q0 -83 125 -83q6 0 6 -21.5t-9 -38t-14 -16.5 q-69 7 -203 7t-203 -7q-6 0 -6 20zM325 1639q0 53 27.5 89.5t63.5 36.5q68 0 68 -90q0 -57 -27 -91t-63 -34q-69 0 -69 89zM644 1639q0 53 28 89.5t64 36.5q68 0 68 -90q0 -57 -27 -91t-63 -34q-70 0 -70 89z" />
<glyph unicode="&#xd0;" horiz-adv-x="1211" d="M17 13q0 20 8.5 38t13.5 18q75 0 115 22t57 95l98 423q6 25 -15 25h-156q-11 0 -11 27t11.5 38t17.5 11h156q18 0 25 23l101 439q4 23 4 37q0 73 -130 73q-6 0 -6 21t8.5 38t13.5 17q106 -4 198.5 -4t287.5 4q197 0 318 -119t121 -335q0 -327 -213.5 -619t-501.5 -292 q-193 7 -304.5 7t-210.5 -7q-6 0 -6 20zM336 181q0 -67 35.5 -97.5t125.5 -30.5q245 0 435.5 264.5t190.5 562.5q0 187 -100.5 302t-290.5 115q-97 0 -129.5 -24t-48.5 -92l-104 -448q-5 -23 16 -23h184q15 0 15 -25t-12 -38t-19 -13h-185q-22 0 -27 -27l-71 -309 q-15 -70 -15 -117z" />
<glyph unicode="&#xd1;" horiz-adv-x="1231" d="M17 13q0 20 8.5 38t13.5 18q72 0 110.5 21t55.5 96l211 928q11 50 11 98t-38 65q-24 10 -77 10q-6 0 -6 21t8.5 38t13.5 17q38 -5 104 -5t89 -4.5t37 -41.5l392 -1024q12 -28 24 -28q13 0 19 30l205 882q6 24 6 44q0 71 -119 71q-6 0 -6 20t9.5 38t14.5 18 q38 -5 154.5 -5t154.5 5q6 0 6 -21t-9 -38t-14 -17q-62 0 -93.5 -19.5t-48.5 -95.5l-267 -1168q-8 -33 -21 -33t-25 29l-431 1117q-7 20 -20.5 20t-18.5 -31l-210 -920q-6 -27 -6 -45q0 -72 106 -72q6 0 6 -21t-8.5 -38t-13.5 -17q-69 7 -160.5 7t-160.5 -7q-6 0 -6 20z M629 1546q30 197 145 197q38 0 117 -43t114 -43q26 0 48 30.5t26 63.5h39q-15 -79 -51.5 -140t-91.5 -61q-37 0 -117.5 44t-109.5 44q-32 0 -52.5 -26t-27.5 -66h-39z" />
<glyph unicode="&#xd2;" horiz-adv-x="1182" d="M174 441q0 361 221 652.5t468 291.5q175 0 269.5 -144.5t94.5 -354.5q0 -350 -220 -631.5t-469 -281.5q-142 0 -253 112t-111 356zM304 456q0 -179 80.5 -294.5t181.5 -115.5q168 0 288.5 148t181.5 344t61 368q0 173 -77.5 290t-194.5 118q-126 0 -252 -133 t-197.5 -328.5t-71.5 -396.5zM570 1800q0 16 8 37q16 41 36 41q9 0 18 -7l371 -279q26 -19 26 -40q0 -6 -3 -12q-6 -16 -20 -16q-9 0 -23 8l-389 226q-24 14 -24 42z" />
<glyph unicode="&#xd3;" horiz-adv-x="1182" d="M174 441q0 361 221 652.5t468 291.5q175 0 269.5 -144.5t94.5 -354.5q0 -350 -220 -631.5t-469 -281.5q-142 0 -253 112t-111 356zM304 456q0 -179 80.5 -294.5t181.5 -115.5q168 0 288.5 148t181.5 344t61 368q0 173 -77.5 290t-194.5 118q-126 0 -252 -133 t-197.5 -328.5t-71.5 -396.5zM743 1553q0 20 26 39l372 279q9 7 17 7q20 0 36 -41q9 -21 9 -38q0 -27 -24 -41l-390 -226q-13 -8 -23 -8q-14 0 -20 16q-3 6 -3 13z" />
<glyph unicode="&#xd4;" horiz-adv-x="1182" d="M174 441q0 361 221 652.5t468 291.5q175 0 269.5 -144.5t94.5 -354.5q0 -350 -220 -631.5t-469 -281.5q-142 0 -253 112t-111 356zM304 456q0 -179 80.5 -294.5t181.5 -115.5q168 0 288.5 148t181.5 344t61 368q0 173 -77.5 290t-194.5 118q-126 0 -252 -133 t-197.5 -328.5t-71.5 -396.5zM660 1544q0 6 4 11l243 233q21 20 37 20t28 -20l146 -233q1 -3 1 -5q0 -7 -8 -16.5t-13 -9.5q-3 0 -5 2l-156 130q-13 12 -22.5 12t-27.5 -12l-208 -130l-6 -2q-7 0 -11 9q-2 6 -2 11z" />
<glyph unicode="&#xd5;" horiz-adv-x="1182" d="M174 441q0 361 221 652.5t468 291.5q175 0 269.5 -144.5t94.5 -354.5q0 -350 -220 -631.5t-469 -281.5q-142 0 -253 112t-111 356zM304 456q0 -179 80.5 -294.5t181.5 -115.5q168 0 288.5 148t181.5 344t61 368q0 173 -77.5 290t-194.5 118q-126 0 -252 -133 t-197.5 -328.5t-71.5 -396.5zM662 1546q30 197 145 197q38 0 117 -43t114 -43q26 0 48 30.5t26 63.5h39q-15 -79 -51.5 -140t-91.5 -61q-37 0 -117.5 44t-109.5 44q-32 0 -52.5 -26t-27.5 -66h-39z" />
<glyph unicode="&#xd6;" horiz-adv-x="1182" d="M174 441q0 361 221 652.5t468 291.5q175 0 269.5 -144.5t94.5 -354.5q0 -350 -220 -631.5t-469 -281.5q-142 0 -253 112t-111 356zM304 456q0 -179 80.5 -294.5t181.5 -115.5q168 0 288.5 148t181.5 344t61 368q0 173 -77.5 290t-194.5 118q-126 0 -252 -133 t-197.5 -328.5t-71.5 -396.5zM656 1639q0 53 27.5 89.5t63.5 36.5q68 0 68 -90q0 -57 -27 -91t-63 -34q-69 0 -69 89zM975 1639q0 53 28 89.5t64 36.5q68 0 68 -90q0 -57 -27 -91t-63 -34q-70 0 -70 89z" />
<glyph unicode="&#xd7;" horiz-adv-x="778" d="M131 104l241 308l-241 303l61 82l242 -308l244 312l61 -80l-242 -309l242 -308l-61 -81l-244 311l-242 -311z" />
<glyph unicode="&#xd8;" horiz-adv-x="1182" d="M102 -37q0 3 2 5l134 180q-64 116 -64 293q0 390 260 702q204 242 429 242q138 0 227 -91l100 133q2 2 4 2q11 0 27 -19q15 -16 15 -29q0 -4 -1 -5l-101 -136l4 -8q89 -135 89 -346q0 -350 -228 -642q-212 -271 -461 -271q-149 0 -259 118l-130 -175q-3 -3 -6 -3 q-10 0 -25 19q-16 18 -16 31zM304 464q0 -103 26 -191l689 925q-74 115 -188 117q-124 0 -239 -116q-142 -142 -220 -355q-68 -191 -68 -380zM360 201q38 -76 102 -119q52 -36 104 -36q168 0 299 159q110 137 175 347q57 182 57 334q0 137 -44 245z" />
<glyph unicode="&#xd9;" horiz-adv-x="1185" d="M236 263q0 102 39 276l145 633q6 29 6 46q0 44 -28 56.5t-84 12.5q-8 0 -8 22.5t8.5 38t13.5 15.5q38 -5 196 -5t194 5q6 0 6 -21.5t-9 -38t-13 -16.5q-102 0 -127.5 -31t-37.5 -84l-112 -485q-71 -316 -71 -419t56 -161t158 -58q159 0 262.5 104t156.5 334l158 685 q5 22 5 41q0 74 -111 74q-5 0 -5 21t8.5 38t13.5 17q56 -5 183 -5t163 5q7 0 7 -21t-9 -38t-14 -17q-70 0 -105.5 -22t-51.5 -93l-64 -282q-88 -387 -146.5 -544t-181 -265t-305.5 -108q-146 0 -221 69.5t-75 220.5zM535 1800q0 16 8 37q16 41 36 41q9 0 18 -7l371 -279 q26 -19 26 -40q0 -6 -3 -12q-6 -16 -20 -16q-9 0 -23 8l-389 226q-24 14 -24 42z" />
<glyph unicode="&#xda;" horiz-adv-x="1185" d="M236 263q0 102 39 276l145 633q6 29 6 46q0 44 -28 56.5t-84 12.5q-8 0 -8 22.5t8.5 38t13.5 15.5q38 -5 196 -5t194 5q6 0 6 -21.5t-9 -38t-13 -16.5q-102 0 -127.5 -31t-37.5 -84l-112 -485q-71 -316 -71 -419t56 -161t158 -58q159 0 262.5 104t156.5 334l158 685 q5 22 5 41q0 74 -111 74q-5 0 -5 21t8.5 38t13.5 17q56 -5 183 -5t163 5q7 0 7 -21t-9 -38t-14 -17q-70 0 -105.5 -22t-51.5 -93l-64 -282q-88 -387 -146.5 -544t-181 -265t-305.5 -108q-146 0 -221 69.5t-75 220.5zM778 1553q0 20 26 39l372 279q9 7 17 7q20 0 36 -41 q9 -21 9 -38q0 -27 -24 -41l-390 -226q-13 -8 -23 -8q-14 0 -20 16q-3 6 -3 13z" />
<glyph unicode="&#xdb;" horiz-adv-x="1185" d="M236 263q0 102 39 276l145 633q6 29 6 46q0 44 -28 56.5t-84 12.5q-8 0 -8 22.5t8.5 38t13.5 15.5q38 -5 196 -5t194 5q6 0 6 -21.5t-9 -38t-13 -16.5q-102 0 -127.5 -31t-37.5 -84l-112 -485q-71 -316 -71 -419t56 -161t158 -58q159 0 262.5 104t156.5 334l158 685 q5 22 5 41q0 74 -111 74q-5 0 -5 21t8.5 38t13.5 17q56 -5 183 -5t163 5q7 0 7 -21t-9 -38t-14 -17q-70 0 -105.5 -22t-51.5 -93l-64 -282q-88 -387 -146.5 -544t-181 -265t-305.5 -108q-146 0 -221 69.5t-75 220.5zM679 1544q0 6 4 11l243 233q21 20 37 20t28 -20l146 -233 q1 -3 1 -5q0 -7 -8 -16.5t-13 -9.5q-3 0 -5 2l-156 130q-13 12 -22.5 12t-27.5 -12l-208 -130l-6 -2q-7 0 -11 9q-2 6 -2 11z" />
<glyph unicode="&#xdc;" horiz-adv-x="1185" d="M236 263q0 102 39 276l145 633q6 29 6 46q0 44 -28 56.5t-84 12.5q-8 0 -8 22.5t8.5 38t13.5 15.5q38 -5 196 -5t194 5q6 0 6 -21.5t-9 -38t-13 -16.5q-102 0 -127.5 -31t-37.5 -84l-112 -485q-71 -316 -71 -419t56 -161t158 -58q159 0 262.5 104t156.5 334l158 685 q5 22 5 41q0 74 -111 74q-5 0 -5 21t8.5 38t13.5 17q56 -5 183 -5t163 5q7 0 7 -21t-9 -38t-14 -17q-70 0 -105.5 -22t-51.5 -93l-64 -282q-88 -387 -146.5 -544t-181 -265t-305.5 -108q-146 0 -221 69.5t-75 220.5zM691 1639q0 53 27.5 89.5t63.5 36.5q68 0 68 -90 q0 -57 -27 -91t-63 -34q-69 0 -69 89zM1010 1639q0 53 28 89.5t64 36.5q68 0 68 -90q0 -57 -27 -91t-63 -34q-70 0 -70 89z" />
<glyph unicode="&#xdd;" horiz-adv-x="1069" d="M211 1308q0 21 9 38t14 17q36 -5 172 -5t175 5q5 0 5 -21t-8.5 -38t-13.5 -17q-78 0 -96 -20t-18 -45q0 -21 7 -50l121 -483q4 -18 12 -18t20 15l356 477q40 54 40 84q0 40 -80 40q-6 0 -6 21.5t9 38t14 16.5q53 -5 154 -5t161 5q6 0 6 -20.5t-9 -38t-14 -17.5 q-74 0 -115 -28.5t-169 -199.5l-305 -406q-46 -61 -70 -166l-68 -301q-8 -32 -8 -60t27.5 -42.5t84.5 -14.5q7 0 7 -21t-9 -38t-14 -17q-69 7 -190.5 7t-189.5 -7q-6 0 -6 21t9 38t13 17q76 0 110 20t51 97l61 266q22 94 22 128.5t-19 108.5l-121 483q-19 78 -51.5 96.5 t-73.5 18.5q-6 0 -6 21zM679 1553q0 20 26 39l372 279q9 7 17 7q20 0 36 -41q9 -21 9 -38q0 -27 -24 -41l-390 -226q-13 -8 -23 -8q-14 0 -20 16q-3 6 -3 13z" />
<glyph unicode="&#xde;" horiz-adv-x="927" d="M-102 -455q0 19 13 31l109 89q52 49 64 102l306 1336q7 27 7 49q0 87 -115 87q-6 0 -6 21t9 38t13 17q85 0 227 60q21 9 35 9t14 -19q0 -7 -8 -37l-51 -193q-3 -12 -3 -20.5t6 -8.5t44 26t113 89t110 85t77 22q64 0 96 -103.5t32 -221.5q0 -273 -114.5 -500.5t-287 -372 t-318.5 -157.5q-22 -1 -28 -26l-49 -222q-12 -50 -100 -124l-150 -117q-5 -5 -13 -5q-20 0 -29 35q-3 12 -3 31zM269 57q0 -9 15 -9q131 7 284.5 157t222.5 355.5t69 345.5q0 94 -29 199.5t-70 105.5q-15 0 -35 -15q-52 -50 -207 -163q-33 -21 -45 -76l-204 -884 q-1 -7 -1 -16z" />
<glyph unicode="&#xdf;" horiz-adv-x="740" d="M-244 -441.5q0 37.5 18.5 56t31.5 18.5q49 0 70 -50t52 -50q34 0 66.5 56.5t41.5 113.5l144 930q36 235 108 405.5t157 260.5t155 127.5t152 37.5t131 -55t49 -125q0 -116 -97 -188l-186 -138q-111 -82 -111 -274q0 -99 71 -228.5t71 -233.5t-70.5 -176.5t-162.5 -72.5 q-48 0 -78 37.5t-30 71.5q0 80 45 80t67.5 -42.5t34.5 -53.5t40 -11q65 0 65 121q0 64 -72 190t-72 226q0 133 41.5 235.5t141.5 183t144.5 134t44.5 128.5q0 60 -31 91t-73 31q-51 0 -93.5 -28.5t-117.5 -109.5t-139.5 -278t-87.5 -346l-116 -744q-21 -132 -53 -229.5 t-90 -154t-141 -56.5q-54 0 -87.5 36t-33.5 73.5z" />
<glyph unicode="&#xe0;" horiz-adv-x="734" d="M50 141q0 211 139 457t294 246q58 0 107 -56l19 70q6 24 53 24t41 -24l-151 -655q-8 -35 -8 -59q0 -41 26 -41t104 94q7 9 22 -11q11 -13 11 -22q0 -5 -2 -8q-53 -81 -117 -132t-111 -51q-49 0 -49 79q0 56 19 120l35 115l-10 4q-190 -318 -323 -318q-48 0 -73.5 48 t-25.5 120zM169 176q0 -94 47 -94q44 0 124 100.5t125 186.5t66 174l36 151q-34 84 -105 84q-108 0 -200.5 -220t-92.5 -382zM353 1265q0 20 26.5 41t43 21t22.5 -16l116 -325q4 -12 4 -20q0 -37 -29 -37q-19 0 -33 27l-149 301q-1 2 -1 8z" />
<glyph unicode="&#xe1;" horiz-adv-x="734" d="M50 141q0 211 139 457t294 246q58 0 107 -56l19 70q6 24 53 24t41 -24l-151 -655q-8 -35 -8 -59q0 -41 26 -41t104 94q7 9 22 -11q11 -13 11 -22q0 -5 -2 -8q-53 -81 -117 -132t-111 -51q-49 0 -49 79q0 56 19 120l35 115l-10 4q-190 -318 -323 -318q-48 0 -73.5 48 t-25.5 120zM169 176q0 -94 47 -94q44 0 124 100.5t125 186.5t66 174l36 151q-34 84 -105 84q-108 0 -200.5 -220t-92.5 -382zM420 948q0 19 10 37l199 339q5 9 21 9t33.5 -27t17.5 -36t-3 -12l-219 -303q-19 -26 -39 -26t-20 19z" />
<glyph unicode="&#xe2;" horiz-adv-x="734" d="M50 141q0 211 139 457t294 246q58 0 107 -56l19 70q6 24 53 24t41 -24l-151 -655q-8 -35 -8 -59q0 -41 26 -41t104 94q7 9 22 -11q11 -13 11 -22q0 -5 -2 -8q-53 -81 -117 -132t-111 -51q-49 0 -49 79q0 56 19 120l35 115l-10 4q-190 -318 -323 -318q-48 0 -73.5 48 t-25.5 120zM169 176q0 -94 47 -94q44 0 124 100.5t125 186.5t66 174l36 151q-34 84 -105 84q-108 0 -200.5 -220t-92.5 -382zM313 980q0 3 1 7l208 354q21 35 39 35t30 -41l100 -352l-1 -9q-5 -15 -24 -18q-5 0 -8 5l-98 215q-13 30 -20 30t-27 -26l-169 -224q-3 -3 -7 -3 q-24 0 -24 27z" />
<glyph unicode="&#xe3;" horiz-adv-x="734" d="M50 141q0 211 139 457t294 246q58 0 107 -56l19 70q6 24 53 24t41 -24l-151 -655q-8 -35 -8 -59q0 -41 26 -41t104 94q7 9 22 -11q11 -13 11 -22q0 -5 -2 -8q-53 -81 -117 -132t-111 -51q-49 0 -49 79q0 56 19 120l35 115l-10 4q-190 -318 -323 -318q-48 0 -73.5 48 t-25.5 120zM169 176q0 -94 47 -94q44 0 124 100.5t125 186.5t66 174l36 151q-34 84 -105 84q-108 0 -200.5 -220t-92.5 -382zM278 1006q34 211 156 211q43 0 127 -46.5t116 -46.5t56 33.5t27 67.5q0 10 22 10t20 -10q-16 -85 -55.5 -150t-98.5 -65q-36 0 -125 47t-121 47 t-53 -24.5t-28 -73.5q-2 -10 -23 -10t-20 10z" />
<glyph unicode="&#xe4;" horiz-adv-x="734" d="M50 141q0 211 139 457t294 246q58 0 107 -56l19 70q6 24 53 24t41 -24l-151 -655q-8 -35 -8 -59q0 -41 26 -41t104 94q7 9 22 -11q11 -13 11 -22q0 -5 -2 -8q-53 -81 -117 -132t-111 -51q-49 0 -49 79q0 56 19 120l35 115l-10 4q-190 -318 -323 -318q-48 0 -73.5 48 t-25.5 120zM169 176q0 -94 47 -94q44 0 124 100.5t125 186.5t66 174l36 151q-34 84 -105 84q-108 0 -200.5 -220t-92.5 -382zM337 1100q0 52 28 88.5t64 36.5q68 0 68 -90q0 -57 -27 -91t-63 -34q-70 0 -70 90zM623 1100q0 52 28 88.5t64 36.5q68 0 68 -90q0 -57 -27 -91 t-63 -34q-70 0 -70 90z" />
<glyph unicode="&#xe5;" horiz-adv-x="734" d="M50 141q0 211 139 457t294 246q58 0 107 -56l19 70q6 24 53 24t41 -24l-151 -655q-8 -35 -8 -59q0 -41 26 -41t104 94q7 9 22 -11q11 -13 11 -22q0 -5 -2 -8q-53 -81 -117 -132t-111 -51q-49 0 -49 79q0 56 19 120l35 115l-10 4q-190 -318 -323 -318q-48 0 -73.5 48 t-25.5 120zM169 176q0 -94 47 -94q44 0 124 100.5t125 186.5t66 174l36 151q-34 84 -105 84q-108 0 -200.5 -220t-92.5 -382zM383 1139q0 93 58 150q45 44 106 44q81 0 128 -72l16 -28l11 -32l8 -38v-24q0 -94 -58 -151l-24 -20q-37 -24 -81 -24q-81 0 -129 71 q-35 53 -35 124zM460 1139q0 -73 40 -108q21 -19 47 -19q51 0 75 60q12 30 12 67q0 74 -40 109l-18 12q-14 6 -29 6q-49 0 -74 -58q-13 -31 -13 -69z" />
<glyph unicode="&#xe6;" horiz-adv-x="803" d="M25 141q0 255 237 483t454 228q108 0 108 -115q0 -137 -132 -245t-253 -136q-11 -73 -11 -118q0 -166 88 -166q29 0 58.5 16t119.5 109q4 3 7 3q21 0 21 -28q0 -5 -3 -8q-119 -191 -234 -191q-106 0 -143 103q-104 -103 -219 -103q-46 0 -72 47.5t-26 120.5zM142 176 q0 -94 48 -94q65 0 136 65q-4 62 -4 68q0 116 57.5 262t142.5 250l-4 6q-152 -84 -264 -249.5t-112 -307.5zM454 420q95 25 175.5 102.5t80.5 188.5q0 61 -43 61q-58 0 -118.5 -105t-94.5 -247z" />
<glyph unicode="&#xe7;" horiz-adv-x="539" d="M58 -358q0 49 40 49q16 0 40 -30t34 -30q46 0 46 71q0 63 -73 111q-17 12 -6 30l94 157h53l-48 -80q-15 -23 8 -45q60 -61 60 -131q0 -71 -52.5 -119.5t-114.5 -48.5q-81 0 -81 66zM78 256q0 203 115 399.5t253 196.5q49 0 90 -29.5t41 -68.5q0 -32 -20 -54.5t-41 -22.5 q-22 0 -30 19q-7 57 -12 66q-16 26 -71 26q-72 0 -144 -161.5t-73 -302.5q0 -121 30 -191t79 -70q50 0 80.5 21.5t65.5 60.5q4 4 14 0.5t13 -15t-1 -17.5q-112 -140 -226 -140q-74 0 -118.5 79.5t-44.5 203.5z" />
<glyph unicode="&#xe8;" horiz-adv-x="556" d="M77 215q0 191 128 414t269 223q104 0 104 -115q0 -135 -130.5 -244t-253.5 -137q-12 -75 -12 -118q0 -166 88 -166q33 0 67.5 21t112.5 104q6 6 15.5 0.5t10.5 -17t-2 -16.5q-125 -191 -235 -191q-162 0 -162 242zM208 420q99 26 177.5 104t78.5 187q0 61 -43 61 q-59 0 -117 -102.5t-96 -249.5zM321 1265q0 20 26.5 41t43 21t22.5 -16l116 -325q4 -12 4 -20q0 -37 -29 -37q-19 0 -33 27l-149 301q-1 2 -1 8z" />
<glyph unicode="&#xe9;" horiz-adv-x="556" d="M77 215q0 191 128 414t269 223q104 0 104 -115q0 -135 -130.5 -244t-253.5 -137q-12 -75 -12 -118q0 -166 88 -166q33 0 67.5 21t112.5 104q6 6 15.5 0.5t10.5 -17t-2 -16.5q-125 -191 -235 -191q-162 0 -162 242zM208 420q99 26 177.5 104t78.5 187q0 61 -43 61 q-59 0 -117 -102.5t-96 -249.5zM404 948q0 19 10 37l199 339q5 9 21 9t33.5 -27t17.5 -36t-3 -12l-219 -303q-19 -26 -39 -26t-20 19z" />
<glyph unicode="&#xea;" horiz-adv-x="556" d="M77 215q0 191 128 414t269 223q104 0 104 -115q0 -135 -130.5 -244t-253.5 -137q-12 -75 -12 -118q0 -166 88 -166q33 0 67.5 21t112.5 104q6 6 15.5 0.5t10.5 -17t-2 -16.5q-125 -191 -235 -191q-162 0 -162 242zM208 420q99 26 177.5 104t78.5 187q0 61 -43 61 q-59 0 -117 -102.5t-96 -249.5zM270 980q0 3 1 7l208 354q21 35 39 35t30 -41l100 -352l-1 -9q-5 -15 -24 -18q-5 0 -8 5l-98 215q-13 30 -20 30t-27 -26l-169 -224q-3 -3 -7 -3q-24 0 -24 27z" />
<glyph unicode="&#xeb;" horiz-adv-x="556" d="M77 215q0 191 128 414t269 223q104 0 104 -115q0 -135 -130.5 -244t-253.5 -137q-12 -75 -12 -118q0 -166 88 -166q33 0 67.5 21t112.5 104q6 6 15.5 0.5t10.5 -17t-2 -16.5q-125 -191 -235 -191q-162 0 -162 242zM208 420q99 26 177.5 104t78.5 187q0 61 -43 61 q-59 0 -117 -102.5t-96 -249.5zM298 1100q0 52 28 88.5t64 36.5q68 0 68 -90q0 -57 -27 -91t-63 -34q-70 0 -70 90zM584 1100q0 52 28 88.5t64 36.5q68 0 68 -90q0 -57 -27 -91t-63 -34q-70 0 -70 90z" />
<glyph unicode="&#xec;" horiz-adv-x="422" d="M89 657q0 3 1 6q30 59 101 124t117 65q45 0 45 -86q0 -37 -9 -76l-110 -487q-8 -39 -8 -61q0 -40 22.5 -40t105.5 93q7 8 21 -9q11 -13 11 -22q0 -3 -1 -6q-16 -35 -94.5 -110t-134.5 -75q-43 0 -43 87q0 38 9 77l109 488q4 18 4 36q0 50 -19.5 50t-93.5 -88 q-8 -9 -23 11q-10 14 -10 23zM146 1265q0 20 26.5 41t43 21t22.5 -16l116 -325q4 -12 4 -20q0 -37 -29 -37q-19 0 -33 27l-149 301q-1 2 -1 8z" />
<glyph unicode="&#xed;" horiz-adv-x="422" d="M89 657q0 3 1 6q30 59 101 124t117 65q45 0 45 -86q0 -37 -9 -76l-110 -487q-8 -39 -8 -61q0 -40 22.5 -40t105.5 93q7 8 21 -9q11 -13 11 -22q0 -3 -1 -6q-16 -35 -94.5 -110t-134.5 -75q-43 0 -43 87q0 38 9 77l109 488q4 18 4 36q0 50 -19.5 50t-93.5 -88 q-8 -9 -23 11q-10 14 -10 23zM245 948q0 19 10 37l199 339q5 9 21 9t33.5 -27t17.5 -36t-3 -12l-219 -303q-19 -26 -39 -26t-20 19z" />
<glyph unicode="&#xee;" horiz-adv-x="422" d="M89 657q0 3 1 6q30 59 101 124t117 65q45 0 45 -86q0 -37 -9 -76l-110 -487q-8 -39 -8 -61q0 -40 22.5 -40t105.5 93q7 8 21 -9q11 -13 11 -22q0 -3 -1 -6q-16 -35 -94.5 -110t-134.5 -75q-43 0 -43 87q0 38 9 77l109 488q4 18 4 36q0 50 -19.5 50t-93.5 -88 q-8 -9 -23 11q-10 14 -10 23zM111 980q0 3 1 7l208 354q21 35 39 35t30 -41l100 -352l-1 -9q-5 -15 -24 -18q-5 0 -8 5l-98 215q-13 30 -20 30t-27 -26l-169 -224q-3 -3 -7 -3q-24 0 -24 27z" />
<glyph unicode="&#xef;" horiz-adv-x="422" d="M89 657q0 3 1 6q30 59 101 124t117 65q45 0 45 -86q0 -37 -9 -76l-110 -487q-8 -39 -8 -61q0 -40 22.5 -40t105.5 93q7 8 21 -9q11 -13 11 -22q0 -3 -1 -6q-16 -35 -94.5 -110t-134.5 -75q-43 0 -43 87q0 38 9 77l109 488q4 18 4 36q0 50 -19.5 50t-93.5 -88 q-8 -9 -23 11q-10 14 -10 23zM106 1100q0 52 28 88.5t64 36.5q68 0 68 -90q0 -57 -27 -91t-63 -34q-70 0 -70 90zM392 1100q0 52 28 88.5t64 36.5q68 0 68 -90q0 -57 -27 -91t-63 -34q-70 0 -70 90z" />
<glyph unicode="&#xf0;" horiz-adv-x="661" d="M77 303q0 219 122.5 384t254.5 165q32 0 52 -8q-48 119 -136 209l-234 -189q-3 -2 -6 -2q-11 0 -36 105q-7 28 -2 28q2 0 27 -18t44 -18t34 12l141 114q-88 83 -238 160q-6 3 -6 18.5t12 31t19 12.5q165 -69 281 -166l241 198q3 2 6 2q15 0 45 -83q15 -39 7 -39 q-5 0 -36 12t-47.5 12t-27.5 -8l-152 -123q212 -198 212 -467q0 -305 -106 -488.5t-279 -183.5q-192 0 -192 330zM174 215q0 -158 112 -158q82 0 172.5 192t90.5 378q0 141 -107 141q-80 0 -174 -188t-94 -365z" />
<glyph unicode="&#xf1;" horiz-adv-x="806" d="M90 6l141 619q5 21 5 39q0 47 -25.5 47t-85.5 -86q-3 -3 -6 -3q-9 0 -19 12.5t-10 21.5q0 4 2 6q123 190 214 190q46 0 46 -90q0 -42 -23 -138l-55 -241l6 -4q197 473 359 473q85 0 85 -125q0 -61 -22 -160l-83 -364q-8 -34 -8 -62q0 -39 27.5 -39t99.5 93q2 3 5 3 q10 0 19.5 -13t9.5 -20t-2 -9q-128 -183 -228 -183q-44 0 -44 84q0 39 8 80l100 445q24 106 24 145q0 45 -24 45q-68 0 -195 -231t-225 -539q-8 -29 -55.5 -29t-40.5 33zM302 1006q34 211 156 211q43 0 127 -46.5t116 -46.5t56 33.5t27 67.5q0 10 22 10t20 -10 q-16 -85 -55.5 -150t-98.5 -65q-36 0 -125 47t-121 47t-53 -24.5t-28 -73.5q-2 -10 -23 -10t-20 10z" />
<glyph unicode="&#xf2;" horiz-adv-x="670" d="M77 305q0 195 120.5 371t264.5 176q96 0 144.5 -85t48.5 -230q0 -213 -109.5 -388.5t-275.5 -175.5q-98 0 -145.5 91.5t-47.5 240.5zM170 231q0 -163 107 -163q87 0 188 186.5t101 333.5q0 180 -104 180q-93 0 -192.5 -190.5t-99.5 -346.5zM337 1265q0 20 26.5 41t43 21 t22.5 -16l116 -325q4 -12 4 -20q0 -37 -29 -37q-19 0 -33 27l-149 301q-1 2 -1 8z" />
<glyph unicode="&#xf3;" horiz-adv-x="670" d="M77 305q0 195 120.5 371t264.5 176q96 0 144.5 -85t48.5 -230q0 -213 -109.5 -388.5t-275.5 -175.5q-98 0 -145.5 91.5t-47.5 240.5zM170 231q0 -163 107 -163q87 0 188 186.5t101 333.5q0 180 -104 180q-93 0 -192.5 -190.5t-99.5 -346.5zM420 948q0 19 10 37l199 339 q5 9 21 9t33.5 -27t17.5 -36t-3 -12l-219 -303q-19 -26 -39 -26t-20 19z" />
<glyph unicode="&#xf4;" horiz-adv-x="670" d="M77 305q0 195 120.5 371t264.5 176q96 0 144.5 -85t48.5 -230q0 -213 -109.5 -388.5t-275.5 -175.5q-98 0 -145.5 91.5t-47.5 240.5zM170 231q0 -163 107 -163q87 0 188 186.5t101 333.5q0 180 -104 180q-93 0 -192.5 -190.5t-99.5 -346.5zM262 980q0 3 1 7l208 354 q21 35 39 35t30 -41l100 -352l-1 -9q-5 -15 -24 -18q-5 0 -8 5l-98 215q-13 30 -20 30t-27 -26l-169 -224q-3 -3 -7 -3q-24 0 -24 27z" />
<glyph unicode="&#xf5;" horiz-adv-x="670" d="M77 305q0 195 120.5 371t264.5 176q96 0 144.5 -85t48.5 -230q0 -213 -109.5 -388.5t-275.5 -175.5q-98 0 -145.5 91.5t-47.5 240.5zM170 231q0 -163 107 -163q87 0 188 186.5t101 333.5q0 180 -104 180q-93 0 -192.5 -190.5t-99.5 -346.5zM248 1006q34 211 156 211 q43 0 127 -46.5t116 -46.5t56 33.5t27 67.5q0 10 22 10t20 -10q-16 -85 -55.5 -150t-98.5 -65q-36 0 -125 47t-121 47t-53 -24.5t-28 -73.5q-2 -10 -23 -10t-20 10z" />
<glyph unicode="&#xf6;" horiz-adv-x="670" d="M77 305q0 195 120.5 371t264.5 176q96 0 144.5 -85t48.5 -230q0 -213 -109.5 -388.5t-275.5 -175.5q-98 0 -145.5 91.5t-47.5 240.5zM170 231q0 -163 107 -163q87 0 188 186.5t101 333.5q0 180 -104 180q-93 0 -192.5 -190.5t-99.5 -346.5zM298 1100q0 52 28 88.5 t64 36.5q68 0 68 -90q0 -57 -27 -91t-63 -34q-70 0 -70 90zM584 1100q0 52 28 88.5t64 36.5q68 0 68 -90q0 -57 -27 -91t-63 -34q-70 0 -70 90z" />
<glyph unicode="&#xf7;" horiz-adv-x="840" d="M95 371v100h652v-100h-652zM344 129.5q0 34.5 20.5 64.5t59 30t57 -30.5t18.5 -69.5t-21 -63.5t-57.5 -24.5t-56.5 29.5t-20 64zM344 708.5q0 34.5 20.5 65t59 30.5t57 -30.5t18.5 -70t-21 -64t-57.5 -24.5t-56.5 29.5t-20 64z" />
<glyph unicode="&#xf8;" horiz-adv-x="670" d="M77 305q0 196 121 371q121 176 264 176q50 0 89 -26l48 92q1 4 7 4q14 0 29 -19q7 -8 7 -14q0 -3 -1 -4l-51 -96q64 -83 65 -252l-2 -70q-15 -164 -99 -304q-112 -190 -284 -190q-50 0 -89 28l-55 -104q-3 -6 -9 -6q-15 0 -27 19q-6 8 -6 14l2 6l56 109q-65 88 -65 266z M170 231q0 -62 19 -103l325 628q-19 12 -52 12q-76 0 -160 -132q-80 -126 -116 -279q-16 -70 -16 -126zM224 84q22 -16 53 -16q69 0 153 128q81 122 118 268q18 70 18 124q0 76 -16 121z" />
<glyph unicode="&#xf9;" horiz-adv-x="792" d="M92 656q0 4 2 6q123 190 214 190q44 0 44 -82q0 -47 -20 -134l-70 -302q-32 -142 -32 -187t22 -45q35 0 127 122t183 317q46 100 96 288q7 23 48 23q56 0 50 -26l-142 -623q-9 -42 -9 -62q0 -39 27 -39t100 93q2 3 6 3q11 0 19 -12q10 -14 10 -22q0 -5 -2 -8 q-131 -183 -227 -183q-47 0 -47 90q0 35 9 74l66 287q-196 -308 -268 -379.5t-117 -71.5q-67 0 -67 99q0 38 16 108l101 445q5 21 5 41q0 45 -23 45t-42 -27q-21 -29 -45 -59q-2 -3 -6 -3q-15 0 -25 22q-3 7 -3 12zM349 1265q0 20 26.5 41t43 21t22.5 -16l116 -325 q4 -12 4 -20q0 -37 -29 -37q-19 0 -33 27l-149 301q-1 2 -1 8z" />
<glyph unicode="&#xfa;" horiz-adv-x="792" d="M92 656q0 4 2 6q123 190 214 190q44 0 44 -82q0 -47 -20 -134l-70 -302q-32 -142 -32 -187t22 -45q35 0 127 122t183 317q46 100 96 288q7 23 48 23q56 0 50 -26l-142 -623q-9 -42 -9 -62q0 -39 27 -39t100 93q2 3 6 3q11 0 19 -12q10 -14 10 -22q0 -5 -2 -8 q-131 -183 -227 -183q-47 0 -47 90q0 35 9 74l66 287q-196 -308 -268 -379.5t-117 -71.5q-67 0 -67 99q0 38 16 108l101 445q5 21 5 41q0 45 -23 45t-42 -27q-21 -29 -45 -59q-2 -3 -6 -3q-15 0 -25 22q-3 7 -3 12zM444 948q0 19 10 37l199 339q5 9 21 9t33.5 -27t17.5 -36 t-3 -12l-219 -303q-19 -26 -39 -26t-20 19z" />
<glyph unicode="&#xfb;" horiz-adv-x="792" d="M92 656q0 4 2 6q123 190 214 190q44 0 44 -82q0 -47 -20 -134l-70 -302q-32 -142 -32 -187t22 -45q35 0 127 122t183 317q46 100 96 288q7 23 48 23q56 0 50 -26l-142 -623q-9 -42 -9 -62q0 -39 27 -39t100 93q2 3 6 3q11 0 19 -12q10 -14 10 -22q0 -5 -2 -8 q-131 -183 -227 -183q-47 0 -47 90q0 35 9 74l66 287q-196 -308 -268 -379.5t-117 -71.5q-67 0 -67 99q0 38 16 108l101 445q5 21 5 41q0 45 -23 45t-42 -27q-21 -29 -45 -59q-2 -3 -6 -3q-15 0 -25 22q-3 7 -3 12zM334 980q0 3 1 7l208 354q21 35 39 35t30 -41l100 -352 l-1 -9q-5 -15 -24 -18q-5 0 -8 5l-98 215q-13 30 -20 30t-27 -26l-169 -224q-3 -3 -7 -3q-24 0 -24 27z" />
<glyph unicode="&#xfc;" horiz-adv-x="792" d="M92 656q0 4 2 6q123 190 214 190q44 0 44 -82q0 -47 -20 -134l-70 -302q-32 -142 -32 -187t22 -45q35 0 127 122t183 317q46 100 96 288q7 23 48 23q56 0 50 -26l-142 -623q-9 -42 -9 -62q0 -39 27 -39t100 93q2 3 6 3q11 0 19 -12q10 -14 10 -22q0 -5 -2 -8 q-131 -183 -227 -183q-47 0 -47 90q0 35 9 74l66 287q-196 -308 -268 -379.5t-117 -71.5q-67 0 -67 99q0 38 16 108l101 445q5 21 5 41q0 45 -23 45t-42 -27q-21 -29 -45 -59q-2 -3 -6 -3q-15 0 -25 22q-3 7 -3 12zM329 1100q0 52 28 88.5t64 36.5q68 0 68 -90 q0 -57 -27 -91t-63 -34q-70 0 -70 90zM615 1100q0 52 28 88.5t64 36.5q68 0 68 -90q0 -57 -27 -91t-63 -34q-70 0 -70 90z" />
<glyph unicode="&#xfd;" horiz-adv-x="634" d="M-90 -459q0 40 13.5 64t45.5 24q33 0 49 -34.5t48 -34.5q52 0 111 92.5t84 204.5t25 278q0 228 -27 405t-67 177q-36 0 -89 -131q-3 -7 -14.5 -5.5t-18.5 8.5t-4 15q83 248 176 248q68 0 104 -183t36 -442q0 -87 -7 -188h8q59 130 105 322.5t46 277.5q0 69 -15 145 q0 68 57.5 68t57.5 -64q0 -74 -35 -254.5t-124 -401.5t-129 -303.5t-142 -233t-202 -150.5q-42 0 -67 30.5t-25 65.5zM356 948q0 19 10 37l199 339q5 9 21 9t33.5 -27t17.5 -36t-3 -12l-219 -303q-19 -26 -39 -26t-20 19z" />
<glyph unicode="&#xfe;" horiz-adv-x="670" d="M-84 -522q0 9 4 10q33 12 69 51t42 82l239 1566q7 47 7 75q0 97 -70 97q-12 0 -12 26.5t12 26.5q55 0 119 36t68 36q13 0 10 -18l-126 -854q113 240 255 240q137 0 137 -170q0 -84 -30 -205.5t-121 -241.5t-183.5 -190t-152.5 -70l-60 -385q-6 -38 -29 -72.5t-90 -55.5 t-72 -21q-9 0 -14 21q-2 10 -2 16zM190 31q79 0 197 141.5t147.5 277t29.5 222.5q0 110 -76 110q-59 0 -138.5 -112.5t-97.5 -231.5z" />
<glyph unicode="&#xff;" horiz-adv-x="634" d="M-90 -459q0 40 13.5 64t45.5 24q33 0 49 -34.5t48 -34.5q52 0 111 92.5t84 204.5t25 278q0 228 -27 405t-67 177q-36 0 -89 -131q-3 -7 -14.5 -5.5t-18.5 8.5t-4 15q83 248 176 248q68 0 104 -183t36 -442q0 -87 -7 -188h8q59 130 105 322.5t46 277.5q0 69 -15 145 q0 68 57.5 68t57.5 -64q0 -74 -35 -254.5t-124 -401.5t-129 -303.5t-142 -233t-202 -150.5q-42 0 -67 30.5t-25 65.5zM234 1100q0 52 28 88.5t64 36.5q68 0 68 -90q0 -57 -27 -91t-63 -34q-70 0 -70 90zM520 1100q0 52 28 88.5t64 36.5q68 0 68 -90q0 -57 -27 -91t-63 -34 q-70 0 -70 90z" />
<glyph unicode="&#x152;" horiz-adv-x="1650" d="M174 450q0 229 100 439.5t246.5 342.5t329.5 132q194 -10 315 -10t556 4q49 0 49 -22q0 -7 -2 -16l-70 -310q-4 -14 -34 -14t-30 14q9 42 9 79q0 98 -63 153q-40 35 -91 38q-171 9 -243 9q-21 0 -28 -30l-127 -546q-8 -37 22 -37h154q67 0 85 22.5t28 65.5l22 100 q3 15 30.5 15t26.5 -15q-71 -266 -97 -428q-4 -15 -31 -15t-23 16l20 90q6 27 6 38q0 42 -83 42h-159q-26 0 -32 -26l-64 -281q-22 -93 -22 -139q0 -99 91 -99l193 7q202 9 263 275q4 14 34.5 14t30.5 -14l-75 -325q-6 -27 -21 -27l-230 3q-190 5 -368.5 5t-353.5 -13 q-176 0 -270 129t-94 334zM304 466q0 -178 77 -291.5t176 -113.5q147 0 179 8q98 23 120 117l226 986q3 13 3 27q0 81 -143 95q-42 4 -111 4q-145 0 -268 -129.5t-191 -319t-68 -383.5z" />
<glyph unicode="&#x153;" horiz-adv-x="935" d="M77 305q0 194 118 370.5t245 176.5q128 0 169 -182q121 182 243 182q105 0 105 -115q0 -137 -133 -245t-252 -136q-12 -75 -12 -118q0 -166 89 -166q50 0 99 44t81 81q2 3 6 3q19 0 19 -27q0 -5 -2 -9q-125 -191 -236 -191q-112 0 -146 117q-100 -117 -213 -117 q-91 0 -135.5 92.5t-44.5 239.5zM170 231q0 -75 24.5 -119t66.5 -44q78 0 175 188t97 332q0 180 -85 180q-86 0 -182 -191t-96 -346zM586 420q105 27 180.5 107.5t75.5 183.5q0 61 -43 61q-45 0 -87 -55t-73.5 -134.5t-52.5 -162.5z" />
<glyph unicode="&#x178;" horiz-adv-x="982" d="M211 1308q0 21 9 38t14 17q36 -5 172 -5t175 5q5 0 5 -21t-8.5 -38t-13.5 -17q-78 0 -96 -20t-18 -45q0 -21 7 -50l121 -483q4 -18 12 -18t20 15l356 477q40 54 40 84q0 40 -80 40q-6 0 -6 21.5t9 38t14 16.5q53 -5 154 -5t161 5q6 0 6 -20.5t-9 -38t-14 -17.5 q-74 0 -115 -28.5t-169 -199.5l-305 -406q-46 -61 -70 -166l-68 -301q-8 -32 -8 -60t27.5 -42.5t84.5 -14.5q7 0 7 -21t-9 -38t-14 -17q-69 7 -190.5 7t-189.5 -7q-6 0 -6 21t9 38t13 17q76 0 110 20t51 97l61 266q22 94 22 128.5t-19 108.5l-121 483q-19 78 -51.5 96.5 t-73.5 18.5q-6 0 -6 21zM555 1639q0 53 27.5 89.5t63.5 36.5q68 0 68 -90q0 -57 -27 -91t-63 -34q-69 0 -69 89zM874 1639q0 53 28 89.5t64 36.5q68 0 68 -90q0 -57 -27 -91t-63 -34q-70 0 -70 89z" />
<glyph unicode="&#x2c6;" horiz-adv-x="589" d="M230 980q0 3 1 7l208 354q21 35 39 35t30 -41l100 -352l-1 -9q-5 -15 -24 -18q-5 0 -8 5l-98 215q-13 30 -20 30t-27 -26l-169 -224q-3 -3 -7 -3q-24 0 -24 27z" />
<glyph unicode="&#x2dc;" horiz-adv-x="455" d="M126 1006q34 211 156 211q43 0 127 -46.5t116 -46.5t56 33.5t27 67.5q0 10 22 10t20 -10q-16 -85 -55.5 -150t-98.5 -65q-36 0 -125 47t-121 47t-53 -24.5t-28 -73.5q-2 -10 -23 -10t-20 10z" />
<glyph unicode="&#x2000;" horiz-adv-x="939" />
<glyph unicode="&#x2001;" horiz-adv-x="1878" />
<glyph unicode="&#x2002;" horiz-adv-x="939" />
<glyph unicode="&#x2003;" horiz-adv-x="1878" />
<glyph unicode="&#x2004;" horiz-adv-x="626" />
<glyph unicode="&#x2005;" horiz-adv-x="469" />
<glyph unicode="&#x2006;" horiz-adv-x="313" />
<glyph unicode="&#x2007;" horiz-adv-x="313" />
<glyph unicode="&#x2008;" horiz-adv-x="234" />
<glyph unicode="&#x2009;" horiz-adv-x="375" />
<glyph unicode="&#x200a;" horiz-adv-x="104" />
<glyph unicode="&#x2010;" horiz-adv-x="661" d="M133 506q0 19 11 57.5t20 38.5h458q5 0 5 -21.5t-12 -57.5t-19 -36h-458q-5 0 -5 19z" />
<glyph unicode="&#x2011;" horiz-adv-x="661" d="M133 506q0 19 11 57.5t20 38.5h458q5 0 5 -21.5t-12 -57.5t-19 -36h-458q-5 0 -5 19z" />
<glyph unicode="&#x2012;" horiz-adv-x="661" d="M133 506q0 19 11 57.5t20 38.5h458q5 0 5 -21.5t-12 -57.5t-19 -36h-458q-5 0 -5 19z" />
<glyph unicode="&#x2013;" horiz-adv-x="819" d="M44 494.5q0 21.5 7 56.5t23 35h770q12 0 12 -21t-7 -56.5t-23 -35.5h-769q-13 0 -13 21.5z" />
<glyph unicode="&#x2014;" horiz-adv-x="1638" d="M62 495.5q0 22.5 7 56.5t23 34h1590q12 0 12 -21.5t-7 -56.5t-23 -35h-1590q-12 0 -12 22.5z" />
<glyph unicode="&#x2018;" horiz-adv-x="344" d="M169 1067q0 64 45.5 156t110 153.5t132.5 106.5q1 1 5.5 1t8.5 -9t4 -13t-1 -6q-180 -173 -180 -268q0 -32 19.5 -42.5t38 -31t18.5 -52.5q0 -51 -32 -85.5t-71 -34.5t-68.5 34t-29.5 91z" />
<glyph unicode="&#x2019;" horiz-adv-x="344" d="M148 961q0 4 2 6q179 173 179 268q0 32 -19.5 42.5t-37.5 31t-18 51.5q0 52 32 86.5t70 34.5q39 0 68.5 -34t29.5 -91q0 -64 -45.5 -156t-110 -153.5t-132.5 -106.5q0 -1 -5 -1t-9 9t-4 13z" />
<glyph unicode="&#x201a;" horiz-adv-x="344" d="M-127 -282q0 4 2 6q179 173 179 268q0 32 -19 42.5t-37.5 31t-18.5 52.5q0 51 32 85.5t71 34.5q38 0 68 -34t30 -91q0 -64 -46 -156t-110.5 -153.5t-131.5 -106.5q-1 -1 -6 -1t-9 9t-4 13z" />
<glyph unicode="&#x201c;" horiz-adv-x="581" d="M143 1067q0 64 45.5 156t110 153.5t132.5 106.5q1 1 5.5 1t8.5 -9t4 -13t-1 -6q-180 -173 -180 -268q0 -32 19.5 -42.5t38 -31t18.5 -52.5q0 -51 -32 -85.5t-71 -34.5t-68.5 34t-29.5 91zM411 1067q0 64 45.5 156t110 153.5t132.5 106.5q1 1 5.5 1t8.5 -9t4 -13t-1 -6 q-180 -173 -180 -268q0 -32 19.5 -42.5t38 -31t18.5 -52.5q0 -51 -32 -85.5t-71 -34.5t-68.5 34t-29.5 91z" />
<glyph unicode="&#x201d;" horiz-adv-x="581" d="M119 961q0 4 2 6q179 173 179 268q0 32 -19.5 42.5t-37.5 31t-18 51.5q0 52 32 86.5t70 34.5q39 0 68.5 -34t29.5 -91q0 -64 -45.5 -156t-110 -153.5t-132.5 -106.5q0 -1 -5 -1t-9 9t-4 13zM390 961q0 4 2 6q179 173 179 268q0 32 -19.5 42.5t-37.5 31t-18 51.5 q0 52 32 86.5t70 34.5q39 0 68.5 -34t29.5 -91q0 -64 -45.5 -156t-110 -153.5t-132.5 -106.5q0 -1 -5 -1t-9 9t-4 13z" />
<glyph unicode="&#x201e;" horiz-adv-x="581" d="M-127 -282q0 4 2 6q179 173 179 268q0 32 -19 42.5t-37.5 31t-18.5 52.5q0 51 32 85.5t71 34.5q38 0 68 -34t30 -91q0 -64 -46 -156t-110.5 -153.5t-131.5 -106.5q-1 -1 -6 -1t-9 9t-4 13zM145 -282q0 4 2 6q179 173 179 268q0 32 -19 42.5t-37.5 31t-18.5 52.5 q0 51 32 85.5t71 34.5q38 0 68 -34t30 -91q0 -64 -46 -156t-110.5 -153.5t-131.5 -106.5q-1 -1 -6 -1t-9 9t-4 13z" />
<glyph unicode="&#x2022;" horiz-adv-x="652" d="M114 746q0 115 59.5 190.5t155 75.5t153 -76t57.5 -190t-58.5 -185.5t-144.5 -71.5t-154 71t-68 186z" />
<glyph unicode="&#x202f;" horiz-adv-x="375" />
<glyph unicode="&#x2039;" horiz-adv-x="445" d="M77 417.5q0 26.5 33 60.5l307 312q3 3 7 3q18 0 18 -24q0 -5 -2 -9l-222 -294q-20 -27 -20 -52t6 -41l94 -279q3 -10 -9.5 -23.5t-19.5 -13.5t-9 3l-173 312q-10 19 -10 45.5z" />
<glyph unicode="&#x203a;" horiz-adv-x="357" d="M8 81q0 5 3 9l221 294q20 26 20 51.5t-6 41.5l-93 279q-4 10 8.5 23.5t19.5 13.5t9 -3l173 -312q10 -19 10 -45.5t-33 -60.5l-306 -312q-4 -3 -8 -3q-18 0 -18 24z" />
<glyph unicode="&#x205f;" horiz-adv-x="469" />
<glyph unicode="&#x20ac;" horiz-adv-x="1176" d="M54 602.5q0 52.5 17 52.5h126q10 45 28 103h-105q-17 0 -17 52.5t17 52.5h142q93 219 258.5 370.5t347.5 151.5q79 0 160.5 -33.5t118.5 -80t37 -93.5q0 -37 -29.5 -66t-62.5 -29q-34 0 -46 29q-51 110 -90 156t-109 46q-145 0 -267 -129t-198 -322h500q18 0 18 -52.5 t-18 -52.5h-535q-6 -19 -22 -103h509q16 0 16 -52.5t-16 -52.5h-528q-7 -56 -7 -94q0 -177 79 -272.5t204 -95.5q92 0 165 29t180 103q5 3 10 3q20 0 20 -30q0 -15 -11 -25q-116 -97 -208.5 -147t-211.5 -50q-131 0 -243.5 116.5t-112.5 342.5q0 59 8 120h-107 q-17 0 -17 52.5z" />
<glyph unicode="&#x2122;" horiz-adv-x="1715" d="M174 1206v197q0 20 37 20q146 -6 320.5 -6t326.5 6q37 0 37 -20v-197q0 -10 -20 -10t-20 10q0 79 -42 117t-79 40l-128 6q-24 0 -24 -27v-620q0 -69 89 -69q7 0 7 -26.5t-7 -26.5q-29 4 -138.5 4t-138.5 -4q-7 0 -7 26.5t7 26.5q93 0 93 69v620q0 27 -22 27l-130 -6 q-38 -1 -79.5 -39.5t-41.5 -117.5q0 -10 -20 -10t-20 10zM925 626.5q0 26.5 7 26.5q70 0 74 69l28 545v32q0 71 -89 71q-7 0 -7 26.5t7 26.5q29 -4 95.5 -4t84.5 -48l229 -602h1l235 605q18 45 72 45t102 4q7 0 7 -26.5t-7 -26.5q-90 0 -90 -105l4 -543q1 -69 75 -69 q7 0 7 -26.5t-7 -26.5q-29 4 -113.5 4t-113.5 -4q-7 0 -7 26.5t7 26.5q72 0 72 69l-3 504q0 8 -3.5 8t-5.5 -5l-246 -623q-2 -5 -14.5 -4t-13.5 4l-224 621q-3 9 -7.5 9t-5.5 -9l-24 -505q-3 -69 75 -69q7 0 7 -26.5t-7 -26.5q-29 4 -97 4t-97 -4q-7 0 -7 26.5z" />
<glyph unicode="&#x25fc;" horiz-adv-x="850" d="M0 0v850h850v-850h-850z" />
</font>
</defs>
</svg>
