<?xml version="1.0" standalone="no"?>
<!DOCTYPE svg PUBLIC "-//W3C//DTD SVG 1.1//EN" "http://www.w3.org/Graphics/SVG/1.1/DTD/svg11.dtd" >
<svg xmlns="http://www.w3.org/2000/svg">
<metadata></metadata>
<defs>
<font id="texgyreheroscnbold" horiz-adv-x="456" >
<font-face units-per-em="1000" ascent="793" descent="-207" />
<missing-glyph horiz-adv-x="228" />
<glyph unicode="&#xfb01;" horiz-adv-x="501" d="M8 432v100h63v43q0 79 32.5 115.5t101.5 36.5q28 0 54 -2v-113h-33q-27 0 -34 -10.5t-7 -48.5v-21h76v-100h-76v-432h-114v432h-63zM330 0v532h114v-532h-114zM331 618v115h114v-115h-114z" />
<glyph unicode="&#xfb02;" horiz-adv-x="501" d="M8 432v100h63v43q0 79 32.5 115.5t101.5 36.5q28 0 54 -2v-113h-33q-27 0 -34 -10.5t-7 -48.5v-21h76v-100h-76v-432h-114v432h-63zM330 0v718h114v-718h-114z" />
<glyph unicode="&#xfb03;" horiz-adv-x="760" d="M8 432v100h63v43q0 79 32.5 115.5t101.5 36.5q28 0 54 -2v-113h-33q-27 0 -34 -10.5t-7 -48.5v-21h145v43q0 79 32.5 115.5t101.5 36.5q28 0 54 -2v-113h-33q-27 0 -34 -10.5t-7 -48.5v-21h76v-100h-76v-432h-114v432h-145v-432h-114v432h-63zM589 0v532h114v-532h-114z M590 618v115h114v-115h-114z" />
<glyph unicode="&#xfb04;" horiz-adv-x="760" d="M8 432v100h63v43q0 79 32.5 115.5t101.5 36.5q28 0 54 -2v-113h-33q-27 0 -34 -10.5t-7 -48.5v-21h145v43q0 79 32.5 115.5t101.5 36.5q28 0 54 -2v-113h-33q-27 0 -34 -10.5t-7 -48.5v-21h76v-100h-76v-432h-114v432h-145v-432h-114v432h-63zM589 0v718h114v-718h-114z " />
<glyph horiz-adv-x="1000" />
<glyph horiz-adv-x="1000" />
<glyph unicode="&#xd;" horiz-adv-x="1000" />
<glyph unicode=" "  horiz-adv-x="228" />
<glyph unicode="&#x09;" horiz-adv-x="228" />
<glyph unicode="&#xa0;" horiz-adv-x="228" />
<glyph unicode="!" horiz-adv-x="273" d="M74 535v183h126v-183l-33 -336h-60zM77 0v142h120v-142h-120z" />
<glyph unicode="&#x22;" horiz-adv-x="389" d="M80 447v271h80v-271h-80zM228 447v271h80v-271h-80z" />
<glyph unicode="#" d="M15 199l10 90h79l14 120h-79l10 90h79l23 199h77l-23 -199h80l22 199h77l-22 -199h79l-10 -90h-79l-14 -120h79l-10 -90h-79l-23 -199h-77l23 199h-80l-22 -199h-77l22 199h-79zM181 289h80l14 120h-80z" />
<glyph unicode="$" d="M25 215h107q0 -63 17 -89.5t60 -36.5v210q-97 33 -134.5 78t-37.5 126q0 90 43.5 145t128.5 62v65h38v-65q173 -20 173 -209h-106q0 55 -16.5 79t-50.5 24v-187q111 -44 146.5 -88t35.5 -128q0 -92 -46 -150t-136 -68v-98h-38v98q-99 10 -141.5 64t-42.5 168zM140 522 q0 -69 69 -91v173q-69 -8 -69 -82zM247 89q72 9 72 95q0 70 -72 98v-193z" />
<glyph unicode="%" horiz-adv-x="729" d="M23 520q0 190 128 190q125 0 125 -189t-126 -189q-127 0 -127 188zM105 516q0 -64 9.5 -89t34.5 -25q26 0 35.5 26t9.5 93t-9.5 93t-34.5 26q-26 0 -35.5 -26t-9.5 -98zM169 -19l326 729h61l-326 -729h-61zM453 176q0 190 128 190q125 0 125 -189t-126 -189 q-127 0 -127 188zM535 173q0 -65 9.5 -90t34.5 -25q26 0 35.5 26t9.5 94q0 67 -9.5 92.5t-34.5 25.5q-26 0 -35.5 -26t-9.5 -97z" />
<glyph unicode="&#x26;" horiz-adv-x="592" d="M44 190q0 120 113 204l13 9q-54 77 -54 151q0 71 43.5 117.5t109.5 46.5q64 0 106 -46.5t42 -117.5q0 -101 -97 -173l83 -126q26 50 31 118h102q-6 -71 -20.5 -117.5t-47.5 -98.5l107 -157h-139l-40 61q-37 -43 -75 -61.5t-89 -18.5q-83 0 -135.5 58.5t-52.5 150.5z M159 199q0 -43 24 -71.5t60 -28.5q45 0 94 50l-108 165q-44 -39 -57 -60.5t-13 -54.5zM221 555q0 -33 43 -91q30 25 41.5 44.5t11.5 44.5q0 26 -13 42t-35 16q-21 0 -34.5 -15.5t-13.5 -40.5z" />
<glyph unicode="'" horiz-adv-x="195" d="M57 447v271h81v-271h-81z" />
<glyph unicode="(" horiz-adv-x="273" d="M29 263q0 120 32.5 228t111.5 243h84q-62 -133 -86 -237t-24 -235q0 -129 24.5 -233t85.5 -236h-84q-77 131 -110.5 239t-33.5 231z" />
<glyph unicode=")" horiz-adv-x="273" d="M16 -207q61 130 85.5 235t24.5 236q0 128 -24 231.5t-86 238.5h84q79 -134 111.5 -241t32.5 -230q0 -120 -32.5 -229t-111.5 -241h-84z" />
<glyph unicode="*" horiz-adv-x="319" d="M22 560l19 73l84 -34v119h69v-119l83 34l20 -73l-86 -32l56 -97l-51 -44l-56 91l-57 -91l-51 44l55 97z" />
<glyph unicode="+" horiz-adv-x="479" d="M57 207v86h140v140h86v-140h139v-86h-139v-139h-86v139h-140z" />
<glyph unicode="," horiz-adv-x="228" d="M52 0v147h123v-127q0 -161 -123 -188v53q35 14 50 39.5t19 75.5h-69z" />
<glyph unicode="-" horiz-adv-x="273" d="M22 215v130h229v-130h-229z" />
<glyph unicode="." horiz-adv-x="228" d="M52 0v147h123v-147h-123z" />
<glyph unicode="/" horiz-adv-x="228" d="M-27 -19l186 756h96l-186 -756h-96z" />
<glyph unicode="0" d="M26 343q0 192 50.5 279.5t154.5 87.5q199 0 199 -364q0 -188 -50 -276.5t-152 -88.5q-202 0 -202 362zM144 336q0 -135 18.5 -189t65.5 -54t65.5 55.5t18.5 197.5q0 141 -18.5 196.5t-64.5 55.5q-49 0 -67 -55.5t-18 -206.5z" />
<glyph unicode="1" d="M57 489v98h16q134 0 143 123h94v-710h-114v489h-139z" />
<glyph unicode="2" d="M21 0q4 107 40.5 170t150.5 161q50 46 70.5 81t20.5 76q0 47 -22.5 75.5t-59.5 28.5q-43 0 -62.5 -31t-19.5 -102h-111q0 128 50.5 189.5t140.5 61.5q88 0 143.5 -62t55.5 -161q0 -108 -69 -184q-14 -16 -94 -85q-50 -44 -64.5 -59.5t-24.5 -35.5h253v-123h-398z" />
<glyph unicode="3" d="M22 218h113v-9q1 -56 22.5 -86t60.5 -30t63 31.5t24 83.5q0 56 -29.5 79t-100.5 24v100h18q97 0 97 93q0 43 -19.5 68.5t-53.5 25.5q-77 0 -78 -116h-107q10 228 189 228q83 0 133.5 -53t50.5 -141q0 -95 -71 -140q89 -39 89 -166q0 -102 -56 -165.5t-145 -63.5 q-192 0 -200 237z" />
<glyph unicode="4" d="M22 157v120l214 433h130v-445h65v-108h-65v-157h-114v157h-230zM107 265h148v309z" />
<glyph unicode="5" d="M22 190h115q10 -97 80 -97q40 0 64 36.5t24 95.5t-23.5 93.5t-64.5 34.5q-49 0 -75 -51l-102 6l40 390h320v-118h-237l-21 -154q49 39 102 39q79 0 129 -64t50 -164q0 -116 -56.5 -186t-150.5 -70q-83 0 -135 54t-59 155z" />
<glyph unicode="6" d="M25 341q0 186 54.5 277.5t155.5 91.5q79 0 122 -42t57 -138h-114q-7 68 -66 68q-46 0 -68 -46t-29 -155q22 34 47 48t63 14q80 0 129.5 -62t49.5 -163q0 -113 -54 -183t-141 -70q-206 0 -206 360zM140 225q0 -58 25 -95t65 -37q37 0 59 35.5t22 97.5q0 55 -23 88t-61 33 q-40 0 -63.5 -33t-23.5 -89z" />
<glyph unicode="7" d="M22 575v123h411v-107q-192 -260 -213 -591h-118q18 313 208 575h-288z" />
<glyph unicode="8" d="M26 203q0 63 21 103.5t68 70.5q-38 25 -54.5 57.5t-16.5 81.5q0 87 50.5 140.5t132.5 53.5q81 0 132 -52t51 -135q0 -94 -67 -141q48 -32 67.5 -69.5t19.5 -98.5q0 -104 -56.5 -168.5t-147.5 -64.5q-92 0 -146 60t-54 162zM144 206q0 -52 23 -82.5t61 -30.5 q37 0 60.5 31.5t23.5 81.5q0 49 -23.5 79.5t-60.5 30.5q-39 0 -61.5 -29.5t-22.5 -80.5zM154 512q0 -39 21.5 -64.5t53.5 -25.5t51.5 24t19.5 64q0 39 -19 63.5t-50 24.5q-35 0 -56 -23.5t-21 -62.5z" />
<glyph unicode="9" d="M25 462q0 114 53.5 181t144.5 67q205 0 205 -356q0 -178 -54.5 -275.5t-158.5 -97.5q-73 0 -120.5 47.5t-57.5 135.5h113q7 -37 22.5 -54t43.5 -17q44 0 69 46t29 157q-38 -63 -112 -63q-79 0 -128 63t-49 166zM140 474q0 -129 83 -129q40 0 63.5 33t23.5 90 q0 58 -23 92.5t-62 34.5q-41 0 -63 -31.5t-22 -89.5z" />
<glyph unicode=":" horiz-adv-x="273" d="M75 0v147h123v-147h-123zM75 365v147h123v-147h-123z" />
<glyph unicode=";" horiz-adv-x="273" d="M75 0v147h123v-127q0 -79 -34 -129.5t-89 -58.5v53q35 14 50 39.5t19 75.5h-69zM75 365v147h123v-147h-123z" />
<glyph unicode="&#x3c;" horiz-adv-x="479" d="M82 221v58l283 318v-130l-193 -217l193 -217v-130z" />
<glyph unicode="=" horiz-adv-x="479" d="M57 117v86h365v-86h-365zM57 297v86h365v-86h-365z" />
<glyph unicode="&#x3e;" horiz-adv-x="479" d="M82 33l193 217l-193 217v130l283 -318v-58l-283 -318v130z" />
<glyph unicode="?" horiz-adv-x="501" d="M49 493q0 113 54 173.5t145 60.5q94 0 151 -57t57 -151q0 -58 -21 -98t-78 -91q-31 -27 -40.5 -50t-10.5 -72h-108q0 80 16 118.5t68 84.5q28 25 39.5 47.5t11.5 53.5q0 45 -21.5 71t-59.5 26t-62.5 -30t-24.5 -70v-16h-116zM195 0v142h120v-142h-120z" />
<glyph unicode="@" horiz-adv-x="800" d="M97 358q0 158 92 268.5t225 110.5q122 0 205 -90t83 -222q0 -116 -66 -202t-145 -86q-40 0 -45 56q-45 -56 -88 -56q-54 0 -92.5 52.5t-38.5 126.5q0 99 51.5 170.5t123.5 71.5q34 0 56.5 -15t42.5 -50l11 53h72l-48 -255q-5 -24 -5 -43t13 -19q37 0 64 52.5t27 124.5 q0 112 -61 181.5t-160 69.5q-104 0 -169.5 -83.5t-65.5 -216.5q0 -131 68 -213.5t176 -82.5q95 0 172 81h73q-54 -87 -114.5 -124t-135.5 -37q-136 0 -228.5 109t-92.5 268zM315 324q0 -39 17.5 -63t46.5 -24q39 0 68.5 41.5t29.5 96.5q0 37 -18.5 61.5t-46.5 24.5 q-39 0 -68 -41t-29 -96z" />
<glyph unicode="A" horiz-adv-x="592" d="M16 0l210 718h142l208 -718h-134l-38 148h-217l-41 -148h-130zM220 271h150l-74 288z" />
<glyph unicode="B" horiz-adv-x="592" d="M62 0v718h286q85 0 133.5 -50t48.5 -137q0 -53 -17 -87t-55 -57q91 -50 91 -171q0 -90 -51 -152q-31 -37 -70.5 -50.5t-116.5 -13.5h-249zM180 123h151q95 0 95 102q0 43 -23.5 66.5t-65.5 23.5h-157v-192zM180 437h144q42 0 65 21t23 61q0 76 -91 76h-141v-158z" />
<glyph unicode="C" horiz-adv-x="592" d="M36 357q0 175 73.5 277.5t199.5 102.5q102 0 170.5 -68t81.5 -186h-123q-15 64 -45 94t-81 30q-71 0 -111 -66.5t-40 -184.5q0 -115 39 -180t108 -65q51 0 82.5 31.5t47.5 103.5h123q-50 -265 -255 -265q-125 0 -197.5 100.5t-72.5 275.5z" />
<glyph unicode="D" horiz-adv-x="592" d="M62 0v718h260q114 0 177 -90.5t63 -253.5q0 -165 -64 -269.5t-181 -104.5h-255zM182 123h120q64 0 99.5 65t35.5 182q0 225 -137 225h-118v-472z" />
<glyph unicode="E" horiz-adv-x="547" d="M62 0v718h433v-127h-313v-151h288v-127h-288v-186h327v-127h-447z" />
<glyph unicode="F" horiz-adv-x="501" d="M62 0v718h419v-127h-296v-162h259v-127h-259v-302h-123z" />
<glyph unicode="G" horiz-adv-x="638" d="M36 354q0 176 78 279.5t210 103.5q105 0 174 -63.5t85 -178.5h-124q-9 52 -46 85.5t-86 33.5q-77 0 -121.5 -70t-44.5 -190q0 -117 43.5 -181.5t122.5 -64.5q55 0 92 36t57 121h-138v122h247v-387h-82l-13 90q-43 -61 -83.5 -85t-100.5 -24q-121 0 -195.5 103t-74.5 270z " />
<glyph unicode="H" horiz-adv-x="592" d="M58 0v718h123v-272h230v272h123v-718h-123v323h-230v-323h-123z" />
<glyph unicode="I" horiz-adv-x="228" d="M52 0v718h123v-718h-123z" />
<glyph unicode="J" d="M18 271h115q0 -102 14 -134.5t58 -32.5q38 0 53.5 23t15.5 81v510h123v-510q0 -226 -190 -226q-120 0 -162 88q-16 31 -21.5 73.5t-5.5 127.5z" />
<glyph unicode="K" horiz-adv-x="592" d="M71 0v718h123v-292l225 292h159l-240 -294l254 -424h-158l-183 315l-57 -72v-243h-123z" />
<glyph unicode="L" horiz-adv-x="501" d="M62 0v718h123v-588h293v-130h-416z" />
<glyph unicode="M" horiz-adv-x="683" d="M57 0v718h179l108 -570l106 570h177v-718h-114v609l-112 -609h-121l-109 609v-609h-114z" />
<glyph unicode="N" horiz-adv-x="592" d="M57 0v718h129l236 -504v504h114v-718h-122l-243 515v-515h-114z" />
<glyph unicode="O" horiz-adv-x="638" d="M36 358q0 179 77.5 279t209.5 100q125 0 202 -101t77 -277q0 -177 -77 -277.5t-206 -100.5q-130 0 -206.5 101t-76.5 276zM159 361q0 -119 42.5 -186t117.5 -67t117.5 67.5t42.5 186.5q0 113 -43 180.5t-115 67.5q-76 0 -119 -66.5t-43 -182.5z" />
<glyph unicode="P" horiz-adv-x="547" d="M62 0v718h269q83 0 133 -61t50 -162q0 -107 -51.5 -171t-136.5 -64h-141v-260h-123zM185 383h114q92 0 92 109q0 55 -25 79t-83 24h-98v-212z" />
<glyph unicode="Q" horiz-adv-x="638" d="M36 359q0 177 77 277.5t206 100.5t206 -100.5t77 -278.5q0 -148 -62 -255l64 -74l-65 -81l-69 81q-73 -48 -152 -48q-128 0 -205 100.5t-77 277.5zM159 363q0 -119 42.5 -187t116.5 -68q33 0 67 19l-59 68l63 81l63 -71q27 68 27 154q0 116 -43 183.5t-117 67.5 q-73 0 -116.5 -67t-43.5 -180z" />
<glyph unicode="R" horiz-adv-x="592" d="M62 0v718h297q85 0 135.5 -55.5t50.5 -148.5q0 -127 -91 -170q48 -26 61.5 -65t13.5 -151q0 -61 4.5 -81t21.5 -28v-19h-136q-14 64 -14 144q0 65 -10 94t-27 35.5t-59 6.5h-127v-280h-120zM182 402h145q49 0 72 23.5t23 72.5q0 47 -22.5 72t-63.5 25h-154v-193z" />
<glyph unicode="S" horiz-adv-x="547" d="M32 221h118q7 -117 128 -117q57 0 88.5 24t31.5 68q0 35 -22.5 54t-84.5 37l-63 18q-114 32 -150.5 76t-36.5 131q0 105 59.5 165t164.5 60q106 0 165.5 -59.5t66.5 -172.5h-118q-7 57 -35 83t-83 26q-49 0 -77 -23.5t-28 -63.5q0 -31 14 -48t48 -27l144 -43 q82 -25 118 -70t36 -125q0 -108 -64 -170.5t-175 -62.5q-114 0 -177.5 61t-67.5 179z" />
<glyph unicode="T" horiz-adv-x="501" d="M11 591v127h479v-127h-178v-591h-123v591h-178z" />
<glyph unicode="U" horiz-adv-x="592" d="M59 242v476h125v-466q0 -69 29 -106.5t82 -37.5q56 0 85 35t29 102v473h125v-467q0 -132 -61 -201t-178 -69q-113 0 -174.5 68.5t-61.5 192.5z" />
<glyph unicode="V" horiz-adv-x="547" d="M16 718h132l127 -548l128 548h128l-200 -718h-117z" />
<glyph unicode="W" horiz-adv-x="774" d="M13 718h131q80 -418 95 -531l82 531h131l88 -531l97 531h125l-166 -718h-118l-92 565l-67 -423l-25 -142h-114z" />
<glyph unicode="X" horiz-adv-x="547" d="M11 0l190 367l-179 351h146l105 -232l108 232h142l-180 -345l192 -373h-150l-112 245l-118 -245h-144z" />
<glyph unicode="Y" horiz-adv-x="547" d="M12 718h145l122 -312l117 312h139l-197 -449v-269h-123v271z" />
<glyph unicode="Z" horiz-adv-x="501" d="M20 0v127l305 464h-297v127h451v-118l-309 -473h311v-127h-461z" />
<glyph unicode="[" horiz-adv-x="273" d="M52 -196v918h201v-97h-101v-724h101v-97h-201z" />
<glyph unicode="\" horiz-adv-x="228" d="M-27 737h96l186 -756h-96z" />
<glyph unicode="]" horiz-adv-x="273" d="M20 -99h101v724h-101v97h201v-918h-201v97z" />
<glyph unicode="^" horiz-adv-x="479" d="M51 323l148 375h81l148 -375h-90l-99 263l-99 -263h-89z" />
<glyph unicode="_" d="M0 -75h456v-50h-456v50z" />
<glyph unicode="`" horiz-adv-x="273" d="M-25 748h126l77 -146h-83z" />
<glyph unicode="a" d="M24 142q0 70 33.5 114t94.5 55l103 19q40 7 40 44q0 60 -71 60q-37 0 -54 -16.5t-22 -57.5h-110q10 101 55 143.5t136 42.5q85 0 131.5 -40.5t46.5 -113.5v-288q0 -70 25 -83v-21h-123q-7 27 -11 63q-34 -43 -65 -60t-73 -17q-63 0 -99.5 42t-36.5 114zM139 151 q0 -30 15 -47.5t40 -17.5q42 0 71.5 30.5t29.5 74.5v68q-19 -17 -78 -29q-43 -9 -60.5 -27t-17.5 -52z" />
<glyph unicode="b" horiz-adv-x="501" d="M50 0v718h114v-258q25 46 55 66t72 20q83 0 133 -75t50 -199q0 -131 -50 -208.5t-134 -77.5q-87 0 -128 84v-70h-112zM160 261q0 -77 26 -118.5t74 -41.5q44 0 70 44.5t26 118.5q0 75 -26 117.5t-71 42.5q-48 0 -73.5 -42t-25.5 -121z" />
<glyph unicode="c" d="M28 259q0 135 55 211t152 76q84 0 134.5 -51.5t60.5 -152.5h-116q-8 45 -25.5 65.5t-48.5 20.5q-94 0 -94 -163q0 -164 87 -164q33 0 54.5 25.5t25.5 67.5h116q-13 -101 -64 -154.5t-136 -53.5q-97 0 -149 71t-52 202z" />
<glyph unicode="d" horiz-adv-x="501" d="M28 272q0 124 50 199t133 75q42 0 71.5 -20t55.5 -66v258h114v-718h-112v70q-41 -84 -128 -84q-84 0 -134 77.5t-50 208.5zM146 264q0 -75 26 -119t70 -44q48 0 74 41.5t26 117.5q0 78 -25 121t-71 43q-47 0 -73.5 -42t-26.5 -118z" />
<glyph unicode="e" d="M19 268q0 130 55 204t152 74q100 0 153.5 -76t53.5 -218v-25h-299q5 -67 29 -97.5t71 -30.5q59 0 76 58h118q-49 -171 -196 -171q-102 0 -157.5 73.5t-55.5 208.5zM137 319h178q-12 112 -90 112q-38 0 -59 -27t-29 -85z" />
<glyph unicode="f" horiz-adv-x="273" d="M8 432v100h63v43q0 79 32.5 115.5t101.5 36.5q28 0 54 -2v-113h-33q-27 0 -34 -10.5t-7 -48.5v-21h76v-100h-76v-432h-114v432h-63z" />
<glyph unicode="g" horiz-adv-x="501" d="M33 271q0 125 50 200t132 75q45 0 75.5 -22.5t52.5 -73.5v82h110v-504q0 -132 -53 -188.5t-160 -56.5q-176 0 -198 160h125q5 -28 22.5 -40.5t53.5 -12.5q50 0 72.5 28.5t22.5 92.5v69q-22 -46 -48 -64.5t-70 -18.5q-86 0 -136.5 73.5t-50.5 200.5zM151 267 q0 -71 24.5 -111.5t67.5 -40.5q46 0 71 40t25 112q0 70 -26.5 113.5t-69.5 43.5t-67.5 -42t-24.5 -115z" />
<glyph unicode="h" horiz-adv-x="501" d="M53 0v718h114v-259q35 87 131 87q68 0 109 -48.5t41 -129.5v-368h-114v323q0 55 -17.5 80t-56.5 25q-43 0 -68 -33t-25 -90v-305h-114z" />
<glyph unicode="i" horiz-adv-x="228" d="M57 0v532h114v-532h-114zM58 618v115h114v-115h-114z" />
<glyph unicode="j" horiz-adv-x="228" d="M2 -102h21q34 0 34 49v585h114v-588q0 -89 -30 -123.5t-109 -34.5h-30v112zM58 618v115h114v-115h-114z" />
<glyph unicode="k" d="M57 0v718h114v-388l144 202h141l-154 -206l159 -326h-138l-104 228l-48 -60v-168h-114z" />
<glyph unicode="l" horiz-adv-x="228" d="M57 0v718h114v-718h-114z" />
<glyph unicode="m" horiz-adv-x="729" d="M52 0v532h110v-81q20 50 51 72.5t77 22.5q41 0 66.5 -18t51.5 -67q25 46 53 65.5t69 19.5q66 0 106.5 -49t40.5 -129v-368h-114v323q0 105 -65 105q-77 0 -77 -109v-319h-114v320q0 60 -15 84t-53 24q-73 0 -73 -104v-324h-114z" />
<glyph unicode="n" horiz-adv-x="501" d="M53 0v532h110v-81q45 95 134 95q69 0 110 -48t41 -130v-368h-114v323q0 55 -17.5 80t-56.5 25q-43 0 -68 -33t-25 -90v-305h-114z" />
<glyph unicode="o" horiz-adv-x="501" d="M28 265q0 129 61 205t165 76q100 0 160 -77t60 -204t-61 -203t-162 -76t-162 76t-61 203zM146 266q0 -79 27 -120.5t78 -41.5t78 41.5t27 120.5q0 78 -27 120t-77 42q-106 0 -106 -162z" />
<glyph unicode="p" horiz-adv-x="501" d="M51 -207v739h110v-80q25 50 55 72t74 22q83 0 133.5 -75t50.5 -199q0 -131 -50 -208.5t-135 -77.5q-44 0 -72.5 19.5t-51.5 65.5v-278h-114zM161 260q0 -77 25.5 -118t73.5 -41q44 0 70 44.5t26 119.5q0 74 -26 116.5t-72 42.5q-97 0 -97 -164z" />
<glyph unicode="q" horiz-adv-x="501" d="M28 261q0 127 52.5 206t137.5 79q44 0 73.5 -22.5t51.5 -73.5v82h110v-739h-114v276q-22 -44 -51 -63.5t-74 -19.5q-84 0 -135 75.5t-51 199.5zM146 258q0 -154 97 -154q47 0 72.5 41.5t25.5 117.5q0 74 -26.5 117.5t-71.5 43.5q-46 0 -71.5 -43.5t-25.5 -122.5z" />
<glyph unicode="r" horiz-adv-x="319" d="M52 0v532h110v-95q26 61 52.5 85t68.5 24q10 0 23 -2v-142q-16 2 -29 2q-111 0 -111 -127v-277h-114z" />
<glyph unicode="s" d="M25 170h118q3 -77 93 -77q35 0 55 15t20 40q0 40 -95 59q-91 17 -133 56t-42 106q0 82 48.5 129.5t132.5 47.5q87 0 133 -40t58 -136h-113q-6 39 -23 54t-55 15q-69 0 -69 -50q0 -41 94 -58q94 -18 136.5 -59t42.5 -106q0 -84 -52 -132t-142 -48q-190 0 -207 184z" />
<glyph unicode="t" horiz-adv-x="273" d="M8 432v100h59v144h114v-144h72v-100h-72v-289q0 -28 8.5 -35.5t38.5 -7.5q12 0 25 2v-106q-39 -2 -55 -2h-15q-63 0 -89.5 26t-26.5 89v323h-59z" />
<glyph unicode="u" horiz-adv-x="501" d="M54 182v350h114v-330q0 -98 74 -98q43 0 67 32.5t24 88.5v307h114v-532h-110v78q-44 -92 -136 -92q-70 0 -108.5 51t-38.5 145z" />
<glyph unicode="v" d="M11 532h128l91 -396l93 396h122l-157 -532h-121z" />
<glyph unicode="w" horiz-adv-x="638" d="M8 532h122l69 -387l63 387h115l67 -387l69 387h118l-126 -532h-118l-69 393l-69 -393h-118z" />
<glyph unicode="x" d="M12 0l149 271l-143 261h139l74 -155l73 155h135l-144 -261l149 -271h-142l-76 160l-75 -160h-139z" />
<glyph unicode="y" d="M8 532h128l94 -396l90 396h122l-150 -523q-44 -154 -68 -186q-27 -37 -98 -37l-55 2v112q16 -2 24 -2q37 0 51.5 15.5t22.5 64.5z" />
<glyph unicode="z" horiz-adv-x="410" d="M16 0v109l225 311h-209v112h354v-115l-221 -302h229v-115h-378z" />
<glyph unicode="{" horiz-adv-x="319" d="M39 217v92q37 3 57 22.5t20 53.5v200q0 59 32.5 98t82.5 39h68v-88h-37q-46 0 -46 -66v-196q0 -41 -26 -70.5t-72 -38.5q46 -9 72 -39t26 -70v-196q0 -66 46 -66h37v-88h-68q-50 0 -82.5 39t-32.5 98v200q0 70 -77 76z" />
<glyph unicode="|" horiz-adv-x="230" d="M72 -196v918h86v-918h-86z" />
<glyph unicode="}" horiz-adv-x="319" d="M20 -108h37q46 0 46 66v196q0 40 26 70t72 39q-46 9 -72 38.5t-26 70.5v196q0 66 -46 66h-37v88h68q49 0 82 -39t33 -98v-200q0 -34 20 -53.5t57 -22.5v-92q-77 -6 -77 -76v-200q0 -59 -33 -98t-82 -39h-68v88z" />
<glyph unicode="~" horiz-adv-x="479" d="M50 242q26 52 49.5 73t57.5 21q18 0 79 -25.5t81 -25.5q35 0 56 36l56 -54q-26 -52 -49.5 -73t-57.5 -21q-18 0 -79.5 25.5t-80.5 25.5q-35 0 -56 -37z" />
<glyph unicode="&#xa1;" horiz-adv-x="273" d="M73 -3l33 336h60l33 -336v-183h-126v183zM76 390v142h120v-142h-120z" />
<glyph unicode="&#xa2;" d="M28 257q0 138 54.5 213.5t154.5 75.5q17 0 37 -3l20 85h42l-22 -98q106 -47 116 -188h-116q-9 48 -28 68l-72 -305q8 -4 20 -4q32 0 54 26t25 67h116q-13 -101 -64 -154.5t-136 -53.5q-25 0 -41 4l-25 -108h-43l28 120q-62 33 -91 94.5t-29 160.5zM146 265q0 -93 31 -136 l70 299h-10q-44 0 -67.5 -42t-23.5 -121z" />
<glyph unicode="&#xa3;" d="M23 321v60h48q-34 87 -34 135q0 88 55 145t141 57q91 0 142 -57.5t56 -173.5h-107q-10 73 -29.5 96t-58.5 23q-37 0 -60.5 -26t-23.5 -67q0 -23 40 -132h117v-60h-98q4 -31 4 -54q0 -48 -19 -83.5t-69 -85.5q62 29 100 29q16 0 55.5 -12.5t45.5 -12.5q35 0 82 36l34 -109 q-62 -45 -122 -45q-38 0 -102 26q-34 14 -59 14q-17 0 -32.5 -6t-57.5 -29l-45 97q39 27 65 69t26 77q0 38 -18 89h-76z" />
<glyph unicode="&#xa4;" d="M44 266q0 53 28 98l-14 13l61 61l13 -14q45 28 98 28t98 -28l13 14l61 -61l-14 -13q28 -45 28 -98t-28 -98l14 -13l-61 -61l-13 14q-45 -28 -98 -28t-98 28l-13 -14l-61 61l14 13q-28 45 -28 98zM130 266q0 -41 29.5 -70.5t70.5 -29.5t70.5 29.5t29.5 70.5t-29.5 70.5 t-70.5 29.5t-70.5 -29.5t-29.5 -70.5z" />
<glyph unicode="&#xa5;" d="M-7 698h123l117 -294l113 294h117l-123 -293h110v-60h-136l-31 -74h167v-60h-168v-211h-103v211h-166v60h166l-33 74h-133v60h107z" />
<glyph unicode="&#xa6;" horiz-adv-x="230" d="M72 171h86v-367h-86v367zM72 355v367h86v-367h-86z" />
<glyph unicode="&#xa7;" d="M28 294q0 46 17 76.5t59 61.5q-42 52 -42 117q0 77 47 127.5t120 50.5q149 0 164 -183h-104q-7 76 -63 76q-26 0 -43 -16t-17 -41q0 -32 31 -51l133 -81q98 -61 98 -153q0 -93 -78 -144q51 -55 51 -131q0 -82 -50 -134.5t-129 -52.5q-75 0 -119 48.5t-51 138.5h108 q9 -80 70 -80q28 0 44.5 19.5t16.5 51.5q0 21 -10.5 36t-37.5 31l-126 78q-48 30 -68.5 65.5t-20.5 89.5zM125 322q0 -34 38 -59l128 -84q35 25 35 64q0 37 -46 66l-120 74q-35 -18 -35 -61z" />
<glyph unicode="&#xa8;" horiz-adv-x="273" d="M6 618v115h96v-115h-96zM171 618v115h96v-115h-96z" />
<glyph unicode="&#xa9;" horiz-adv-x="604" d="M20 329q0 141 79.5 244.5t202.5 103.5t202.5 -103.5t79.5 -244.5t-79.5 -244.5t-202.5 -103.5t-202.5 103.5t-79.5 244.5zM76 329q0 -118 62.5 -205t163.5 -87t163.5 87t62.5 205t-62.5 205t-163.5 87t-163.5 -87t-62.5 -205zM146 328q0 93 43.5 148t117.5 55 q62 0 103.5 -38.5t46.5 -105.5h-82q-15 64 -66 64q-38 0 -58.5 -32.5t-20.5 -90.5q0 -56 20.5 -88t56.5 -32q53 0 68 70h83q-29 -150 -152 -150q-74 0 -117 53.5t-43 146.5z" />
<glyph unicode="&#xaa;" horiz-adv-x="303" d="M18 494q0 41 22.5 69t61.5 35l68 11q26 4 26 23q0 33 -46 33q-24 0 -35 -9t-15 -31h-72q8 60 36.5 86t87.5 26q55 0 85.5 -24.5t30.5 -68.5v-173q0 -42 17 -49v-13h-80q-4 12 -7 38q-39 -46 -90 -46q-41 0 -65.5 25t-24.5 68zM26 276v80h248v-80h-248zM95 500 q0 -37 35 -37q28 0 47 18t19 44v40q-9 -6 -36.5 -12.5t-46 -18t-18.5 -34.5z" />
<glyph unicode="&#xab;" d="M72 220v120l137 144v-116l-82 -88l82 -88v-116zM247 220v120l137 144v-116l-82 -88l82 -88v-116z" />
<glyph unicode="&#xac;" horiz-adv-x="479" d="M57 297v86h365v-223h-86v137h-279z" />
<glyph unicode="&#xad;" horiz-adv-x="273" d="M22 215v130h229v-130h-229z" />
<glyph unicode="&#xae;" horiz-adv-x="604" d="M20 329q0 141 79.5 244.5t202.5 103.5t202.5 -103.5t79.5 -244.5t-79.5 -244.5t-202.5 -103.5t-202.5 103.5t-79.5 244.5zM76 329q0 -118 62.5 -205t163.5 -87t163.5 87t62.5 205t-62.5 205t-163.5 87t-163.5 -87t-62.5 -205zM156 138v383h175q51 0 81.5 -30.5 t30.5 -81.5q0 -61 -44 -87q21 -13 28 -35t7 -77q0 -32 2 -40t12 -11v-21h-88q-10 40 -10 81q0 43 -9 53t-39 10h-65v-144h-81zM237 358h76q47 0 47 43q0 44 -42 44h-81v-87z" />
<glyph unicode="&#xaf;" horiz-adv-x="273" d="M-5 639v73h283v-73h-283z" />
<glyph unicode="&#xb0;" horiz-adv-x="328" d="M47 569q0 59 34.5 101t83.5 42q47 0 81.5 -42.5t34.5 -100.5q0 -59 -34.5 -101t-82.5 -42t-82.5 42t-34.5 101zM93 569q0 -35 21 -60.5t50 -25.5t50 25.5t21 60.5t-21 60.5t-49 25.5q-30 0 -51 -25t-21 -61z" />
<glyph unicode="&#xb1;" horiz-adv-x="479" d="M57 0v86h365v-86h-365zM57 293v86h140v140h86v-140h139v-86h-139v-130h-86v130h-140z" />
<glyph unicode="&#xb2;" horiz-adv-x="273" d="M7 283q4 66 27.5 105t93.5 94q34 28 46.5 50.5t12.5 53.5q0 24 -15 41t-35 17q-27 0 -39.5 -20t-14.5 -66h-72q6 164 125 164q57 0 93 -40.5t36 -105.5q0 -53 -18 -82t-80 -78q-43 -34 -54 -51h153v-82h-259z" />
<glyph unicode="&#xb3;" horiz-adv-x="273" d="M7 425h73q1 -79 54 -79t53 71q0 35 -17.5 48.5t-63.5 13.5v64h12q32 0 46 12t14 40q0 52 -45 52q-48 0 -50 -62h-69q1 69 33.5 103t89.5 34q54 0 86.5 -32t32.5 -85q0 -59 -47 -85q58 -24 58 -102q0 -65 -36.5 -106t-94.5 -41q-60 0 -92 35.5t-37 118.5z" />
<glyph unicode="&#xb4;" horiz-adv-x="273" d="M95 602l77 146h126l-120 -146h-83z" />
<glyph unicode="&#xb5;" horiz-adv-x="501" d="M54 -207v739h114v-330q0 -98 74 -98q43 0 67 32.5t24 88.5v307h114v-532h-110v78q-43 -92 -109 -92q-37 0 -60 26v-219h-114z" />
<glyph unicode="&#xb6;" d="M-7 523q0 90 49.5 133.5t150.5 43.5h249v-891h-92v806h-83v-806h-92v538q-182 9 -182 176z" />
<glyph unicode="&#xb7;" horiz-adv-x="228" d="M52 250q0 26 18 44t44 18t44 -18t18 -44t-18 -44t-44 -18t-44 18t-18 44z" />
<glyph unicode="&#xb8;" horiz-adv-x="273" d="M5 -215l18 48q45 -16 62 -16q19 0 29 13.5t10 31.5q0 15 -9.5 25.5t-22.5 10.5q-10 0 -32 -8l-17 20l45 92h48l-27 -59h20q32 0 52 -22t20 -56q0 -45 -29 -75t-75 -30q-36 0 -92 25z" />
<glyph unicode="&#xb9;" horiz-adv-x="273" d="M21 574v62h11q86 0 92 74h70v-427h-83v291h-90z" />
<glyph unicode="&#xba;" horiz-adv-x="299" d="M5 569q0 76 40.5 122t106.5 46q63 0 103 -47t40 -121t-40.5 -121t-104.5 -47q-65 0 -105 46.5t-40 121.5zM27 276v80h245v-80h-245zM85 569q0 -43 18 -69.5t47 -26.5t47 26.5t18 69.5q0 42 -18 69t-46 27q-30 0 -48 -26.5t-18 -69.5z" />
<glyph unicode="&#xbb;" d="M72 76v116l82 88l-82 88v116l137 -144v-120zM247 76v116l82 88l-82 88v116l137 -144v-120z" />
<glyph unicode="&#xbc;" horiz-adv-x="684" d="M21 574v62h11q86 0 92 74h70v-427h-83v291h-90zM111 -25l351 735h64l-350 -735h-65zM359 90v73l139 261h89v-266h41v-68h-41v-90h-78v90h-150zM418 157h96v186z" />
<glyph unicode="&#xbd;" horiz-adv-x="684" d="M21 574v62h11q86 0 92 74h70v-427h-83v291h-90zM111 -25l351 735h64l-350 -735h-65zM393 0q3 66 26.5 105t93.5 94q34 28 46.5 50.5t12.5 53.5q0 24 -14.5 41t-35.5 17q-50 0 -53 -86h-72q1 82 34 123t90 41t93 -40.5t36 -105.5q0 -53 -18 -82.5t-80 -77.5 q-40 -32 -54 -51h153v-82h-258z" />
<glyph unicode="&#xbe;" horiz-adv-x="684" d="M13 425h74l-1 -11q0 -31 15 -49.5t40 -18.5q53 0 53 71q0 35 -18 48.5t-64 13.5v64h12q32 0 46 12t14 40q0 52 -45 52q-48 0 -50 -62h-70q7 137 123 137q54 0 87 -32t33 -85q0 -59 -47 -85q59 -24 59 -102q0 -65 -36.5 -106t-95.5 -41q-122 0 -129 154zM147 -25l351 735 h64l-350 -735h-65zM386 90v73l139 261h89v-266h41v-68h-41v-90h-78v90h-150zM444 158h94v181z" />
<glyph unicode="&#xbf;" horiz-adv-x="501" d="M45 13q0 58 21 98t78 91q31 27 40.5 50t10.5 72h108q0 -80 -16 -118.5t-68 -84.5q-28 -25 -39.5 -47.5t-11.5 -53.5q0 -45 21.5 -71t59.5 -26t62.5 30t24.5 70v16h116q0 -113 -54 -173.5t-145 -60.5q-94 0 -151 57t-57 151zM186 390v142h120v-142h-120z" />
<glyph unicode="&#xc0;" horiz-adv-x="592" d="M16 0l210 718h142l208 -718h-134l-38 148h-217l-41 -148h-130zM134 914h131l72 -126h-78zM220 271h150l-74 288z" />
<glyph unicode="&#xc1;" horiz-adv-x="592" d="M16 0l210 718h142l208 -718h-134l-38 148h-217l-41 -148h-130zM220 271h150l-74 288zM258 788l72 126h131l-125 -126h-78z" />
<glyph unicode="&#xc2;" horiz-adv-x="592" d="M16 0l210 718h142l208 -718h-134l-38 148h-217l-41 -148h-130zM142 788l103 126h103l103 -126h-93l-62 62l-61 -62h-93zM220 271h150l-74 288z" />
<glyph unicode="&#xc3;" horiz-adv-x="592" d="M16 0l210 718h142l208 -718h-134l-38 148h-217l-41 -148h-130zM147 788q21 123 99 123q6 0 55.5 -18t54.5 -18q29 0 39 40h53q-20 -120 -88 -120q-11 0 -62 18t-61 18q-29 0 -38 -43h-52zM220 271h150l-74 288z" />
<glyph unicode="&#xc4;" horiz-adv-x="592" d="M16 0l210 718h142l208 -718h-134l-38 148h-217l-41 -148h-130zM167 794v115h96v-115h-96zM220 271h150l-74 288zM332 794v115h96v-115h-96z" />
<glyph unicode="&#xc5;" horiz-adv-x="592" d="M16 0l210 718h142l208 -718h-134l-38 148h-217l-41 -148h-130zM194 872q0 35 31.5 61t72.5 26t72.5 -26.5t31.5 -62.5q0 -35 -31 -61.5t-73 -26.5t-73 26.5t-31 63.5zM220 271h150l-74 288zM246 871q0 -18 15 -30.5t37 -12.5t37 12.5t15 29.5q0 18 -15 30.5t-37 12.5 q-21 0 -36.5 -12.5t-15.5 -29.5z" />
<glyph unicode="&#xc6;" horiz-adv-x="820" d="M4 0l215 718h557v-127h-304v-151h274v-127h-274v-186h310v-127h-430v153h-176l-43 -153h-129zM208 271h144v320h-53z" />
<glyph unicode="&#xc7;" horiz-adv-x="592" d="M36 357q0 175 73.5 277.5t199.5 102.5q102 0 170.5 -68t81.5 -186h-123q-15 64 -45 94t-81 30q-71 0 -111 -66.5t-40 -184.5q0 -115 39 -180t108 -65q51 0 82.5 31.5t47.5 103.5h123q-48 -252 -234 -264l-18 -39h20q32 0 52 -22t20 -56q0 -45 -29 -75t-75 -30 q-36 0 -92 25l18 48q45 -16 62 -16q19 0 29 13.5t10 31.5q0 15 -9.5 25.5t-22.5 10.5q-10 0 -32 -8l-17 20l35 72q-113 11 -177.5 110.5t-64.5 264.5z" />
<glyph unicode="&#xc8;" horiz-adv-x="547" d="M62 0v718h433v-127h-313v-151h288v-127h-288v-186h327v-127h-447zM116 914h131l72 -126h-78z" />
<glyph unicode="&#xc9;" horiz-adv-x="547" d="M62 0v718h433v-127h-313v-151h288v-127h-288v-186h327v-127h-447zM240 788l72 126h131l-125 -126h-78z" />
<glyph unicode="&#xca;" horiz-adv-x="547" d="M62 0v718h433v-127h-313v-151h288v-127h-288v-186h327v-127h-447zM124 788l103 126h103l103 -126h-93l-62 62l-61 -62h-93z" />
<glyph unicode="&#xcb;" horiz-adv-x="547" d="M62 0v718h433v-127h-313v-151h288v-127h-288v-186h327v-127h-447zM149 794v115h96v-115h-96zM314 794v115h96v-115h-96z" />
<glyph unicode="&#xcc;" horiz-adv-x="228" d="M-28 914h131l72 -126h-78zM52 0v718h123v-718h-123z" />
<glyph unicode="&#xcd;" horiz-adv-x="228" d="M52 0v718h123v-718h-123zM53 788l72 126h131l-125 -126h-78z" />
<glyph unicode="&#xce;" horiz-adv-x="228" d="M-41 788l103 126h103l103 -126h-93l-62 62l-61 -62h-93zM52 0v718h123v-718h-123z" />
<glyph unicode="&#xcf;" horiz-adv-x="228" d="M-16 794v115h96v-115h-96zM52 0v718h123v-718h-123zM149 794v115h96v-115h-96z" />
<glyph unicode="&#xd0;" horiz-adv-x="592" d="M-4 317v123h66v278h260q114 0 177 -90t63 -253q0 -166 -63 -270.5t-182 -104.5h-255v317h-66zM182 123h121q63 0 98.5 65t35.5 181q0 226 -136 226h-119v-155h137v-123h-137v-194z" />
<glyph unicode="&#xd1;" horiz-adv-x="592" d="M57 0v718h129l236 -504v504h114v-718h-122l-243 515v-515h-114zM147 788q21 123 99 123q6 0 55.5 -18t54.5 -18q29 0 39 40h53q-20 -120 -88 -120q-11 0 -62 18t-61 18q-29 0 -38 -43h-52z" />
<glyph unicode="&#xd2;" horiz-adv-x="638" d="M36 358q0 179 77.5 279t209.5 100q125 0 202 -101t77 -277q0 -177 -77 -277.5t-206 -100.5q-130 0 -206.5 101t-76.5 276zM159 361q0 -119 42.5 -186t117.5 -67t117.5 67.5t42.5 186.5q0 113 -43 180.5t-115 67.5q-76 0 -119 -66.5t-43 -182.5zM160 914h131l72 -126h-78z " />
<glyph unicode="&#xd3;" horiz-adv-x="638" d="M36 358q0 179 77.5 279t209.5 100q125 0 202 -101t77 -277q0 -177 -77 -277.5t-206 -100.5q-130 0 -206.5 101t-76.5 276zM159 361q0 -119 42.5 -186t117.5 -67t117.5 67.5t42.5 186.5q0 113 -43 180.5t-115 67.5q-76 0 -119 -66.5t-43 -182.5zM284 788l72 126h131 l-125 -126h-78z" />
<glyph unicode="&#xd4;" horiz-adv-x="638" d="M36 358q0 179 77.5 279t209.5 100q125 0 202 -101t77 -277q0 -177 -77 -277.5t-206 -100.5q-130 0 -206.5 101t-76.5 276zM159 361q0 -119 42.5 -186t117.5 -67t117.5 67.5t42.5 186.5q0 113 -43 180.5t-115 67.5q-76 0 -119 -66.5t-43 -182.5zM168 788l103 126h103 l103 -126h-93l-62 62l-61 -62h-93z" />
<glyph unicode="&#xd5;" horiz-adv-x="638" d="M36 358q0 179 77.5 279t209.5 100q125 0 202 -101t77 -277q0 -177 -77 -277.5t-206 -100.5q-130 0 -206.5 101t-76.5 276zM159 361q0 -119 42.5 -186t117.5 -67t117.5 67.5t42.5 186.5q0 113 -43 180.5t-115 67.5q-76 0 -119 -66.5t-43 -182.5zM173 788q21 123 99 123 q6 0 55.5 -18t54.5 -18q29 0 39 40h53q-20 -120 -88 -120q-11 0 -62 18t-61 18q-29 0 -38 -43h-52z" />
<glyph unicode="&#xd6;" horiz-adv-x="638" d="M36 358q0 179 77.5 279t209.5 100q125 0 202 -101t77 -277q0 -177 -77 -277.5t-206 -100.5q-130 0 -206.5 101t-76.5 276zM159 361q0 -119 42.5 -186t117.5 -67t117.5 67.5t42.5 186.5q0 113 -43 180.5t-115 67.5q-76 0 -119 -66.5t-43 -182.5zM193 794v115h96v-115h-96z M358 794v115h96v-115h-96z" />
<glyph unicode="&#xd7;" horiz-adv-x="479" d="M80 152l99 99l-99 98l61 61l99 -99l98 99l61 -61l-98 -98l98 -99l-61 -61l-98 99l-99 -99z" />
<glyph unicode="&#xd8;" horiz-adv-x="638" d="M27 11l70 93q-61 105 -61 253q0 178 77 279t205 101q103 0 191 -81l67 89l34 -38l-69 -92q61 -105 61 -254q0 -178 -77 -279t-206 -101q-107 0 -190 82l-68 -90zM159 358q0 -80 22 -140l249 333q-48 59 -111 59q-74 0 -117 -67.5t-43 -184.5zM207 168q47 -60 112 -60 q74 0 117 67.5t43 183.5q0 84 -23 142z" />
<glyph unicode="&#xd9;" horiz-adv-x="592" d="M59 242v476h125v-466q0 -69 29 -106.5t82 -37.5q56 0 85 35t29 102v473h125v-467q0 -132 -61 -201t-178 -69q-113 0 -174.5 68.5t-61.5 192.5zM134 914h131l72 -126h-78z" />
<glyph unicode="&#xda;" horiz-adv-x="592" d="M59 242v476h125v-466q0 -69 29 -106.5t82 -37.5q56 0 85 35t29 102v473h125v-467q0 -132 -61 -201t-178 -69q-113 0 -174.5 68.5t-61.5 192.5zM258 788l72 126h131l-125 -126h-78z" />
<glyph unicode="&#xdb;" horiz-adv-x="592" d="M59 242v476h125v-466q0 -69 29 -106.5t82 -37.5q56 0 85 35t29 102v473h125v-467q0 -132 -61 -201t-178 -69q-113 0 -174.5 68.5t-61.5 192.5zM142 788l103 126h103l103 -126h-93l-62 62l-61 -62h-93z" />
<glyph unicode="&#xdc;" horiz-adv-x="592" d="M59 242v476h125v-466q0 -69 29 -106.5t82 -37.5q56 0 85 35t29 102v473h125v-467q0 -132 -61 -201t-178 -69q-113 0 -174.5 68.5t-61.5 192.5zM167 794v115h96v-115h-96zM332 794v115h96v-115h-96z" />
<glyph unicode="&#xdd;" horiz-adv-x="547" d="M12 718h145l122 -312l117 312h139l-197 -449v-269h-123v271zM238 788l72 126h131l-125 -126h-78z" />
<glyph unicode="&#xde;" horiz-adv-x="547" d="M62 0v718h123v-98h146q83 0 133 -61.5t50 -164.5q0 -107 -51.5 -171t-136.5 -64h-141v-159h-123zM185 282h114q92 0 92 110q0 55 -25.5 80t-82.5 25h-98v-215z" />
<glyph unicode="&#xdf;" horiz-adv-x="501" d="M57 0v539q0 88 52 140t141 52q90 0 141 -50.5t51 -139.5t-60 -130q51 -32 72 -72.5t21 -107.5q0 -112 -53.5 -178.5t-144.5 -66.5q-17 0 -48 6v110h4q4 -1 20 -1q107 0 107 123q0 63 -27.5 90t-97.5 33v97q53 2 72.5 20.5t19.5 65.5q0 43 -21 66t-59 23q-35 0 -55.5 -24 t-20.5 -65v-530h-114z" />
<glyph unicode="&#xe0;" d="M24 142q0 70 33.5 114t94.5 55l103 19q40 7 40 44q0 60 -71 60q-37 0 -54 -16.5t-22 -57.5h-110q10 101 55 143.5t136 42.5q85 0 131.5 -40.5t46.5 -113.5v-288q0 -70 25 -83v-21h-123q-7 27 -11 63q-34 -43 -65 -60t-73 -17q-63 0 -99.5 42t-36.5 114zM68 748h126 l77 -146h-83zM139 151q0 -30 15 -47.5t40 -17.5q42 0 71.5 30.5t29.5 74.5v68q-19 -17 -78 -29q-43 -9 -60.5 -27t-17.5 -52z" />
<glyph unicode="&#xe1;" d="M24 142q0 70 33.5 114t94.5 55l103 19q40 7 40 44q0 60 -71 60q-37 0 -54 -16.5t-22 -57.5h-110q10 101 55 143.5t136 42.5q85 0 131.5 -40.5t46.5 -113.5v-288q0 -70 25 -83v-21h-123q-7 27 -11 63q-34 -43 -65 -60t-73 -17q-63 0 -99.5 42t-36.5 114zM139 151 q0 -30 15 -47.5t40 -17.5q42 0 71.5 30.5t29.5 74.5v68q-19 -17 -78 -29q-43 -9 -60.5 -27t-17.5 -52zM187 602l77 146h126l-120 -146h-83z" />
<glyph unicode="&#xe2;" d="M24 142q0 70 33.5 114t94.5 55l103 19q40 7 40 44q0 60 -71 60q-37 0 -54 -16.5t-22 -57.5h-110q10 101 55 143.5t136 42.5q85 0 131.5 -40.5t46.5 -113.5v-288q0 -70 25 -83v-21h-123q-7 27 -11 63q-34 -43 -65 -60t-73 -17q-63 0 -99.5 42t-36.5 114zM84 602l93 146 h103l93 -146h-93l-52 82l-51 -82h-93zM139 151q0 -30 15 -47.5t40 -17.5q42 0 71.5 30.5t29.5 74.5v68q-19 -17 -78 -29q-43 -9 -60.5 -27t-17.5 -52z" />
<glyph unicode="&#xe3;" d="M24 142q0 70 33.5 114t94.5 55l103 19q40 7 40 44q0 60 -71 60q-37 0 -54 -16.5t-22 -57.5h-110q10 101 55 143.5t136 42.5q85 0 131.5 -40.5t46.5 -113.5v-288q0 -70 25 -83v-21h-123q-7 27 -11 63q-34 -43 -65 -60t-73 -17q-63 0 -99.5 42t-36.5 114zM78 612 q20 123 99 123q6 0 55.5 -18t54.5 -18q29 0 39 40h53q-19 -120 -88 -120q-11 0 -62 18t-61 18q-29 0 -38 -43h-52zM139 151q0 -30 15 -47.5t40 -17.5q42 0 71.5 30.5t29.5 74.5v68q-19 -17 -78 -29q-43 -9 -60.5 -27t-17.5 -52z" />
<glyph unicode="&#xe4;" d="M24 142q0 70 33.5 114t94.5 55l103 19q40 7 40 44q0 60 -71 60q-37 0 -54 -16.5t-22 -57.5h-110q10 101 55 143.5t136 42.5q85 0 131.5 -40.5t46.5 -113.5v-288q0 -70 25 -83v-21h-123q-7 27 -11 63q-34 -43 -65 -60t-73 -17q-63 0 -99.5 42t-36.5 114zM98 618v115h96 v-115h-96zM139 151q0 -30 15 -47.5t40 -17.5q42 0 71.5 30.5t29.5 74.5v68q-19 -17 -78 -29q-43 -9 -60.5 -27t-17.5 -52zM263 618v115h96v-115h-96z" />
<glyph unicode="&#xe5;" d="M24 142q0 70 33.5 114t94.5 55l103 19q40 7 40 44q0 60 -71 60q-37 0 -54 -16.5t-22 -57.5h-110q10 101 55 143.5t136 42.5q85 0 131.5 -40.5t46.5 -113.5v-288q0 -70 25 -83v-21h-123q-7 27 -11 63q-34 -43 -65 -60t-73 -17q-63 0 -99.5 42t-36.5 114zM125 677 q0 35 31.5 61t72.5 26t72.5 -26.5t31.5 -62.5q0 -35 -31 -61.5t-73 -26.5t-73 26.5t-31 63.5zM139 151q0 -30 15 -47.5t40 -17.5q42 0 71.5 30.5t29.5 74.5v68q-19 -17 -78 -29q-43 -9 -60.5 -27t-17.5 -52zM177 676q0 -18 15 -30.5t37 -12.5t37 12.5t15 29.5q0 18 -15 30.5 t-37 12.5q-21 0 -36.5 -12.5t-15.5 -29.5z" />
<glyph unicode="&#xe6;" horiz-adv-x="729" d="M24 147q0 62 29.5 102.5t81.5 51.5l107 22q38 7 48.5 16t10.5 35q0 31 -18 45.5t-58 14.5q-37 0 -54 -18t-19 -57h-112q9 97 56 142t135 45q82 0 140 -59q34 33 63.5 46t68.5 13q95 0 148 -77.5t53 -216.5v-25h-299q5 -67 29 -97.5t71 -30.5q59 0 76 58h118 q-49 -171 -198 -171q-57 0 -91.5 19t-65.5 67q-51 -86 -165 -86q-75 0 -115 42t-40 119zM139 151q0 -31 16 -48t45 -17q39 0 69 31t30 71v66q-16 -17 -85 -30q-44 -8 -59.5 -23.5t-15.5 -49.5zM408 319h178q-12 112 -90 112q-38 0 -59 -27t-29 -85z" />
<glyph unicode="&#xe7;" d="M28 259q0 135 55 211t152 76q84 0 134.5 -51.5t60.5 -152.5h-116q-8 45 -25.5 65.5t-48.5 20.5q-94 0 -94 -163q0 -164 87 -164q33 0 54.5 25.5t25.5 67.5h116q-12 -95 -58 -148t-122 -59l-20 -44h20q32 0 52 -22t20 -56q0 -45 -29 -75t-75 -30q-36 0 -92 25l18 48 q45 -16 62 -16q19 0 29 13.5t10 31.5q0 15 -9.5 25.5t-22.5 10.5q-10 0 -32 -8l-17 20l38 78q-83 10 -128 80t-45 191z" />
<glyph unicode="&#xe8;" d="M19 268q0 130 55 204t152 74q100 0 153.5 -76t53.5 -218v-25h-299q5 -67 29 -97.5t71 -30.5q59 0 76 58h118q-49 -171 -196 -171q-102 0 -157.5 73.5t-55.5 208.5zM67 748h126l77 -146h-83zM137 319h178q-12 112 -90 112q-38 0 -59 -27t-29 -85z" />
<glyph unicode="&#xe9;" d="M19 268q0 130 55 204t152 74q100 0 153.5 -76t53.5 -218v-25h-299q5 -67 29 -97.5t71 -30.5q59 0 76 58h118q-49 -171 -196 -171q-102 0 -157.5 73.5t-55.5 208.5zM137 319h178q-12 112 -90 112q-38 0 -59 -27t-29 -85zM186 602l77 146h126l-120 -146h-83z" />
<glyph unicode="&#xea;" d="M19 268q0 130 55 204t152 74q100 0 153.5 -76t53.5 -218v-25h-299q5 -67 29 -97.5t71 -30.5q59 0 76 58h118q-49 -171 -196 -171q-102 0 -157.5 73.5t-55.5 208.5zM83 602l93 146h103l93 -146h-93l-52 82l-51 -82h-93zM137 319h178q-12 112 -90 112q-38 0 -59 -27 t-29 -85z" />
<glyph unicode="&#xeb;" d="M19 268q0 130 55 204t152 74q100 0 153.5 -76t53.5 -218v-25h-299q5 -67 29 -97.5t71 -30.5q59 0 76 58h118q-49 -171 -196 -171q-102 0 -157.5 73.5t-55.5 208.5zM97 618v115h96v-115h-96zM137 319h178q-12 112 -90 112q-38 0 -59 -27t-29 -85zM262 618v115h96v-115h-96 z" />
<glyph unicode="&#xec;" horiz-adv-x="228" d="M-32 748h126l77 -146h-83zM57 0v532h114v-532h-114z" />
<glyph unicode="&#xed;" horiz-adv-x="228" d="M57 0v532h114v-532h-114zM57 602l77 146h126l-120 -146h-83z" />
<glyph unicode="&#xee;" horiz-adv-x="228" d="M-31 602l93 146h103l93 -146h-93l-52 82l-51 -82h-93zM57 0v532h114v-532h-114z" />
<glyph unicode="&#xef;" horiz-adv-x="228" d="M-17 618v115h96v-115h-96zM57 0v532h114v-532h-114zM148 618v115h96v-115h-96z" />
<glyph unicode="&#xf0;" horiz-adv-x="501" d="M28 260q0 115 56 189t142 74q36 0 61.5 -14.5t49.5 -48.5q-28 71 -84 131l-88 -47l-52 52l89 47q-34 30 -60 45l89 49q32 -17 64 -44l84 44l51 -52l-83 -44q67 -85 97 -168.5t30 -181.5q0 -139 -61 -222t-163 -83q-100 0 -161 75t-61 199zM146 252q0 -67 29 -107.5 t77 -40.5t76 42.5t28 113.5q0 64 -28.5 104.5t-74.5 40.5q-49 0 -78 -41.5t-29 -111.5z" />
<glyph unicode="&#xf1;" horiz-adv-x="501" d="M53 0v532h110v-81q45 95 134 95q69 0 110 -48t41 -130v-368h-114v323q0 55 -17.5 80t-56.5 25q-43 0 -68 -33t-25 -90v-305h-114zM100 612q20 123 99 123q6 0 55.5 -18t54.5 -18q29 0 39 40h53q-20 -120 -88 -120q-11 0 -62 18t-61 18q-29 0 -38 -43h-52z" />
<glyph unicode="&#xf2;" horiz-adv-x="501" d="M28 265q0 129 61 205t165 76q100 0 160 -77t60 -204t-61 -203t-162 -76t-162 76t-61 203zM89 748h126l77 -146h-83zM146 266q0 -79 27 -120.5t78 -41.5t78 41.5t27 120.5q0 78 -27 120t-77 42q-106 0 -106 -162z" />
<glyph unicode="&#xf3;" horiz-adv-x="501" d="M28 265q0 129 61 205t165 76q100 0 160 -77t60 -204t-61 -203t-162 -76t-162 76t-61 203zM146 266q0 -79 27 -120.5t78 -41.5t78 41.5t27 120.5q0 78 -27 120t-77 42q-106 0 -106 -162zM209 602l77 146h126l-120 -146h-83z" />
<glyph unicode="&#xf4;" horiz-adv-x="501" d="M28 265q0 129 61 205t165 76q100 0 160 -77t60 -204t-61 -203t-162 -76t-162 76t-61 203zM106 602l93 146h103l93 -146h-93l-52 82l-51 -82h-93zM146 266q0 -79 27 -120.5t78 -41.5t78 41.5t27 120.5q0 78 -27 120t-77 42q-106 0 -106 -162z" />
<glyph unicode="&#xf5;" horiz-adv-x="501" d="M28 265q0 129 61 205t165 76q100 0 160 -77t60 -204t-61 -203t-162 -76t-162 76t-61 203zM100 612q20 123 99 123q6 0 55.5 -18t54.5 -18q29 0 39 40h53q-20 -120 -88 -120q-11 0 -62 18t-61 18q-29 0 -38 -43h-52zM146 266q0 -79 27 -120.5t78 -41.5t78 41.5t27 120.5 q0 78 -27 120t-77 42q-106 0 -106 -162z" />
<glyph unicode="&#xf6;" horiz-adv-x="501" d="M28 265q0 129 61 205t165 76q100 0 160 -77t60 -204t-61 -203t-162 -76t-162 76t-61 203zM120 618v115h96v-115h-96zM146 266q0 -79 27 -120.5t78 -41.5t78 41.5t27 120.5q0 78 -27 120t-77 42q-106 0 -106 -162zM285 618v115h96v-115h-96z" />
<glyph unicode="&#xf7;" horiz-adv-x="479" d="M57 207v86h365v-86h-365zM178 71q0 26 18 44t44 18t44 -18.5t18 -43.5q0 -26 -18 -44t-44 -18t-44 18t-18 44zM178 430q0 26 18 44t44 18t44 -18t18 -44t-18 -44t-44 -18t-44 18t-18 44z" />
<glyph unicode="&#xf8;" horiz-adv-x="501" d="M18 0l60 77q-50 81 -50 189q0 128 60.5 204t162.5 76q81 0 147 -59l56 73l29 -32l-58 -74q49 -81 49 -188q0 -127 -61 -203.5t-162 -76.5q-81 0 -145 58l-57 -73zM146 267q0 -49 12 -88l167 214q-31 35 -74 35q-51 0 -78 -41.5t-27 -119.5zM179 138q27 -34 71 -34 q52 0 79 41.5t27 121.5q0 49 -12 84z" />
<glyph unicode="&#xf9;" horiz-adv-x="501" d="M54 182v350h114v-330q0 -98 74 -98q43 0 67 32.5t24 88.5v307h114v-532h-110v78q-44 -92 -136 -92q-70 0 -108.5 51t-38.5 145zM89 748h126l77 -146h-83z" />
<glyph unicode="&#xfa;" horiz-adv-x="501" d="M54 182v350h114v-330q0 -98 74 -98q43 0 67 32.5t24 88.5v307h114v-532h-110v78q-44 -92 -136 -92q-70 0 -108.5 51t-38.5 145zM209 602l77 146h126l-120 -146h-83z" />
<glyph unicode="&#xfb;" horiz-adv-x="501" d="M54 182v350h114v-330q0 -98 74 -98q43 0 67 32.5t24 88.5v307h114v-532h-110v78q-44 -92 -136 -92q-70 0 -108.5 51t-38.5 145zM106 602l93 146h103l93 -146h-93l-52 82l-51 -82h-93z" />
<glyph unicode="&#xfc;" horiz-adv-x="501" d="M54 182v350h114v-330q0 -98 74 -98q43 0 67 32.5t24 88.5v307h114v-532h-110v78q-44 -92 -136 -92q-70 0 -108.5 51t-38.5 145zM120 618v115h96v-115h-96zM285 618v115h96v-115h-96z" />
<glyph unicode="&#xfd;" d="M8 532h128l94 -396l90 396h122l-150 -523q-44 -154 -68 -186q-27 -37 -98 -37l-55 2v112q16 -2 24 -2q37 0 51.5 15.5t22.5 64.5zM186 602l77 146h126l-120 -146h-83z" />
<glyph unicode="&#xfe;" horiz-adv-x="501" d="M51 -207v925h114v-257q25 45 54.5 65t71.5 20q83 0 133 -75t50 -199q0 -131 -50 -208.5t-135 -77.5q-44 0 -72.5 19.5t-51.5 65.5v-278h-114zM160 258q0 -74 26 -115.5t73 -41.5q45 0 71 44.5t26 119.5q0 74 -26 116.5t-72 42.5q-98 0 -98 -166z" />
<glyph unicode="&#xff;" d="M8 532h128l94 -396l90 396h122l-150 -523q-44 -154 -68 -186q-27 -37 -98 -37l-55 2v112q16 -2 24 -2q37 0 51.5 15.5t22.5 64.5zM97 618v115h96v-115h-96zM262 618v115h96v-115h-96z" />
<glyph unicode="&#x152;" horiz-adv-x="820" d="M30 355q0 177 65.5 279.5t179.5 102.5q77 0 127 -61v42h386v-127h-274v-151h255v-127h-255v-186h274v-127h-386v50q-29 -39 -56 -54t-70 -15q-113 0 -179.5 101t-66.5 273zM150 357q0 -115 38 -184t101 -69q43 0 74 27.5t31 64.5v325q0 41 -28.5 67t-73.5 26 q-67 0 -104.5 -68.5t-37.5 -188.5z" />
<glyph unicode="&#x153;" horiz-adv-x="774" d="M28 267q0 125 60.5 202t159.5 77q91 0 153 -80q37 46 67.5 63t76.5 17q97 0 150 -77t53 -217v-25h-299q5 -67 29 -97.5t71 -30.5q59 0 76 58h118q-49 -171 -196 -171q-51 0 -86 17t-67 57q-54 -74 -143 -74q-101 0 -162 76.5t-61 204.5zM146 265q0 -78 27 -119.5 t78 -41.5t78 41.5t27 120.5q0 78 -27 120t-77 42q-106 0 -106 -163zM452 319h178q-13 112 -90 112q-38 0 -59 -27t-29 -85z" />
<glyph unicode="&#x178;" horiz-adv-x="547" d="M12 718h145l122 -312l117 312h139l-197 -449v-269h-123v271zM147 794v115h96v-115h-96zM312 794v115h96v-115h-96z" />
<glyph unicode="&#x2c6;" horiz-adv-x="273" d="M-8 602l93 146h103l93 -146h-93l-52 82l-51 -82h-93z" />
<glyph unicode="&#x2dc;" horiz-adv-x="273" d="M-14 612q20 123 99 123q6 0 55.5 -18t54.5 -18q29 0 39 40h53q-19 -120 -88 -120q-11 0 -62 18t-61 18q-29 0 -38 -43h-52z" />
<glyph unicode="&#x2000;" horiz-adv-x="479" />
<glyph unicode="&#x2001;" horiz-adv-x="959" />
<glyph unicode="&#x2002;" horiz-adv-x="479" />
<glyph unicode="&#x2003;" horiz-adv-x="959" />
<glyph unicode="&#x2004;" horiz-adv-x="319" />
<glyph unicode="&#x2005;" horiz-adv-x="239" />
<glyph unicode="&#x2006;" horiz-adv-x="159" />
<glyph unicode="&#x2007;" horiz-adv-x="159" />
<glyph unicode="&#x2008;" horiz-adv-x="119" />
<glyph unicode="&#x2009;" horiz-adv-x="191" />
<glyph unicode="&#x200a;" horiz-adv-x="53" />
<glyph unicode="&#x2010;" horiz-adv-x="273" d="M22 215v130h229v-130h-229z" />
<glyph unicode="&#x2011;" horiz-adv-x="273" d="M22 215v130h229v-130h-229z" />
<glyph unicode="&#x2012;" horiz-adv-x="273" d="M22 215v130h229v-130h-229z" />
<glyph unicode="&#x2013;" d="M0 226v107h456v-107h-456z" />
<glyph unicode="&#x2014;" horiz-adv-x="820" d="M0 226v107h820v-107h-820z" />
<glyph unicode="&#x2018;" horiz-adv-x="228" d="M57 454v102q0 70 25.5 111.5t86.5 59.5v-51q-33 -13 -46 -34t-14 -61h62v-127h-114z" />
<glyph unicode="&#x2019;" horiz-adv-x="228" d="M57 591v127h114v-102q0 -70 -26 -112t-86 -59v51q33 14 46.5 34.5t14.5 60.5h-63z" />
<glyph unicode="&#x201a;" horiz-adv-x="228" d="M57 0v127h114v-102q0 -70 -26 -112t-86 -59v51q33 14 46.5 34.5t14.5 60.5h-63z" />
<glyph unicode="&#x201c;" horiz-adv-x="410" d="M52 454v102q0 71 26 112t87 59v-51q-33 -13 -46 -34t-15 -61h62v-127h-114zM244 454v102q0 70 25.5 111.5t86.5 59.5v-51q-33 -13 -46 -34t-15 -61h63v-127h-114z" />
<glyph unicode="&#x201d;" horiz-adv-x="410" d="M52 591v127h114v-102q0 -70 -26 -112t-86 -59v51q33 13 46 34t15 61h-63zM244 591v127h114v-102q0 -71 -26.5 -112t-86.5 -59v51q33 14 46.5 34.5t14.5 60.5h-62z" />
<glyph unicode="&#x201e;" horiz-adv-x="410" d="M52 0v127h114v-102q0 -70 -26 -112t-86 -59v51q33 13 46 34t15 61h-63zM244 0v127h114v-102q0 -71 -26.5 -112t-86.5 -59v51q33 14 46.5 34.5t14.5 60.5h-62z" />
<glyph unicode="&#x2022;" horiz-adv-x="287" d="M8 359q0 70 39.5 117.5t97.5 47.5q55 0 94.5 -48t39.5 -116q0 -69 -39.5 -117.5t-96.5 -48.5q-56 0 -95.5 48t-39.5 117z" />
<glyph unicode="&#x2026;" horiz-adv-x="820" d="M75 0v147h123v-147h-123zM348 0v147h123v-147h-123zM622 0v147h123v-147h-123z" />
<glyph unicode="&#x202f;" horiz-adv-x="191" />
<glyph unicode="&#x2039;" horiz-adv-x="273" d="M68 220v120l137 144v-116l-82 -88l82 -88v-116z" />
<glyph unicode="&#x203a;" horiz-adv-x="273" d="M68 76v116l82 88l-82 88v116l137 -144v-120z" />
<glyph unicode="&#x205f;" horiz-adv-x="239" />
<glyph unicode="&#x20ac;" horiz-adv-x="440" d="M0 231l29 83h51v29h-80l29 83h51v69q0 85 50.5 134t139.5 49q49 0 85 -13t78 -46l-41 -110q-55 56 -113 56q-29 0 -42.5 -23t-13.5 -75v-41h143l-28 -83h-115v-29h107l-29 -83h-78v-24q0 -71 12 -89.5t44 -18.5q57 0 122 47v-130q-65 -28 -131 -28q-99 0 -144.5 52.5 t-45.5 171.5v19h-80z" />
<glyph unicode="&#x2122;" horiz-adv-x="820" d="M57 638v80h299v-80h-106v-313h-87v313h-106zM408 325v393h120l59 -275l57 275h119v-393h-82v262l-55 -262h-83l-53 261v-261h-82z" />
<glyph unicode="&#xe000;" horiz-adv-x="530" d="M0 0v530h530v-530h-530z" />
</font>
</defs>
</svg>
