<?xml version="1.0" standalone="no"?>
<!DOCTYPE svg PUBLIC "-//W3C//DTD SVG 1.1//EN" "http://www.w3.org/Graphics/SVG/1.1/DTD/svg11.dtd" >
<svg xmlns="http://www.w3.org/2000/svg">
<metadata></metadata>
<defs>
<font id="texgyreheroscnregular" horiz-adv-x="456" >
<font-face units-per-em="1000" ascent="793" descent="-207" />
<missing-glyph horiz-adv-x="228" />
<glyph unicode="&#xfb01;" horiz-adv-x="410" d="M11 450v73h60v90q0 115 109 115q13 0 35 -2v-79q-24 2 -30 2q-42 0 -42 -61v-65h72v-73h-72v-450h-72v450h-60zM276 607v96h86v-96h-86zM283 0v523h72v-523h-72z" />
<glyph unicode="&#xfb02;" horiz-adv-x="410" d="M11 450v73h60v90q0 115 109 115q13 0 35 -2v-79q-24 2 -30 2q-42 0 -42 -61v-65h72v-73h-72v-450h-72v450h-60zM283 0v718h72v-718h-72z" />
<glyph unicode="&#xfb03;" horiz-adv-x="622" d="M11 450v73h60v90q0 115 109 115q13 0 35 -2v-79q-24 2 -30 2q-42 0 -42 -61v-65h140v90q0 115 109 115q13 0 35 -2v-79q-24 2 -30 2q-42 0 -42 -61v-65h72v-73h-72v-450h-72v450h-140v-450h-72v450h-60zM488 607v96h86v-96h-86zM495 0v523h72v-523h-72z" />
<glyph unicode="&#xfb04;" horiz-adv-x="622" d="M11 450v73h60v90q0 115 109 115q13 0 35 -2v-79q-24 2 -30 2q-42 0 -42 -61v-65h140v90q0 115 109 115q13 0 35 -2v-79q-24 2 -30 2q-42 0 -42 -61v-65h72v-73h-72v-450h-72v450h-140v-450h-72v450h-60zM495 0v718h72v-718h-72z" />
<glyph horiz-adv-x="1000" />
<glyph horiz-adv-x="1000" />
<glyph unicode="&#xd;" horiz-adv-x="1000" />
<glyph unicode=" "  horiz-adv-x="228" />
<glyph unicode="&#x09;" horiz-adv-x="228" />
<glyph unicode="&#xa0;" horiz-adv-x="228" />
<glyph unicode="!" horiz-adv-x="228" d="M74 0v102h79v-102h-79zM74 481v237h79v-237l-20 -310h-39z" />
<glyph unicode="&#x22;" horiz-adv-x="291" d="M57 463v255h60v-255h-60zM174 463v255h60v-255h-60z" />
<glyph unicode="#" d="M23 210l7 63h85l15 142h-84l7 63h85l24 210h55l-24 -210h102l23 210h55l-23 -210h84l-7 -63h-85l-16 -142h84l-7 -63h-85l-23 -210h-55l24 210h-102l-24 -210h-54l23 210h-84zM169 273h103l15 142h-102z" />
<glyph unicode="$" d="M26 213h72q5 -83 27 -114.5t83 -44.5v265q-97 30 -133.5 72.5t-36.5 120.5q0 83 45 138t125 61v64h38v-64q81 -9 121 -55t45 -135h-69q-6 53 -27.5 79t-69.5 38v-239q115 -41 148 -78t33 -124q0 -96 -46.5 -153.5t-134.5 -62.5v-96h-38v96q-93 7 -137 63t-45 169z M110 522q0 -88 98 -113v229q-46 -3 -72 -33.5t-26 -82.5zM246 54q53 3 81 36.5t28 88.5q0 39 -18 70t-47 42l-44 17v-254z" />
<glyph unicode="%" horiz-adv-x="729" d="M32 508q0 89 32.5 138t92.5 49q58 0 90.5 -50t32.5 -138t-33 -137t-91 -49q-59 0 -91.5 49t-32.5 138zM89 508q0 -134 67 -134t67 134t-66 134q-68 0 -68 -134zM180 -19l323 722h46l-325 -722h-44zM449 180q0 90 32.5 138.5t92.5 48.5q58 0 90.5 -49.5t32.5 -137.5 t-32.5 -137.5t-91.5 -49.5t-91.5 49t-32.5 138zM506 180q0 -134 67 -134t67 134t-66 134q-68 0 -68 -134z" />
<glyph unicode="&#x26;" horiz-adv-x="547" d="M36 184q0 70 27.5 114.5t105.5 100.5q-38 57 -50 87.5t-12 69.5q0 72 39 117t101 45q59 0 95 -41t36 -108q0 -55 -23.5 -96t-82.5 -91l108 -156q14 46 24 112h68q-7 -88 -48 -183l105 -155h-93l-55 82q-40 -54 -78.5 -75.5t-91.5 -21.5q-82 0 -128.5 53t-46.5 146z M108 183q0 -52 31.5 -86.5t78.5 -34.5q71 0 124 79l-133 198q-60 -48 -80.5 -79t-20.5 -77zM177 565q0 -53 58 -126q41 35 57 62.5t16 62.5t-17.5 56t-47.5 21t-48 -20.5t-18 -55.5z" />
<glyph unicode="'" horiz-adv-x="157" d="M48 463v255h60v-255h-60z" />
<glyph unicode="(" horiz-adv-x="273" d="M56 262q0 122 31 227t107 244h50q-65 -150 -88 -248.5t-23 -230.5q0 -115 22 -205.5t90 -255.5h-48q-82 153 -111.5 250.5t-29.5 218.5z" />
<glyph unicode=")" horiz-adv-x="273" d="M28 733h48q83 -154 112 -251t29 -218q0 -122 -31 -227t-107 -244h-50q66 151 88.5 249t22.5 230q0 115 -22 206.5t-90 254.5z" />
<glyph unicode="*" horiz-adv-x="319" d="M32 591l16 55l86 -38v110h49v-110l86 38l17 -55l-89 -34l55 -92l-40 -34l-53 94l-54 -94l-40 34l55 92z" />
<glyph unicode="+" horiz-adv-x="479" d="M55 221v58h156v156h58v-156h155v-58h-155v-155h-58v155h-156z" />
<glyph unicode="," horiz-adv-x="228" d="M71 0v107h86v-99q0 -135 -86 -155v46q43 6 44 101h-44z" />
<glyph unicode="-" horiz-adv-x="273" d="M36 232v90h201v-90h-201z" />
<glyph unicode="." horiz-adv-x="228" d="M71 0v107h86v-107h-86z" />
<glyph unicode="/" horiz-adv-x="228" d="M-14 -19l202 756h54l-201 -756h-55z" />
<glyph unicode="0" d="M30 343q0 173 52 266.5t148 93.5q93 0 144.5 -95t51.5 -267t-52 -266t-146 -94q-95 0 -146.5 94.5t-51.5 267.5zM107 343q0 -284 121 -284t121 284q0 137 -31 209.5t-89 72.5q-122 0 -122 -282z" />
<glyph unicode="1" d="M83 499v70q80 6 109 31t46 103h56v-703h-77v499h-134z" />
<glyph unicode="2" d="M21 0q5 99 36.5 165.5t98.5 113.5l77 54q70 49 88 79t18 82q0 59 -31 95t-83 36q-117 0 -117 -174h-72q0 126 51 189t144 63q83 0 134 -58t51 -153q0 -75 -29.5 -123t-124.5 -111l-60 -40q-91 -61 -100 -135h314v-83h-395z" />
<glyph unicode="3" d="M28 215h75q4 -86 33 -121t87 -35t93 38t35 100q0 60 -33 94t-92 34h-10q-10 -1 -32 -1v76q28 -2 36 -2q53 0 82 29.5t29 83.5q0 52 -28.5 83t-77.5 31q-54 0 -80.5 -35.5t-31.5 -116.5h-71q9 230 184 230q82 0 131 -50.5t49 -135.5q0 -109 -76 -145q53 -24 75.5 -62.5 t22.5 -102.5q0 -103 -56 -164.5t-148 -61.5q-89 0 -137 52.5t-59 181.5z" />
<glyph unicode="4" d="M20 171v87l264 445h60v-455h85v-77h-85v-171h-72v171h-252zM86 248h186v321z" />
<glyph unicode="5" d="M26 175h75q13 -117 118 -117q55 0 90 45t35 116q0 69 -35 112t-92 43q-61 0 -107 -67l-63 4l44 377h298v-87h-244l-25 -193q51 44 111 44q82 0 136 -64.5t54 -161.5q0 -107 -54.5 -176t-152.5 -69q-82 0 -128.5 47t-59.5 147z" />
<glyph unicode="6" d="M31 322q0 178 56.5 279.5t155.5 101.5q72 0 116 -48.5t54 -138.5h-71q-10 57 -33.5 83t-64.5 26q-60 0 -96.5 -67t-42.5 -200q46 90 137 90q81 0 132 -62.5t51 -162.5q0 -101 -53.5 -171.5t-139.5 -70.5q-97 0 -149 88.5t-52 252.5zM116 217q0 -70 33.5 -113.5 t86.5 -43.5q51 0 82.5 43.5t31.5 114.5q0 69 -31 110.5t-83 41.5q-55 0 -87.5 -41t-32.5 -112z" />
<glyph unicode="7" d="M30 601v87h399v-78q-183 -250 -237 -610h-80q19 149 80.5 305.5t155.5 295.5h-318z" />
<glyph unicode="8" d="M31 195q0 68 22 108t76 70q-78 42 -78 137q0 86 48.5 139.5t126.5 53.5q79 0 128 -51t49 -133q0 -52 -17 -86t-56 -59q94 -56 94 -173q0 -98 -53 -159t-139 -61q-91 0 -146 58.5t-55 155.5zM108 197q0 -64 33.5 -101t89.5 -37t86 34t30 98q0 65 -32 102t-87 37 q-54 0 -87 -36.5t-33 -96.5zM126 516q0 -48 28.5 -79t71.5 -31q44 0 73 31.5t29 80.5q0 48 -28.5 77.5t-74.5 29.5t-72.5 -29t-26.5 -80z" />
<glyph unicode="9" d="M34 462q0 108 51.5 174.5t136.5 66.5q97 0 148 -83t51 -241q0 -183 -55.5 -290.5t-156.5 -107.5q-75 0 -119 49.5t-49 138.5h72q10 -115 97 -115q38 0 61.5 19t44 79.5t34.5 172.5q-40 -90 -136 -90q-81 0 -130.5 62.5t-49.5 164.5zM109 462q0 -73 29 -111t85 -38 q53 0 83 41.5t30 116.5q0 71 -30 112.5t-82 41.5q-54 0 -84.5 -43t-30.5 -120z" />
<glyph unicode=":" horiz-adv-x="228" d="M71 0v107h86v-107h-86zM71 409v107h86v-107h-86z" />
<glyph unicode=";" horiz-adv-x="228" d="M71 0v107h86v-99q0 -135 -86 -155v46q43 6 44 101h-44zM71 409v107h86v-107h-86z" />
<glyph unicode="&#x3c;" horiz-adv-x="479" d="M89 230v40l280 295v-84l-219 -231l219 -231v-84z" />
<glyph unicode="=" horiz-adv-x="479" d="M55 131v58h369v-58h-369zM55 311v58h369v-58h-369z" />
<glyph unicode="&#x3e;" horiz-adv-x="479" d="M89 19l219 231l-219 231v84l280 -295v-40l-280 -295v84z" />
<glyph unicode="?" d="M46 493q0 65 9.5 99.5t33.5 65.5q53 69 140 69q77 0 125.5 -54.5t48.5 -140.5q0 -46 -15 -79t-62 -87t-59 -85t-12 -98h-72q0 77 13.5 114.5t63.5 100.5q44 55 55 77t11 56q0 55 -26.5 87t-73.5 32q-108 0 -108 -157h-72zM181 0v102h80v-102h-80z" />
<glyph unicode="@" horiz-adv-x="832" d="M121 360q0 157 90.5 267t219.5 110q118 0 199.5 -91t81.5 -222q0 -107 -61.5 -197.5t-136.5 -90.5q-47 0 -50 64q-53 -64 -103 -64t-84 47.5t-34 117.5q0 110 56.5 190.5t132.5 80.5q33 0 55 -18t40 -60l16 62h56l-39 -164q-35 -146 -35 -164q0 -27 17 -27q43 0 80 69 t37 150q0 110 -65 182.5t-163 72.5q-107 0 -178.5 -91.5t-71.5 -227.5q0 -133 73 -223t181 -90q117 0 200 114h55q-95 -176 -257 -176q-130 0 -221 110.5t-91 268.5zM310 302q0 -40 19.5 -67t48.5 -27q43 0 83 63t40 135q0 39 -20 66.5t-48 27.5q-47 0 -85 -61t-38 -137z " />
<glyph unicode="A" horiz-adv-x="547" d="M11 0l221 718h91l213 -718h-87l-58 209h-236l-62 -209h-82zM179 296h183l-88 318z" />
<glyph unicode="B" horiz-adv-x="547" d="M61 0v718h259q75 0 120.5 -49.5t45.5 -131.5q0 -99 -78 -150q58 -29 82 -68t24 -105q0 -97 -54.5 -155.5t-144.5 -58.5h-254zM141 83h170q58 0 90.5 34.5t32.5 96.5q0 122 -137 122h-156v-253zM141 414h143q62 0 92 28t30 86q0 55 -29.5 81t-91.5 26h-144v-221z" />
<glyph unicode="C" horiz-adv-x="592" d="M36 358q0 174 74.5 276.5t200.5 102.5q98 0 162.5 -62t78.5 -173h-77q-34 148 -162 148q-91 0 -143 -78.5t-52 -216.5q0 -136 50 -211.5t140 -75.5q67 0 110 46.5t63 149.5h77q-15 -84 -34 -130t-53 -81q-69 -72 -170 -72q-122 0 -193.5 102t-71.5 275z" />
<glyph unicode="D" horiz-adv-x="592" d="M66 0v718h239q113 0 180.5 -95.5t67.5 -255.5t-65.5 -263.5t-185.5 -103.5h-236zM146 83h154q79 0 125 74t46 202q0 133 -45.5 204.5t-130.5 71.5h-149v-552z" />
<glyph unicode="E" horiz-adv-x="547" d="M71 0v718h428v-87h-348v-219h321v-87h-321v-238h354v-87h-434z" />
<glyph unicode="F" horiz-adv-x="501" d="M71 0v718h407v-87h-327v-219h288v-87h-288v-325h-80z" />
<glyph unicode="G" horiz-adv-x="638" d="M39 350q0 173 77 280t201 107q98 0 166 -63t84 -174h-77q-36 150 -172 150q-91 0 -144 -80t-53 -217q0 -141 51 -215t148 -74q81 0 131.5 59t50.5 178h-183v83h258v-384h-52l-18 93q-77 -112 -199 -112q-124 0 -196.5 107t-72.5 262z" />
<glyph unicode="H" horiz-adv-x="592" d="M63 0v718h80v-297h307v297h80v-718h-80v334h-307v-334h-80z" />
<glyph unicode="I" horiz-adv-x="228" d="M75 0v718h79v-718h-79z" />
<glyph unicode="J" horiz-adv-x="410" d="M14 160v71h75v-50q0 -60 22 -88.5t68 -28.5q92 0 92 124v530h80v-524q0 -102 -44.5 -157.5t-126.5 -55.5q-76 0 -121 48.5t-45 130.5z" />
<glyph unicode="K" horiz-adv-x="547" d="M62 0v718h80v-348l286 348h110l-246 -290l252 -428h-103l-206 360l-93 -108v-252h-80z" />
<glyph unicode="L" d="M62 0v718h80v-631h298v-87h-378z" />
<glyph unicode="M" horiz-adv-x="683" d="M60 0v718h114l169 -610l168 610h113v-718h-75v609l-168 -609h-78l-166 608v-608h-77z" />
<glyph unicode="N" horiz-adv-x="592" d="M62 0v718h94l297 -583v583h77v-718h-89l-302 583v-583h-77z" />
<glyph unicode="O" horiz-adv-x="638" d="M32 358q0 165 77 272t214 107q124 0 203.5 -105.5t79.5 -273.5q0 -104 -32 -188t-98.5 -136.5t-156.5 -52.5t-156.5 52.5t-98.5 136.5t-32 188zM114 358q0 -130 56.5 -210t148.5 -80t148.5 80t56.5 211q0 130 -56 210.5t-146 80.5q-95 0 -151.5 -79t-56.5 -213z" />
<glyph unicode="P" horiz-adv-x="547" d="M71 0v718h264q79 0 127 -56t48 -147q0 -96 -48 -154t-127 -58h-184v-303h-80zM151 386h157q120 0 120 126q0 123 -117 123h-160v-249z" />
<glyph unicode="Q" horiz-adv-x="638" d="M32 359q0 161 76 269.5t211 108.5q90 0 156.5 -52.5t98.5 -136.5t32 -188q0 -164 -85 -282l80 -76l-40 -58l-90 85q-68 -48 -152 -48q-135 0 -211 108.5t-76 269.5zM114 359q0 -131 56.5 -211t148.5 -80q44 0 87 22l-62 58l41 60l74 -71q65 89 65 222q0 131 -56.5 211 t-148.5 80t-148.5 -80t-56.5 -211z" />
<glyph unicode="R" horiz-adv-x="592" d="M72 0v718h273q94 0 143.5 -50t49.5 -144q0 -61 -18 -99t-64 -72q38 -18 52.5 -45.5t18.5 -89.5l4 -130q1 -33 6.5 -46t23.5 -26v-16h-98q-13 54 -13 180q0 68 -25 98t-80 30h-193v-308h-80zM152 391h184q61 0 90.5 30.5t29.5 94.5q0 119 -106 119h-198v-244z" />
<glyph unicode="S" horiz-adv-x="547" d="M40 232h75q0 -83 43 -125.5t122 -42.5q71 0 111 32.5t40 91.5q0 51 -26.5 77.5t-98.5 46.5l-121 34q-125 35 -125 172q0 97 55.5 158t154.5 61q106 0 164 -56.5t58 -172.5h-75q0 71 -40 108.5t-107 37.5q-63 0 -98 -32.5t-35 -91.5q0 -74 69 -93l168 -47 q134 -38 134 -193q0 -101 -62 -158.5t-170 -57.5t-172 62t-64 189z" />
<glyph unicode="T" horiz-adv-x="501" d="M11 631v87h479v-87h-199v-631h-80v631h-200z" />
<glyph unicode="U" horiz-adv-x="592" d="M65 239v479h80v-452q0 -95 39 -146.5t111 -51.5q73 0 113 51t40 145v454h80v-466q0 -124 -64 -197.5t-172 -73.5q-104 0 -165.5 70t-61.5 188z" />
<glyph unicode="V" horiz-adv-x="547" d="M16 718h89l169 -615l167 615h90l-215 -718h-85z" />
<glyph unicode="W" horiz-adv-x="774" d="M13 718h86l111 -588l133 588h87l133 -588l110 588h88l-155 -718h-84l-135 599l-137 -599h-84z" />
<glyph unicode="X" horiz-adv-x="547" d="M16 0l210 368l-197 350h100l149 -275l149 275h95l-197 -350l206 -368h-98l-158 295l-163 -295h-96z" />
<glyph unicode="Y" horiz-adv-x="547" d="M11 718h93l169 -345l169 345h93l-222 -429v-289h-80v289z" />
<glyph unicode="Z" horiz-adv-x="501" d="M19 0v82l361 549h-334v87h436v-85l-362 -546h362v-87h-463z" />
<glyph unicode="[" horiz-adv-x="228" d="M52 -196v918h153v-72h-88v-774h88v-72h-153z" />
<glyph unicode="\" horiz-adv-x="228" d="M-14 737h54l202 -756h-55z" />
<glyph unicode="]" horiz-adv-x="228" d="M23 -124h88v774h-88v72h153v-918h-153v72z" />
<glyph unicode="^" horiz-adv-x="385" d="M-11 264l174 424h59l174 -424h-63l-140 344l-140 -344h-64z" />
<glyph unicode="_" d="M0 -75h456v-50h-456v50z" />
<glyph unicode="`" horiz-adv-x="273" d="M2 725h89l73 -141h-55z" />
<glyph unicode="a" d="M30 138q0 68 34 110t96 52l119 18q38 6 38 60q0 87 -99 87q-101 0 -101 -101h-66q0 174 172 174q77 0 120.5 -39t43.5 -107v-301q0 -31 23 -31q5 0 25 4v-64q-29 -10 -42 -10q-37 0 -53.5 18.5t-20.5 61.5q-35 -45 -70.5 -65t-81.5 -20q-62 0 -99.5 42t-37.5 111z M105 146q0 -42 20 -65t57 -23q54 0 93.5 36.5t39.5 86.5v86q-11 -10 -33 -16t-85 -17q-49 -8 -70.5 -28.5t-21.5 -59.5z" />
<glyph unicode="b" d="M48 0v718h72v-263q28 44 58 63.5t70 19.5q79 0 127.5 -73t48.5 -191q0 -131 -51 -210t-136 -79q-42 0 -70 19t-51 64v-68h-68zM117 249q0 -89 31.5 -138t85.5 -49q55 0 85 54t30 152q0 192 -114 192q-118 0 -118 -211z" />
<glyph unicode="c" horiz-adv-x="410" d="M25 252q0 131 55 208.5t148 77.5q144 0 163 -191h-70q-9 59 -33 86t-67 27q-56 0 -87.5 -53t-31.5 -148t29.5 -146t84.5 -51q82 0 105 123h70q-26 -200 -174 -200q-88 0 -140 72.5t-52 194.5z" />
<glyph unicode="d" d="M29 274q0 119 49 191.5t128 72.5q44 0 75 -22t56 -72v274h72v-718h-68v75q-23 -49 -51.5 -69.5t-72.5 -20.5q-85 0 -136.5 79t-51.5 210zM104 269q0 -98 30 -152.5t84 -54.5q55 0 86.5 49t31.5 137q0 103 -29.5 157.5t-85.5 54.5q-117 0 -117 -191z" />
<glyph unicode="e" d="M33 252q0 131 55 208.5t148 77.5q87 0 134.5 -71.5t52.5 -233.5h-313q6 -171 122 -171q44 0 76 29t37 73h72q-14 -85 -63.5 -132t-123.5 -47q-91 0 -144 71.5t-53 195.5zM110 303h238q-11 157 -115 157q-52 0 -86 -43.5t-37 -113.5z" />
<glyph unicode="f" horiz-adv-x="228" d="M11 450v73h60v90q0 115 109 115q13 0 35 -2v-79q-24 2 -30 2q-42 0 -42 -61v-65h72v-73h-72v-450h-72v450h-60z" />
<glyph unicode="g" d="M33 274q0 119 49 191.5t128 72.5q43 0 72.5 -20.5t58.5 -71.5v77h68v-480q0 -137 -49 -200t-149 -63q-71 0 -111 36t-54 120h72q10 -44 32.5 -63.5t63.5 -19.5q65 0 94 40.5t29 143.5v21q-40 -73 -117 -73q-85 0 -136 79t-51 210zM108 269q0 -98 30 -152.5t84 -54.5 q55 0 86.5 49.5t31.5 135.5q0 103 -29.5 158t-85.5 55q-117 0 -117 -191z" />
<glyph unicode="h" d="M53 0v718h72v-267q31 49 60.5 68t72.5 19q68 0 106.5 -48t38.5 -134v-356h-72v342q0 62 -20 90t-64 28q-58 0 -90 -46t-32 -129v-285h-72z" />
<glyph unicode="i" horiz-adv-x="182" d="M48 607v96h86v-96h-86zM55 0v523h72v-523h-72z" />
<glyph unicode="j" horiz-adv-x="182" d="M-13 -131h15q34 0 43.5 11.5t9.5 52.5v590h72v-600q0 -68 -26 -100.5t-81 -32.5q-15 0 -33 3v76zM48 607v96h86v-96h-86z" />
<glyph unicode="k" horiz-adv-x="410" d="M53 0v718h72v-416l185 221h91l-164 -195l174 -328h-93l-133 264l-60 -66v-198h-72z" />
<glyph unicode="l" horiz-adv-x="182" d="M55 0v718h72v-718h-72z" />
<glyph unicode="m" horiz-adv-x="683" d="M53 0v523h68v-77q28 49 59 70.5t74 21.5q40 0 66.5 -19.5t46.5 -65.5q37 50 63.5 67.5t65.5 17.5q62 0 98.5 -47t36.5 -129v-362h-72v338q0 122 -78 122q-43 0 -73 -41t-30 -100v-319h-72v362q0 46 -17.5 72t-49.5 26q-52 0 -83 -48t-31 -127v-285h-72z" />
<glyph unicode="n" d="M53 0v523h68v-77q52 92 137 92q68 0 106.5 -48t38.5 -134v-356h-72v322q0 72 -21 105t-67 33q-55 0 -86.5 -46.5t-31.5 -128.5v-285h-72z" />
<glyph unicode="o" d="M29 262q0 124 55.5 200t146.5 76q86 0 141 -77.5t55 -198.5q0 -122 -55.5 -199t-143.5 -77t-143.5 77t-55.5 199zM104 262q0 -91 34 -145t90 -54t90 54t34 145q0 90 -33.5 144.5t-88.5 54.5q-58 0 -92 -53.5t-34 -145.5z" />
<glyph unicode="p" d="M48 -207v730h68v-77q28 51 57.5 71.5t73.5 20.5q79 0 128 -72.5t49 -191.5q0 -131 -51 -210t-136 -79q-75 0 -117 73v-265h-72zM117 245q0 -85 31.5 -134t85.5 -49q55 0 85 55t30 154q0 92 -29 140.5t-85 48.5q-118 0 -118 -215z" />
<glyph unicode="q" d="M29 274q0 119 49 191.5t128 72.5q43 0 72.5 -20.5t58.5 -71.5v77h68v-730h-72v265q-42 -73 -117 -73q-85 0 -136 79t-51 210zM104 270q0 -98 30 -153t84 -55q55 0 86.5 48.5t31.5 134.5q0 105 -29.5 160t-85.5 55q-117 0 -117 -190z" />
<glyph unicode="r" horiz-adv-x="273" d="M63 0v523h68v-89q29 56 57 80t65 24q9 0 19 -3v-90h-27q-48 0 -79 -39.5t-31 -100.5v-305h-72z" />
<glyph unicode="s" horiz-adv-x="410" d="M26 168h70q4 -56 30 -81t81 -25q47 0 74 22t27 60q0 29 -17.5 44.5t-67.5 30.5l-84 25q-99 30 -99 129q0 75 45 120t119 45q73 0 115 -42.5t47 -121.5h-70q-4 87 -97 87q-41 0 -65 -20t-24 -54q0 -28 15 -41.5t62 -27.5l73 -22q65 -19 92.5 -51.5t27.5 -87.5 q0 -79 -48 -125.5t-130 -46.5q-84 0 -127.5 44t-48.5 139z" />
<glyph unicode="t" horiz-adv-x="228" d="M11 450v73h58v146h72v-146h70v-73h-70v-340q0 -22 10 -31.5t34 -9.5h25v-69l-28 -3.5l-16 -2t-7 -1t-6 -0.5q-84 0 -84 112v345h-58z" />
<glyph unicode="u" d="M56 147v376h72v-347q0 -114 83 -114q54 0 86 47t32 126v288h72v-523h-68v81q-29 -54 -58.5 -75t-77.5 -21q-66 0 -103.5 43t-37.5 119z" />
<glyph unicode="v" horiz-adv-x="410" d="M7 523h83l112 -429l122 429h79l-163 -523h-77z" />
<glyph unicode="w" horiz-adv-x="592" d="M11 523h79l83 -415l83 415h81l84 -415l88 415h72l-125 -523h-74l-88 409l-85 -409h-74z" />
<glyph unicode="x" horiz-adv-x="410" d="M9 0l151 269l-144 254h93l99 -184l100 184h88l-145 -254l151 -269h-92l-107 197l-103 -197h-91z" />
<glyph unicode="y" horiz-adv-x="410" d="M9 523h81l115 -429l116 429h80l-155 -513q-26 -84 -40 -123t-33 -65t-37 -31t-53 -5q-11 0 -35 8v80q21 -9 44 -9t33.5 13t24.5 54l18 54z" />
<glyph unicode="z" horiz-adv-x="410" d="M25 0v69l259 381h-239v73h333v-72l-257 -378h264v-73h-360z" />
<glyph unicode="{" horiz-adv-x="274" d="M34 234v60q66 10 66 127v172q0 55 24 92t60 37h55v-65h-36q-38 0 -38 -82v-170q0 -48 -21 -87.5t-53 -53.5q34 -16 54 -55t20 -89v-169q0 -82 38 -82h36v-65h-55q-36 0 -60 37t-24 92v171q0 53 -16.5 89t-49.5 41z" />
<glyph unicode="|" horiz-adv-x="213" d="M78 -196v918h58v-918h-58z" />
<glyph unicode="}" horiz-adv-x="274" d="M34 -131h36q38 0 38 82v169q0 50 20 89t54 55q-32 14 -53 53.5t-21 87.5v170q0 82 -38 82h-36v65h55q36 0 60 -37t24 -92v-172q0 -117 66 -127v-60q-33 -6 -49.5 -41.5t-16.5 -88.5v-171q0 -55 -24 -92t-60 -37h-55v65z" />
<glyph unicode="~" horiz-adv-x="479" d="M50 236q39 86 101 86q21 0 43 -8.5t73 -36.5q41 -23 62 -23q29 0 59 51l41 -38q-26 -46 -49.5 -66t-53.5 -20q-34 0 -83 33q-53 35 -93 35q-36 0 -61 -49z" />
<glyph unicode="&#xa1;" horiz-adv-x="228" d="M75 42l20 310h39l20 -310v-237h-79v237zM75 421v102h79v-102h-79z" />
<glyph unicode="&#xa2;" d="M42 251q0 134 53.5 210.5t147.5 76.5q21 0 36 -6l21 91h32l-20 -100q44 -18 72 -64.5t34 -113.5h-68q-15 81 -55 102l-91 -386q14 -3 28 -3q50 0 77 28t42 97h70q-14 -98 -61.5 -150t-121.5 -52q-17 0 -52 7l-25 -103h-34l28 114q-59 40 -86 100t-27 152zM114 252 q0 -122 60 -174l89 381q-10 2 -18 2q-62 0 -96.5 -54.5t-34.5 -154.5z" />
<glyph unicode="&#xa3;" d="M27 317v63h57q-36 88 -36 136q0 89 55 145.5t142 56.5t134.5 -59.5t47.5 -153.5v-15h-72v9q0 63 -31.5 102.5t-83.5 39.5q-48 0 -81.5 -36.5t-33.5 -88.5q0 -43 42 -136h137v-63h-113q7 -35 7 -64q0 -100 -103 -192q62 41 112 41q15 0 72 -17.5t66 -17.5q34 0 63 31 l34 -66q-53 -48 -103 -48q-13 0 -84.5 22.5t-86.5 22.5q-42 0 -98 -40l-40 69q100 88 100 185q0 27 -15 74h-88z" />
<glyph unicode="&#xa4;" d="M68 141l32 31q-28 40 -28 90q0 49 28 89l-32 31l41 41l32 -31q41 28 89 28t89 -28l32 31l41 -41l-32 -31q28 -40 28 -89q0 -50 -28 -90l32 -31l-41 -41l-32 31q-40 -27 -89 -27t-89 27l-32 -31zM130 262q0 -42 29.5 -71t70.5 -29t70.5 29t29.5 71q0 41 -29.5 70.5 t-70.5 29.5t-70.5 -29.5t-29.5 -70.5z" />
<glyph unicode="&#xa5;" d="M2 688h82l143 -295l144 295h82l-159 -304h128v-57h-159v-85h159v-57h-159v-185h-72v185h-157v57h157v85h-157v57h126z" />
<glyph unicode="&#xa6;" horiz-adv-x="213" d="M78 171h58v-367h-58v367zM78 355v367h58v-367h-58z" />
<glyph unicode="&#xa7;" d="M35 313q0 52 18 86t64 68q-22 31 -30 51.5t-8 48.5q0 75 41.5 122.5t107.5 47.5q142 0 149 -183h-69q-4 56 -23 81t-57 25q-34 0 -55.5 -22t-21.5 -57q0 -49 60 -91l120 -86q47 -34 68 -72t21 -88q0 -51 -19 -87t-66 -73q43 -58 43 -114q0 -69 -44 -115t-111 -46 q-148 0 -155 188h72q3 -111 81 -111q39 0 62 22t23 59q0 43 -45 80l-173 140q-53 44 -53 126zM103 330q0 -54 37 -84l155 -122q32 26 44.5 48t12.5 52q0 58 -51 97l-143 107q-55 -38 -55 -98z" />
<glyph unicode="&#xa8;" horiz-adv-x="273" d="M12 607v96h88v-96h-88zM173 607v96h88v-96h-88z" />
<glyph unicode="&#xa9;" horiz-adv-x="604" d="M20 329q0 141 79.5 244.5t202.5 103.5t202.5 -103.5t79.5 -244.5t-79.5 -244.5t-202.5 -103.5t-202.5 103.5t-79.5 244.5zM60 329q0 -124 67.5 -216t174.5 -92t174.5 92t67.5 216t-67.5 216t-174.5 92t-174.5 -92t-67.5 -216zM146 329q0 94 44.5 149.5t119.5 55.5 q60 0 99 -35t46 -97h-52q-18 78 -92 78q-52 0 -81 -41t-29 -112t28 -109.5t79 -38.5q39 0 63 24.5t35 79.5h53q-15 -83 -53 -119q-42 -39 -102 -39q-72 0 -115 55t-43 149z" />
<glyph unicode="&#xaa;" horiz-adv-x="303" d="M20 498q0 42 24 68t68 32l72 10q20 3 20 35q0 42 -62 42q-57 0 -63 -53h-45q4 54 31 79.5t82 25.5q50 0 78.5 -23.5t28.5 -64.5v-178q0 -19 15 -19q1 0 3 0.5t5.5 1t6.5 0.5v-44q-15 -5 -27 -5q-25 0 -35.5 11t-12.5 40q-44 -51 -99 -51q-41 0 -65.5 25.5t-24.5 67.5z M29 304v48h243v-48h-243zM72 505q0 -48 47 -48q37 0 61 21t24 53v39q-8 -10 -75 -20q-31 -5 -44 -15t-13 -30z" />
<glyph unicode="&#xab;" d="M80 231v92l128 123v-88l-86 -81l86 -81v-88zM248 231v92l128 123v-88l-86 -81l86 -81v-88z" />
<glyph unicode="&#xac;" horiz-adv-x="479" d="M55 311v58h369v-209h-58v151h-311z" />
<glyph unicode="&#xad;" horiz-adv-x="273" d="M36 232v90h201v-90h-201z" />
<glyph unicode="&#xae;" horiz-adv-x="604" d="M20 329q0 141 79.5 244.5t202.5 103.5t202.5 -103.5t79.5 -244.5t-79.5 -244.5t-202.5 -103.5t-202.5 103.5t-79.5 244.5zM60 329q0 -124 67.5 -216t174.5 -92t174.5 92t67.5 216t-67.5 216t-174.5 92t-174.5 -92t-67.5 -216zM155 135v389h163q57 0 87 -27.5t30 -79.5 q0 -57 -44 -90q20 -10 28 -25.5t9 -46.5l3 -69q0 -17 3 -23.5t14 -13.5v-14h-63q-9 23 -9 99q0 34 -14 49.5t-44 15.5h-109v-164h-54zM209 350h104q67 0 67 63q0 59 -59 59h-112v-122z" />
<glyph unicode="&#xaf;" horiz-adv-x="273" d="M8 627v57h257v-57h-257z" />
<glyph unicode="&#xb0;" horiz-adv-x="328" d="M44 557q0 63 34.5 104.5t87.5 41.5q50 0 84 -42.5t34 -103.5q0 -62 -34.5 -104t-85.5 -42t-85.5 42t-34.5 104zM84 557q0 -41 24.5 -72t55.5 -31t55.5 31t24.5 72q0 40 -24.5 71.5t-55.5 31.5t-55.5 -31t-24.5 -72z" />
<glyph unicode="&#xb1;" horiz-adv-x="479" d="M55 0v58h369v-58h-369zM55 279v58h156v156h58v-156h155v-58h-155v-155h-58v155h-156z" />
<glyph unicode="&#xb2;" horiz-adv-x="273" d="M3 280q6 115 85 168l50 33q46 30 57.5 47.5t12.5 54.5q0 35 -18 54t-51 19q-36 0 -53.5 -24.5t-20.5 -79.5h-50q6 162 128 162q54 0 88 -38t34 -99q0 -47 -21 -77.5t-77 -64.5l-37 -23q-43 -26 -65 -70h200v-62h-262z" />
<glyph unicode="&#xb3;" horiz-adv-x="273" d="M4 421h56q3 -51 19 -72t53 -21t57 21.5t20 60.5q0 38 -19.5 54.5t-64.5 16.5h-19v52h22q68 0 68 65q0 58 -65 58q-33 0 -49 -18.5t-19 -61.5h-50q6 138 123 138q53 0 85 -30.5t32 -81.5q0 -66 -51 -87q34 -13 49 -36t15 -63q0 -66 -37 -106t-98 -40q-56 0 -88.5 34.5 t-38.5 116.5z" />
<glyph unicode="&#xb4;" horiz-adv-x="273" d="M109 584l73 141h89l-107 -141h-55z" />
<glyph unicode="&#xb5;" d="M56 -207v730h72v-347q0 -114 83 -114q54 0 86 47t32 126v288h72v-523h-68v81q-28 -53 -57.5 -74.5t-76.5 -21.5q-46 0 -71 36v-228h-72z" />
<glyph unicode="&#xb6;" horiz-adv-x="440" d="M15 533q0 89 49.5 137t140.5 48h203v-891h-60v831h-97v-831h-60v517q-85 4 -130.5 55.5t-45.5 133.5z" />
<glyph unicode="&#xb7;" horiz-adv-x="228" d="M71 250q0 18 12.5 30.5t30.5 12.5t30.5 -12.5t12.5 -30.5t-12.5 -30.5t-30.5 -12.5t-30.5 12.5t-12.5 30.5z" />
<glyph unicode="&#xb8;" horiz-adv-x="273" d="M37 -208l14 40q29 -15 52 -15q47 0 47 42q0 18 -11.5 31.5t-28.5 13.5q-10 0 -31 -9l-14 19l52 88h47l-32 -60h12q30 0 49 -23t19 -57q0 -41 -26.5 -66.5t-69.5 -25.5q-35 0 -79 22z" />
<glyph unicode="&#xb9;" horiz-adv-x="273" d="M35 577v46q53 4 72 19t29 61h46v-422h-58v296h-89z" />
<glyph unicode="&#xba;" horiz-adv-x="299" d="M20 570q0 80 34 123.5t98 43.5q60 0 94 -44t34 -122q0 -79 -34 -122.5t-96 -43.5q-61 0 -95.5 43.5t-34.5 121.5zM28 304v48h243v-48h-243zM75 571q0 -54 19.5 -84t55.5 -30t55.5 30t19.5 84t-19.5 84t-54.5 30q-37 0 -56.5 -29.5t-19.5 -84.5z" />
<glyph unicode="&#xbb;" d="M80 108v88l86 81l-86 81v88l128 -123v-92zM248 108v88l86 81l-86 81v88l128 -123v-92z" />
<glyph unicode="&#xbc;" horiz-adv-x="684" d="M60 580v43q53 4 72 19t29 61h44v-422h-56v299h-89zM126 -25l363 728h47l-363 -728h-47zM344 94v60l169 268h52v-270h55v-58h-55v-94h-52v94h-169zM395 152h118v190z" />
<glyph unicode="&#xbd;" horiz-adv-x="684" d="M35 577v46q53 4 72 19t29 61h46v-422h-58v296h-89zM97 -25l362 728h47l-363 -728h-46zM372 0q3 60 23 99.5t63 67.5l49 33q47 32 58.5 48.5t11.5 53.5q0 35 -18 54t-51 19q-35 0 -53 -25t-21 -79h-49q3 162 127 162q55 0 88.5 -38t33.5 -99q0 -46 -21 -76t-77 -65 l-37 -23q-45 -29 -65 -70h200v-62h-262z" />
<glyph unicode="&#xbe;" horiz-adv-x="684" d="M37 421h56q3 -51 19.5 -72t53.5 -21t57 21.5t20 60.5q0 38 -19.5 54.5t-65.5 16.5h-19v52h22q68 0 68 65q0 58 -64 58q-34 0 -50 -18.5t-19 -61.5h-50q6 138 123 138q53 0 85 -30.5t32 -81.5q0 -66 -51 -87q35 -14 50 -37t15 -63q0 -65 -37 -105t-98 -40q-56 0 -88 33.5 t-40 117.5zM174 -25l363 728h47l-363 -728h-47zM388 94v60l169 268h52v-270h55v-58h-55v-94h-52v94h-169zM439 152h118v190z" />
<glyph unicode="&#xbf;" d="M53 -9q0 46 15 79t62 87t59 85t12 98h72q0 -77 -13.5 -114.5t-63.5 -100.5q-44 -55 -55 -77t-11 -56q0 -55 26.5 -87t73.5 -32q108 0 108 157h72q0 -65 -9.5 -99.5t-33.5 -65.5q-53 -69 -140 -69q-77 0 -125.5 54.5t-48.5 140.5zM195 421v102h80v-102h-80z" />
<glyph unicode="&#xc0;" horiz-adv-x="547" d="M11 0l221 718h91l213 -718h-87l-58 209h-236l-62 -209h-82zM142 900h94l73 -121h-60zM179 296h183l-88 318z" />
<glyph unicode="&#xc1;" horiz-adv-x="547" d="M11 0l221 718h91l213 -718h-87l-58 209h-236l-62 -209h-82zM179 296h183l-88 318zM248 779l73 121h94l-107 -121h-60z" />
<glyph unicode="&#xc2;" horiz-adv-x="547" d="M11 0l221 718h91l213 -718h-87l-58 209h-236l-62 -209h-82zM143 780l96 121h77l96 -121h-66l-69 73l-69 -73h-65zM179 296h183l-88 318z" />
<glyph unicode="&#xc3;" horiz-adv-x="547" d="M11 0l221 718h91l213 -718h-87l-58 209h-236l-62 -209h-82zM139 782q14 107 85 107q23 0 56 -15l18 -9q26 -13 41 -13q30 0 38 46h41q-15 -109 -83 -109q-15 0 -47 13l-21 9q-34 15 -51 15q-26 0 -38 -44h-39zM179 296h183l-88 318z" />
<glyph unicode="&#xc4;" horiz-adv-x="547" d="M11 0l221 718h91l213 -718h-87l-58 209h-236l-62 -209h-82zM154 792v96h88v-96h-88zM179 296h183l-88 318zM315 792v96h88v-96h-88z" />
<glyph unicode="&#xc5;" horiz-adv-x="547" d="M11 0l221 718h91l213 -718h-87l-58 209h-236l-62 -209h-82zM177 860q0 35 29 58.5t73 23.5t72.5 -23.5t28.5 -60.5q0 -35 -29 -58.5t-72 -23.5q-44 0 -73 23.5t-29 60.5zM179 296h183l-88 318zM221 860q0 -20 17 -34t41 -14q23 0 40 13.5t17 32.5q0 20 -17 34t-40 14 t-40.5 -13.5t-17.5 -32.5z" />
<glyph unicode="&#xc6;" horiz-adv-x="820" d="M7 0l239 718h528v-87h-319v-219h291v-87h-291v-238h325v-87h-405v209h-217l-65 -209h-86zM186 296h189v335h-80z" />
<glyph unicode="&#xc7;" horiz-adv-x="592" d="M36 358q0 174 74.5 276.5t200.5 102.5q98 0 162.5 -62t78.5 -173h-77q-34 148 -162 148q-91 0 -143 -78.5t-52 -216.5q0 -136 50 -211.5t140 -75.5q67 0 110 46.5t63 149.5h77q-15 -84 -34 -130t-53 -81q-56 -59 -137 -70l-22 -41h12q30 0 49 -23t19 -57 q0 -41 -26.5 -66.5t-69.5 -25.5q-35 0 -79 22l14 40q29 -15 52 -15q47 0 47 42q0 18 -11.5 31.5t-28.5 13.5q-10 0 -31 -9l-14 19l40 67q-115 8 -182 109t-67 268z" />
<glyph unicode="&#xc8;" horiz-adv-x="547" d="M71 0v718h428v-87h-348v-219h321v-87h-321v-238h354v-87h-434zM149 900h94l73 -121h-60z" />
<glyph unicode="&#xc9;" horiz-adv-x="547" d="M71 0v718h428v-87h-348v-219h321v-87h-321v-238h354v-87h-434zM255 779l73 121h94l-107 -121h-60z" />
<glyph unicode="&#xca;" horiz-adv-x="547" d="M71 0v718h428v-87h-348v-219h321v-87h-321v-238h354v-87h-434zM150 780l96 121h77l96 -121h-66l-69 73l-69 -73h-65z" />
<glyph unicode="&#xcb;" horiz-adv-x="547" d="M71 0v718h428v-87h-348v-219h321v-87h-321v-238h354v-87h-434zM161 792v96h88v-96h-88zM322 792v96h88v-96h-88z" />
<glyph unicode="&#xcc;" horiz-adv-x="228" d="M-13 900h94l73 -121h-60zM75 0v718h79v-718h-79z" />
<glyph unicode="&#xcd;" horiz-adv-x="228" d="M75 0v718h79v-718h-79zM76 779l73 121h94l-107 -121h-60z" />
<glyph unicode="&#xce;" horiz-adv-x="228" d="M-20 780l96 121h77l96 -121h-66l-69 73l-69 -73h-65zM75 0v718h79v-718h-79z" />
<glyph unicode="&#xcf;" horiz-adv-x="228" d="M-9 792v96h88v-96h-88zM75 0v718h79v-718h-79zM152 792v96h88v-96h-88z" />
<glyph unicode="&#xd0;" horiz-adv-x="592" d="M0 325v87h66v306h240q112 0 179.5 -95t67.5 -251q0 -169 -67 -270.5t-184 -101.5h-236v325h-66zM146 83h155q79 0 124.5 74t45.5 202q0 133 -45.5 204.5t-130.5 71.5h-149v-223h158v-87h-158v-242z" />
<glyph unicode="&#xd1;" horiz-adv-x="592" d="M62 0v718h94l297 -583v583h77v-718h-89l-302 583v-583h-77zM157 782q14 107 85 107q23 0 56 -15l18 -9q26 -13 41 -13q30 0 38 46h41q-15 -109 -83 -109q-15 0 -47 13l-21 9q-34 15 -51 15q-26 0 -38 -44h-39z" />
<glyph unicode="&#xd2;" horiz-adv-x="638" d="M32 358q0 165 77 272t214 107q124 0 203.5 -105.5t79.5 -273.5q0 -104 -32 -188t-98.5 -136.5t-156.5 -52.5t-156.5 52.5t-98.5 136.5t-32 188zM114 358q0 -130 56.5 -210t148.5 -80t148.5 80t56.5 211q0 130 -56 210.5t-146 80.5q-95 0 -151.5 -79t-56.5 -213zM187 900 h94l73 -121h-60z" />
<glyph unicode="&#xd3;" horiz-adv-x="638" d="M32 358q0 165 77 272t214 107q124 0 203.5 -105.5t79.5 -273.5q0 -104 -32 -188t-98.5 -136.5t-156.5 -52.5t-156.5 52.5t-98.5 136.5t-32 188zM114 358q0 -130 56.5 -210t148.5 -80t148.5 80t56.5 211q0 130 -56 210.5t-146 80.5q-95 0 -151.5 -79t-56.5 -213zM293 779 l73 121h94l-107 -121h-60z" />
<glyph unicode="&#xd4;" horiz-adv-x="638" d="M32 358q0 165 77 272t214 107q124 0 203.5 -105.5t79.5 -273.5q0 -104 -32 -188t-98.5 -136.5t-156.5 -52.5t-156.5 52.5t-98.5 136.5t-32 188zM114 358q0 -130 56.5 -210t148.5 -80t148.5 80t56.5 211q0 130 -56 210.5t-146 80.5q-95 0 -151.5 -79t-56.5 -213zM188 780 l96 121h77l96 -121h-66l-69 73l-69 -73h-65z" />
<glyph unicode="&#xd5;" horiz-adv-x="638" d="M32 358q0 165 77 272t214 107q124 0 203.5 -105.5t79.5 -273.5q0 -104 -32 -188t-98.5 -136.5t-156.5 -52.5t-156.5 52.5t-98.5 136.5t-32 188zM114 358q0 -130 56.5 -210t148.5 -80t148.5 80t56.5 211q0 130 -56 210.5t-146 80.5q-95 0 -151.5 -79t-56.5 -213zM184 782 q14 107 85 107q23 0 56 -15l18 -9q26 -13 41 -13q30 0 38 46h41q-15 -109 -83 -109q-15 0 -47 13l-21 9q-34 15 -51 15q-26 0 -38 -44h-39z" />
<glyph unicode="&#xd6;" horiz-adv-x="638" d="M32 358q0 165 77 272t214 107q124 0 203.5 -105.5t79.5 -273.5q0 -104 -32 -188t-98.5 -136.5t-156.5 -52.5t-156.5 52.5t-98.5 136.5t-32 188zM114 358q0 -130 56.5 -210t148.5 -80t148.5 80t56.5 211q0 130 -56 210.5t-146 80.5q-95 0 -151.5 -79t-56.5 -213zM199 792 v96h88v-96h-88zM360 792v96h88v-96h-88z" />
<glyph unicode="&#xd7;" horiz-adv-x="479" d="M89 140l110 111l-110 110l41 41l110 -110l110 109l41 -41l-110 -109l110 -110l-41 -41l-110 109l-110 -110z" />
<glyph unicode="&#xd8;" horiz-adv-x="638" d="M32 360q0 104 32 188t98.5 136.5t157.5 52.5q61 0 106.5 -21t88.5 -68l67 89l25 -30l-68 -91q67 -118 67 -258q0 -160 -76.5 -268.5t-211.5 -108.5q-59 0 -104 20.5t-88 66.5l-66 -87l-26 28l68 90q-70 120 -70 261zM114 359q0 -103 42 -188l307 407q-61 72 -143 72 q-93 0 -149.5 -80t-56.5 -211zM178 138q60 -70 140 -70q93 0 149.5 80t56.5 211q0 104 -40 184z" />
<glyph unicode="&#xd9;" horiz-adv-x="592" d="M65 239v479h80v-452q0 -95 39 -146.5t111 -51.5q73 0 113 51t40 145v454h80v-466q0 -124 -64 -197.5t-172 -73.5q-104 0 -165.5 70t-61.5 188zM161 900h94l73 -121h-60z" />
<glyph unicode="&#xda;" horiz-adv-x="592" d="M65 239v479h80v-452q0 -95 39 -146.5t111 -51.5q73 0 113 51t40 145v454h80v-466q0 -124 -64 -197.5t-172 -73.5q-104 0 -165.5 70t-61.5 188zM267 779l73 121h94l-107 -121h-60z" />
<glyph unicode="&#xdb;" horiz-adv-x="592" d="M65 239v479h80v-452q0 -95 39 -146.5t111 -51.5q73 0 113 51t40 145v454h80v-466q0 -124 -64 -197.5t-172 -73.5q-104 0 -165.5 70t-61.5 188zM162 780l96 121h77l96 -121h-66l-69 73l-69 -73h-65z" />
<glyph unicode="&#xdc;" horiz-adv-x="592" d="M65 239v479h80v-452q0 -95 39 -146.5t111 -51.5q73 0 113 51t40 145v454h80v-466q0 -124 -64 -197.5t-172 -73.5q-104 0 -165.5 70t-61.5 188zM173 792v96h88v-96h-88zM334 792v96h88v-96h-88z" />
<glyph unicode="&#xdd;" horiz-adv-x="547" d="M11 718h93l169 -345l169 345h93l-222 -429v-289h-80v289zM243 779l73 121h94l-107 -121h-60z" />
<glyph unicode="&#xde;" horiz-adv-x="547" d="M71 0v718h80v-119h184q79 0 127 -56t48 -147q0 -96 -48 -154t-127 -58h-184v-184h-80zM151 267h157q120 0 120 126q0 123 -117 123h-160v-249z" />
<glyph unicode="&#xdf;" horiz-adv-x="501" d="M55 0v532q0 92 51 144t141 52q88 0 140.5 -49.5t52.5 -132.5q0 -93 -67 -146q95 -40 95 -177q0 -102 -54 -170t-152 -68q-23 0 -44 7v75q20 -4 35 -4q140 0 140 151q0 140 -140 140q-18 0 -31 -4v79q10 -2 23 -2q58 0 90.5 29t32.5 82t-33 83t-91 30q-62 0 -89.5 -33.5 t-27.5 -107.5v-510h-72z" />
<glyph unicode="&#xe0;" d="M30 138q0 68 34 110t96 52l119 18q38 6 38 60q0 87 -99 87q-101 0 -101 -101h-66q0 174 172 174q77 0 120.5 -39t43.5 -107v-301q0 -31 23 -31q5 0 25 4v-64q-29 -10 -42 -10q-37 0 -53.5 18.5t-20.5 61.5q-35 -45 -70.5 -65t-81.5 -20q-62 0 -99.5 42t-37.5 111zM89 725 h89l73 -141h-55zM105 146q0 -42 20 -65t57 -23q54 0 93.5 36.5t39.5 86.5v86q-11 -10 -33 -16t-85 -17q-49 -8 -70.5 -28.5t-21.5 -59.5z" />
<glyph unicode="&#xe1;" d="M30 138q0 68 34 110t96 52l119 18q38 6 38 60q0 87 -99 87q-101 0 -101 -101h-66q0 174 172 174q77 0 120.5 -39t43.5 -107v-301q0 -31 23 -31q5 0 25 4v-64q-29 -10 -42 -10q-37 0 -53.5 18.5t-20.5 61.5q-35 -45 -70.5 -65t-81.5 -20q-62 0 -99.5 42t-37.5 111z M105 146q0 -42 20 -65t57 -23q54 0 93.5 36.5t39.5 86.5v86q-11 -10 -33 -16t-85 -17q-49 -8 -70.5 -28.5t-21.5 -59.5zM195 584l73 141h89l-107 -141h-55z" />
<glyph unicode="&#xe2;" d="M30 138q0 68 34 110t96 52l119 18q38 6 38 60q0 87 -99 87q-101 0 -101 -101h-66q0 174 172 174q77 0 120.5 -39t43.5 -107v-301q0 -31 23 -31q5 0 25 4v-64q-29 -10 -42 -10q-37 0 -53.5 18.5t-20.5 61.5q-35 -45 -70.5 -65t-81.5 -20q-62 0 -99.5 42t-37.5 111z M103 585l81 141h77l81 -141h-66l-54 93l-54 -93h-65zM105 146q0 -42 20 -65t57 -23q54 0 93.5 36.5t39.5 86.5v86q-11 -10 -33 -16t-85 -17q-49 -8 -70.5 -28.5t-21.5 -59.5z" />
<glyph unicode="&#xe3;" d="M30 138q0 68 34 110t96 52l119 18q38 6 38 60q0 87 -99 87q-101 0 -101 -101h-66q0 174 172 174q77 0 120.5 -39t43.5 -107v-301q0 -31 23 -31q5 0 25 4v-64q-29 -10 -42 -10q-37 0 -53.5 18.5t-20.5 61.5q-35 -45 -70.5 -65t-81.5 -20q-62 0 -99.5 42t-37.5 111zM83 597 q14 107 85 107q23 0 56 -15l18 -9q26 -13 41 -13q30 0 38 46h41q-15 -109 -83 -109q-15 0 -47 13l-21 9q-34 15 -51 15q-26 0 -38 -44h-39zM105 146q0 -42 20 -65t57 -23q54 0 93.5 36.5t39.5 86.5v86q-11 -10 -33 -16t-85 -17q-49 -8 -70.5 -28.5t-21.5 -59.5z" />
<glyph unicode="&#xe4;" d="M30 138q0 68 34 110t96 52l119 18q38 6 38 60q0 87 -99 87q-101 0 -101 -101h-66q0 174 172 174q77 0 120.5 -39t43.5 -107v-301q0 -31 23 -31q5 0 25 4v-64q-29 -10 -42 -10q-37 0 -53.5 18.5t-20.5 61.5q-35 -45 -70.5 -65t-81.5 -20q-62 0 -99.5 42t-37.5 111zM98 607 v96h88v-96h-88zM105 146q0 -42 20 -65t57 -23q54 0 93.5 36.5t39.5 86.5v86q-11 -10 -33 -16t-85 -17q-49 -8 -70.5 -28.5t-21.5 -59.5zM259 607v96h88v-96h-88z" />
<glyph unicode="&#xe5;" d="M30 138q0 68 34 110t96 52l119 18q38 6 38 60q0 87 -99 87q-101 0 -101 -101h-66q0 174 172 174q77 0 120.5 -39t43.5 -107v-301q0 -31 23 -31q5 0 25 4v-64q-29 -10 -42 -10q-37 0 -53.5 18.5t-20.5 61.5q-35 -45 -70.5 -65t-81.5 -20q-62 0 -99.5 42t-37.5 111z M105 146q0 -42 20 -65t57 -23q54 0 93.5 36.5t39.5 86.5v86q-11 -10 -33 -16t-85 -17q-49 -8 -70.5 -28.5t-21.5 -59.5zM121 656q0 35 29 58.5t73 23.5t72.5 -23.5t28.5 -60.5q0 -35 -29 -58.5t-72 -23.5q-44 0 -73 23.5t-29 60.5zM165 656q0 -20 17 -34t41 -14 q23 0 40 13.5t17 32.5q0 20 -17 34t-40 14t-40.5 -13.5t-17.5 -32.5z" />
<glyph unicode="&#xe6;" horiz-adv-x="729" d="M30 138q0 68 34 110t96 52l119 18q38 6 38 60q0 87 -99 87q-47 0 -70 -22.5t-31 -78.5h-66q5 92 48 133t129 41q48 0 77 -15.5t62 -58.5q35 42 65.5 58t75.5 16q87 0 133.5 -70.5t53.5 -234.5h-314q6 -171 122 -171q43 0 75.5 29t38.5 73h72q-13 -82 -62 -130.5 t-127 -48.5q-58 0 -95.5 25.5t-65.5 83.5q-34 -58 -74 -83.5t-94 -25.5q-65 0 -103 41.5t-38 111.5zM105 146q0 -42 20 -65t57 -23q54 0 93.5 36.5t39.5 86.5v86q-10 -10 -32 -16t-86 -17q-49 -8 -70.5 -29t-21.5 -59zM381 303h239q-12 157 -116 157q-52 0 -85.5 -43 t-37.5 -114z" />
<glyph unicode="&#xe7;" horiz-adv-x="410" d="M25 252q0 131 55 208.5t148 77.5q144 0 163 -191h-70q-9 59 -33 86t-67 27q-56 0 -87.5 -53t-31.5 -148t29.5 -146t84.5 -51q82 0 105 123h70q-22 -178 -145 -198l-24 -45h12q30 0 49 -23t19 -57q0 -41 -26.5 -66.5t-69.5 -25.5q-35 0 -79 22l14 40q29 -15 52 -15 q47 0 47 42q0 18 -11.5 31.5t-28.5 13.5q-10 0 -31 -9l-14 19l43 72q-80 8 -126.5 79.5t-46.5 186.5z" />
<glyph unicode="&#xe8;" d="M33 252q0 131 55 208.5t148 77.5q87 0 134.5 -71.5t52.5 -233.5h-313q6 -171 122 -171q44 0 76 29t37 73h72q-14 -85 -63.5 -132t-123.5 -47q-91 0 -144 71.5t-53 195.5zM94 725h89l73 -141h-55zM110 303h238q-11 157 -115 157q-52 0 -86 -43.5t-37 -113.5z" />
<glyph unicode="&#xe9;" d="M33 252q0 131 55 208.5t148 77.5q87 0 134.5 -71.5t52.5 -233.5h-313q6 -171 122 -171q44 0 76 29t37 73h72q-14 -85 -63.5 -132t-123.5 -47q-91 0 -144 71.5t-53 195.5zM110 303h238q-11 157 -115 157q-52 0 -86 -43.5t-37 -113.5zM200 584l73 141h89l-107 -141h-55z " />
<glyph unicode="&#xea;" d="M33 252q0 131 55 208.5t148 77.5q87 0 134.5 -71.5t52.5 -233.5h-313q6 -171 122 -171q44 0 76 29t37 73h72q-14 -85 -63.5 -132t-123.5 -47q-91 0 -144 71.5t-53 195.5zM108 585l81 141h77l81 -141h-66l-54 93l-54 -93h-65zM110 303h238q-11 157 -115 157 q-52 0 -86 -43.5t-37 -113.5z" />
<glyph unicode="&#xeb;" d="M33 252q0 131 55 208.5t148 77.5q87 0 134.5 -71.5t52.5 -233.5h-313q6 -171 122 -171q44 0 76 29t37 73h72q-14 -85 -63.5 -132t-123.5 -47q-91 0 -144 71.5t-53 195.5zM103 607v96h88v-96h-88zM110 303h238q-11 157 -115 157q-52 0 -86 -43.5t-37 -113.5zM264 607v96 h88v-96h-88z" />
<glyph unicode="&#xec;" horiz-adv-x="228" d="M-12 725h89l73 -141h-55zM78 0v523h72v-523h-72z" />
<glyph unicode="&#xed;" horiz-adv-x="228" d="M78 0v523h72v-523h-72zM78 584l73 141h89l-107 -141h-55z" />
<glyph unicode="&#xee;" horiz-adv-x="228" d="M-6 585l81 141h77l81 -141h-66l-54 93l-54 -93h-65zM78 0v523h72v-523h-72z" />
<glyph unicode="&#xef;" horiz-adv-x="228" d="M-11 607v96h88v-96h-88zM78 0v523h72v-523h-72zM150 607v96h88v-96h-88z" />
<glyph unicode="&#xf0;" d="M29 253q0 117 54 193.5t136 76.5q35 0 59 -13t52 -47q-30 83 -94 149l-101 -62l-35 42l97 57q-34 31 -73 52l61 36q40 -20 74 -51l87 51l39 -40l-88 -51q71 -88 101 -171.5t30 -184.5q0 -140 -53.5 -222.5t-144.5 -82.5q-88 0 -144.5 75t-56.5 193zM104 254 q0 -84 34 -138t90 -54t90.5 54.5t34.5 137.5q0 84 -35 138t-88 54q-56 0 -91 -54t-35 -138z" />
<glyph unicode="&#xf1;" d="M53 0v523h68v-77q52 92 137 92q68 0 106.5 -48t38.5 -134v-356h-72v322q0 72 -21 105t-67 33q-55 0 -86.5 -46.5t-31.5 -128.5v-285h-72zM88 597q14 107 85 107q23 0 56 -15l18 -9q26 -13 41 -13q30 0 38 46h41q-15 -109 -83 -109q-15 0 -47 13l-21 9q-34 15 -51 15 q-26 0 -38 -44h-39z" />
<glyph unicode="&#xf2;" d="M29 262q0 124 55.5 200t146.5 76q86 0 141 -77.5t55 -198.5q0 -122 -55.5 -199t-143.5 -77t-143.5 77t-55.5 199zM94 725h89l73 -141h-55zM104 262q0 -91 34 -145t90 -54t90 54t34 145q0 90 -33.5 144.5t-88.5 54.5q-58 0 -92 -53.5t-34 -145.5z" />
<glyph unicode="&#xf3;" d="M29 262q0 124 55.5 200t146.5 76q86 0 141 -77.5t55 -198.5q0 -122 -55.5 -199t-143.5 -77t-143.5 77t-55.5 199zM104 262q0 -91 34 -145t90 -54t90 54t34 145q0 90 -33.5 144.5t-88.5 54.5q-58 0 -92 -53.5t-34 -145.5zM200 584l73 141h89l-107 -141h-55z" />
<glyph unicode="&#xf4;" d="M29 262q0 124 55.5 200t146.5 76q86 0 141 -77.5t55 -198.5q0 -122 -55.5 -199t-143.5 -77t-143.5 77t-55.5 199zM104 262q0 -91 34 -145t90 -54t90 54t34 145q0 90 -33.5 144.5t-88.5 54.5q-58 0 -92 -53.5t-34 -145.5zM108 585l81 141h77l81 -141h-66l-54 93l-54 -93 h-65z" />
<glyph unicode="&#xf5;" d="M29 262q0 124 55.5 200t146.5 76q86 0 141 -77.5t55 -198.5q0 -122 -55.5 -199t-143.5 -77t-143.5 77t-55.5 199zM88 597q14 107 85 107q23 0 56 -15l18 -9q26 -13 41 -13q30 0 38 46h41q-15 -109 -83 -109q-15 0 -47 13l-21 9q-34 15 -51 15q-26 0 -38 -44h-39zM104 262 q0 -91 34 -145t90 -54t90 54t34 145q0 90 -33.5 144.5t-88.5 54.5q-58 0 -92 -53.5t-34 -145.5z" />
<glyph unicode="&#xf6;" d="M29 262q0 124 55.5 200t146.5 76q86 0 141 -77.5t55 -198.5q0 -122 -55.5 -199t-143.5 -77t-143.5 77t-55.5 199zM103 607v96h88v-96h-88zM104 262q0 -91 34 -145t90 -54t90 54t34 145q0 90 -33.5 144.5t-88.5 54.5q-58 0 -92 -53.5t-34 -145.5zM264 607v96h88v-96h-88z " />
<glyph unicode="&#xf7;" horiz-adv-x="479" d="M55 221v58h369v-58h-369zM197 71q0 17 12.5 30t30.5 13q17 0 30 -13t13 -30q0 -18 -13 -30.5t-30 -12.5q-18 0 -30.5 12.5t-12.5 30.5zM197 430q0 17 12.5 30t30.5 13q17 0 30 -13t13 -30q0 -18 -13 -30.5t-30 -12.5q-18 0 -30.5 12.5t-12.5 30.5z" />
<glyph unicode="&#xf8;" d="M23 4l52 72q-46 85 -46 186q0 123 55.5 199.5t144.5 76.5q76 0 133 -65l53 72l25 -26l-57 -78q44 -82 44 -180q0 -122 -55.5 -198.5t-144.5 -76.5q-73 0 -129 60l-50 -68zM104 262q0 -62 20 -119l193 267q-35 51 -89 51q-56 0 -90 -54t-34 -145zM143 108q33 -45 84 -45 q57 0 91 54t34 145q0 58 -18 111z" />
<glyph unicode="&#xf9;" d="M56 147v376h72v-347q0 -114 83 -114q54 0 86 47t32 126v288h72v-523h-68v81q-29 -54 -58.5 -75t-77.5 -21q-66 0 -103.5 43t-37.5 119zM94 725h89l73 -141h-55z" />
<glyph unicode="&#xfa;" d="M56 147v376h72v-347q0 -114 83 -114q54 0 86 47t32 126v288h72v-523h-68v81q-29 -54 -58.5 -75t-77.5 -21q-66 0 -103.5 43t-37.5 119zM200 584l73 141h89l-107 -141h-55z" />
<glyph unicode="&#xfb;" d="M56 147v376h72v-347q0 -114 83 -114q54 0 86 47t32 126v288h72v-523h-68v81q-29 -54 -58.5 -75t-77.5 -21q-66 0 -103.5 43t-37.5 119zM108 585l81 141h77l81 -141h-66l-54 93l-54 -93h-65z" />
<glyph unicode="&#xfc;" d="M56 147v376h72v-347q0 -114 83 -114q54 0 86 47t32 126v288h72v-523h-68v81q-29 -54 -58.5 -75t-77.5 -21q-66 0 -103.5 43t-37.5 119zM103 607v96h88v-96h-88zM264 607v96h88v-96h-88z" />
<glyph unicode="&#xfd;" horiz-adv-x="410" d="M9 523h81l115 -429l116 429h80l-155 -513q-26 -84 -40 -123t-33 -65t-37 -31t-53 -5q-11 0 -35 8v80q21 -9 44 -9t33.5 13t24.5 54l18 54zM177 584l73 141h89l-107 -141h-55z" />
<glyph unicode="&#xfe;" d="M48 -207v925h72v-270q26 49 54.5 69.5t71.5 20.5q80 0 129 -72.5t49 -191.5q0 -131 -51 -210t-136 -79q-75 0 -117 73v-265h-72zM117 244q0 -85 31.5 -133.5t85.5 -48.5q55 0 85 55t30 154q0 92 -29 140.5t-85 48.5q-118 0 -118 -216z" />
<glyph unicode="&#xff;" horiz-adv-x="410" d="M9 523h81l115 -429l116 429h80l-155 -513q-26 -84 -40 -123t-33 -65t-37 -31t-53 -5q-11 0 -35 8v80q21 -9 44 -9t33.5 13t24.5 54l18 54zM80 607v96h88v-96h-88zM241 607v96h88v-96h-88z" />
<glyph unicode="&#x152;" horiz-adv-x="820" d="M30 351q0 173 68 279.5t181 106.5q54 0 87.5 -21.5t63.5 -74.5v77h359v-87h-285v-219h272v-87h-272v-238h287v-87h-362v78q-37 -56 -70 -76.5t-86 -20.5q-111 0 -177 100.5t-66 269.5zM112 343q0 -136 44 -207.5t127 -71.5q64 0 102.5 45.5t38.5 120.5v262 q0 73 -39 117.5t-103 44.5q-82 0 -126 -80t-44 -231z" />
<glyph unicode="&#x153;" horiz-adv-x="774" d="M29 262q0 122 55.5 199t143.5 77q103 0 161 -106q34 58 71 82t92 24q88 0 135.5 -71t52.5 -234h-314q6 -171 123 -171q43 0 75 29t38 73h72q-14 -85 -63.5 -132t-124.5 -47q-55 0 -92 23t-72 78q-46 -100 -151 -100q-91 0 -146.5 76t-55.5 200zM104 262q0 -91 34 -145 t90 -54q57 0 91 54t34 145q0 90 -33.5 144.5t-89.5 54.5q-58 0 -92 -54t-34 -145zM426 303h239q-11 157 -115 157q-53 0 -87 -43.5t-37 -113.5z" />
<glyph unicode="&#x178;" horiz-adv-x="547" d="M11 718h93l169 -345l169 345h93l-222 -429v-289h-80v289zM149 792v96h88v-96h-88zM310 792v96h88v-96h-88z" />
<glyph unicode="&#x2c6;" horiz-adv-x="273" d="M17 585l81 141h77l81 -141h-66l-54 93l-54 -93h-65z" />
<glyph unicode="&#x2dc;" horiz-adv-x="273" d="M-3 597q14 107 85 107q23 0 56 -15l18 -9q26 -13 41 -13q30 0 38 46h41q-15 -109 -83 -109q-15 0 -47 13l-21 9q-34 15 -51 15q-26 0 -38 -44h-39z" />
<glyph unicode="&#x2000;" horiz-adv-x="471" />
<glyph unicode="&#x2001;" horiz-adv-x="942" />
<glyph unicode="&#x2002;" horiz-adv-x="471" />
<glyph unicode="&#x2003;" horiz-adv-x="942" />
<glyph unicode="&#x2004;" horiz-adv-x="314" />
<glyph unicode="&#x2005;" horiz-adv-x="235" />
<glyph unicode="&#x2006;" horiz-adv-x="157" />
<glyph unicode="&#x2007;" horiz-adv-x="157" />
<glyph unicode="&#x2008;" horiz-adv-x="117" />
<glyph unicode="&#x2009;" horiz-adv-x="188" />
<glyph unicode="&#x200a;" horiz-adv-x="52" />
<glyph unicode="&#x2010;" horiz-adv-x="273" d="M36 232v90h201v-90h-201z" />
<glyph unicode="&#x2011;" horiz-adv-x="273" d="M36 232v90h201v-90h-201z" />
<glyph unicode="&#x2012;" horiz-adv-x="273" d="M36 232v90h201v-90h-201z" />
<glyph unicode="&#x2013;" d="M0 240v73h456v-73h-456z" />
<glyph unicode="&#x2014;" horiz-adv-x="820" d="M0 240v73h820v-73h-820z" />
<glyph unicode="&#x2018;" horiz-adv-x="182" d="M53 469v99q0 69 19.5 104.5t66.5 52.5v-47q-24 -5 -34 -29t-10 -73h44v-107h-86z" />
<glyph unicode="&#x2019;" horiz-adv-x="182" d="M43 462v47q24 5 34 29t10 73h-44v107h86v-99q0 -69 -19.5 -104.5t-66.5 -52.5z" />
<glyph unicode="&#x201a;" horiz-adv-x="182" d="M43 0v107h86v-99q0 -69 -19.5 -104.5t-66.5 -52.5v47q24 5 34 29t10 73h-44z" />
<glyph unicode="&#x201c;" horiz-adv-x="273" d="M31 469v99q0 69 19.5 104.5t65.5 52.5v-47q-24 -5 -33.5 -28.5t-9.5 -73.5h43v-107h-85zM167 469v99q0 69 19.5 105t65.5 52v-47q-24 -5 -33.5 -28.5t-9.5 -73.5h43v-107h-85z" />
<glyph unicode="&#x201d;" horiz-adv-x="273" d="M21 462v47q24 5 33.5 28.5t9.5 73.5h-43v107h85v-99q0 -69 -19.5 -104.5t-65.5 -52.5zM157 462v47q24 5 33.5 28.5t9.5 73.5h-43v107h85v-99q0 -69 -19.5 -104.5t-65.5 -52.5z" />
<glyph unicode="&#x201e;" horiz-adv-x="273" d="M21 0v107h85v-99q0 -69 -19.5 -104.5t-65.5 -52.5v47q24 5 33.5 28.5t9.5 73.5h-43zM157 0v107h85v-99q0 -69 -19.5 -105t-65.5 -52v47q24 5 33.5 28.5t9.5 73.5h-43z" />
<glyph unicode="&#x2022;" horiz-adv-x="287" d="M15 358q0 67 37.5 113t92.5 46q52 0 90 -46.5t38 -111.5t-38 -111t-92 -46q-53 0 -90.5 45.5t-37.5 110.5z" />
<glyph unicode="&#x2026;" horiz-adv-x="820" d="M94 0v107h85v-107h-85zM367 0v107h85v-107h-85zM641 0v107h85v-107h-85z" />
<glyph unicode="&#x202f;" horiz-adv-x="188" />
<glyph unicode="&#x2039;" horiz-adv-x="273" d="M72 231v92l129 123v-88l-86 -81l86 -81v-88z" />
<glyph unicode="&#x203a;" horiz-adv-x="273" d="M72 108v88l86 81l-86 81v88l129 -123v-92z" />
<glyph unicode="&#x205f;" horiz-adv-x="235" />
<glyph unicode="&#x20ac;" horiz-adv-x="510" d="M0 264l25 62h64v27q0 25 1 36h-90l25 62h68q21 279 229 279q56 0 95 -17t78 -58l-32 -82q-32 48 -62.5 67.5t-72.5 19.5q-64 0 -99.5 -51t-46.5 -158h232l-25 -62h-211v-63h185l-26 -62h-156q10 -108 48 -157.5t107 -49.5q67 0 120 50v-87q-63 -32 -121 -32 q-108 0 -170.5 70t-72.5 206h-92z" />
<glyph unicode="&#x2122;" horiz-adv-x="820" d="M55 664v54h301v-54h-122v-335h-57v335h-122zM411 329v389h77l101 -315l100 315h76v-389h-54v302l-96 -302h-54l-94 301v-301h-56z" />
<glyph unicode="&#xe000;" horiz-adv-x="525" d="M0 0v525h525v-525h-525z" />
</font>
</defs>
</svg>
