<?xml version="1.0" standalone="no"?>
<!DOCTYPE svg PUBLIC "-//W3C//DTD SVG 1.1//EN" "http://www.w3.org/Graphics/SVG/1.1/DTD/svg11.dtd" >
<svg xmlns="http://www.w3.org/2000/svg">
<metadata></metadata>
<defs>
<font id="junicodebold" horiz-adv-x="956" >
<font-face units-per-em="2048" ascent="1638" descent="-410" />
<missing-glyph horiz-adv-x="559" />
<glyph unicode="&#x2e;&#x2e;&#x2e;" horiz-adv-x="2048" d="M186 133q0 55 39 98q44 48 123 48q73 0 118 -57q34 -42 34 -101q0 -83 -68 -124q-37 -22 -84 -22q-71 0 -118 45q-44 42 -44 113zM868 133q0 55 39 98q44 48 123 48q73 0 118 -57q34 -42 34 -101q0 -83 -68 -124q-37 -22 -84 -22q-71 0 -118 45q-44 42 -44 113zM1552 133 q0 55 39 98q44 48 123 48q73 0 118 -57q34 -42 34 -101q0 -83 -68 -124q-37 -22 -84 -22q-71 0 -118 45q-44 42 -44 113z" />
<glyph unicode="&#xfb01;" horiz-adv-x="1088" d="M42 30q0 38 15 38q108 0 108 75v568q0 34 -30 34h-63q-16 0 -16 37t16 37q46 0 69 34t23 79q0 146 65.5 274t184 204.5t282.5 76.5q112 0 177 -43t65 -101q0 -48 -38 -85q-37 -35 -74 -35q-77 0 -131 75.5t-104 75.5q-103 0 -149.5 -88.5t-46.5 -282.5v-122q0 -31 30 -31 h258q73 0 133.5 8.5t87 16.5t33.5 8q29 0 29 -31q-8 -91 -8 -178v-531q0 -75 102 -75q15 0 15 -38t-15 -38q-82 8 -218 8t-218 -8q-15 0 -15 38t15 38q104 0 104 75v535q0 67 -55 67h-248q-30 0 -30 -30v-572q0 -75 133 -75q15 0 15 -38t-15 -38q-82 8 -235.5 8t-235.5 -8 q-15 0 -15 38z" />
<glyph unicode="&#xfb02;" horiz-adv-x="1089" d="M40 29.5q0 38.5 15 38.5q109 0 109 68v573q0 36 -37 36h-55q-16 0 -16 37t16 37q44 0 68 32t24 81q0 146 64 271.5t183.5 204.5t262.5 79q108 0 172 -47q35 17 54.5 32t33.5 15q31 0 31 -33q-7 -112 -7 -168v-1143q0 -75 103 -75q15 0 15 -38t-15 -38q-113 8 -227 8 t-209 -8q-16 -1 -16 37.5t16 38.5q104 0 104 75v566q0 36 -37 36h-262q-37 0 -37 -36v-573q0 -68 133 -68q16 0 16 -38.5t-16 -37.5q-96 8 -234 8t-237 -8q-15 -1 -15 37.5zM393 887q0 -37 37 -37h266q33 0 33 35v276q0 112 -46.5 162.5t-113.5 50.5q-76 0 -126 -84.5 t-50 -241.5v-161z" />
<glyph unicode="&#xfb03;" horiz-adv-x="1661" d="M40 30q0 38 15 38q109 0 109 75v568q0 34 -31 34h-61q-15 0 -15 37t15 37q92 0 92 113q0 140 76.5 271t193.5 197t240 66q158 0 230 -96q6 -8 11 -16q150 133 353 133q112 0 177 -43t65 -101q0 -48 -38 -84.5t-74 -35.5q-77 0 -131 75.5t-104 75.5q-103 0 -149.5 -88.5 t-46.5 -282.5v-122q0 -31 30 -31h258q73 0 133.5 8.5t87 16.5t33.5 8q29 0 29 -31q-8 -91 -8 -178v-531q0 -75 102 -75q15 0 15 -38t-15 -38q-82 8 -218 8t-218 -8q-15 0 -15 38t15 38q104 0 104 75v535q0 67 -55 67h-248q-30 0 -30 -30v-572q0 -75 133 -75q15 0 15 -38 t-15 -38q-82 8 -235.5 8t-235.5 -8q-15 0 -15 38t15 38q108 0 108 75v568q0 34 -30 34h-283q-31 0 -31 -30v-572q0 -75 133 -75q15 0 15 -38t-15 -38q-82 8 -235.5 8t-235.5 -8q-15 0 -15 38zM393 881q0 -31 31 -31h281q32 0 32 82q0 144 62 258q-57 166 -197 166 q-113 0 -161 -90t-48 -289v-96z" />
<glyph unicode="&#xfb04;" horiz-adv-x="1661" d="M40 30q0 38 15 38q109 0 109 75v568q0 34 -31 34h-61q-15 0 -15 37t15 37q92 0 92 113q0 140 76.5 271t193.5 197t240 66q158 0 230 -96q6 -8 11 -16q156 133 332 133q106 0 172 -47q41 22 57 34.5t29 12.5q31 0 31 -33q-6 -87 -6 -168v-1143q0 -76 102 -75q15 0 15 -38 t-15 -38q-95 8 -215.5 8t-220.5 -8q-15 0 -15 38t15 38q104 0 104 75v570q0 32 -36 32h-267q-30 0 -30 -30v-572q0 -75 133 -75q15 0 15 -38t-15 -38q-82 8 -235.5 8t-235.5 -8q-15 0 -15 38t15 38q108 0 108 75v568q0 34 -30 34h-283q-31 0 -31 -30v-572q0 -75 133 -75 q15 0 15 -38t-15 -38q-82 8 -235.5 8t-235.5 -8q-15 0 -15 38zM393 881q0 -31 31 -31h281q32 0 32 82q0 144 62 258q-57 166 -197 166q-113 0 -161 -90t-48 -289v-96zM967 881q0 -31 30 -31h269q34 0 34 33v278q0 213 -167 213q-74 0 -120 -88.5t-46 -282.5v-122z" />
<glyph horiz-adv-x="0" />
<glyph horiz-adv-x="0" />
<glyph unicode="&#xd;" horiz-adv-x="682" />
<glyph unicode=" "  horiz-adv-x="559" />
<glyph unicode="&#x09;" horiz-adv-x="559" />
<glyph unicode="&#xa0;" horiz-adv-x="559" />
<glyph unicode="!" horiz-adv-x="520" d="M104 123.5q0 61.5 41 108.5t117.5 47t116 -48t39.5 -115q0 -63 -44.5 -102t-111.5 -39t-112.5 43.5t-45.5 105zM129 1247q0 71 42 111.5t93 40.5q67 0 102 -35t35 -84q0 -118 -69 -594q-13 -90 -21 -246q-1 -20 -51 -20t-51 20q-2 102 -41 438.5t-39 368.5z" />
<glyph unicode="&#x22;" horiz-adv-x="757" d="M84 1372q0 109 133 109q131 0 131 -107q0 -17 -39 -223q-33 -173 -33 -207q0 -15 -59 -15q-61 0 -61 15q0 61 -52 309q-20 92 -20 119zM412 1372q0 109 133 109q131 0 131 -107q0 -17 -39 -223q-33 -173 -33 -207q0 -15 -59 -15q-61 0 -61 15q0 61 -52 309 q-20 92 -20 119z" />
<glyph unicode="#" horiz-adv-x="1015" d="M25 381v133h229l76 289h-195v131h230l84 315h135l-84 -315h180l84 315h135l-84 -315h178v-131h-213l-78 -289h181v-133h-215l-99 -371h-135l98 371h-180l-98 -371h-135l100 371h-194zM389 514h180l76 289h-180z" />
<glyph unicode="$" horiz-adv-x="1030" d="M98 995q0 105 89 209.5t251 124.5v137q0 16 62.5 15.5t62.5 -15.5v-137q93 -5 142.5 -17t64 -12t29.5 3q46 -131 45 -271q1 -13 -41.5 -19t-46.5 9q-24 110 -82 159t-111 60v-444q249 -76 311 -178t62 -211q0 -191 -104.5 -302t-268.5 -122v-134q0 -17 -62.5 -15 t-62.5 15v136q-151 20 -280 90q-53 148 -53 282q0 10 1 17q2 25 46.5 26t46.5 -20q8 -108 78.5 -187t160.5 -106v492q-179 65 -259.5 154t-80.5 261zM297 1045q0 -150 141 -205v405q-141 -50 -141 -200zM563 74q174 42 174 227q0 159 -174 231v-458z" />
<glyph unicode="%" horiz-adv-x="1822" d="M98 973q0 151 73 270q96 156 271 156q177 0 275 -155q74 -119 74 -271q0 -162 -78 -280q-96 -146 -271 -146q-160 0 -262 146q-82 118 -82 280zM305 975q0 -340 137 -340q142 0 142 340q0 336 -142 336q-137 0 -137 -336zM459 -20l872 1447q7 12 61 -17q48 -27 40 -40 l-875 -1452q-8 -13 -62 20q-44 29 -36 42zM1108 405q0 151 73 270q96 156 271 156q179 0 275 -155q74 -119 74 -271q0 -162 -78 -280q-96 -146 -271 -146q-160 0 -262 146q-82 118 -82 280zM1315 407q0 -340 137 -340q142 0 142 340q0 336 -142 336q-137 0 -137 -336z" />
<glyph unicode="&#x26;" horiz-adv-x="1703" d="M39 373q0 242 345 420q-163 118 -163 270q0 135 104 223q102 86 232 86q167 0 265 -122q48 -60 48 -154q0 -140 -179 -247q196 -139 360 -371q167 238 167 282q0 59 -124 59q-16 0 -16 50t16 50q84 -7 271 -7q189 0 243 7q15 0 15 -50t-15 -50q-140 0 -213 -59 q-59 -56 -123 -154q-75 -115 -159 -224q166 -247 347 -247q131 0 197 66q5 4 11 4q10 0 25 -13q16 -16 16 -28q0 -6 -4 -11q-96 -126 -261 -167q-60 -15 -121 -15q-203 0 -365 227q-225 -226 -462 -227q-246 0 -366 152q-91 115 -91 250zM258 414q0 -137 87 -229 q90 -95 235 -95q154 0 323 189q-196 296 -431 457q-214 -127 -214 -322zM432 1110q0 -101 164 -203q80 78 80 195q0 172 -126 172q-118 0 -118 -164z" />
<glyph unicode="'" horiz-adv-x="421" d="M80 1372q0 109 133 109q131 0 131 -107q0 -17 -39 -223q-33 -173 -33 -207q0 -15 -59 -15q-61 0 -61 15q0 61 -52 309q-20 92 -20 119z" />
<glyph unicode="(" horiz-adv-x="675" d="M123 588q0 259 141 553q93 198 279 364q26 25 63 25q47 0 47 -47q0 -25 -26 -55l-4 -5q-285 -286 -285 -835q0 -559 285 -838q26 -26 26 -59q0 -45 -43 -45q-34 0 -63 24q-120 112 -180 186q-240 298 -240 732z" />
<glyph unicode=")" horiz-adv-x="675" d="M27 -313q0 31 26 57q173 175 245 480q40 172 40 364q0 370 -142 640q-62 117 -143 197q-24 26 -24 60q0 45 41 45q37 0 63 -25q116 -108 172 -176q248 -302 248 -741q0 -255 -141 -553q-93 -197 -279 -365q-26 -24 -63 -24q-43 0 -43 41z" />
<glyph unicode="*" horiz-adv-x="829" d="M66 874l235 138l-235 135l55 96l235 -135v272h111v-272l235 135l55 -96l-235 -135l235 -138l-55 -96l-235 137v-274h-111v274l-235 -137z" />
<glyph unicode="+" horiz-adv-x="1064" d="M123 362v148h321v326h181v-326h319v-148h-319v-362h-181v362h-321z" />
<glyph unicode="," horiz-adv-x="520" d="M92 132q0 60 48 98t115.5 38t132.5 -61.5t65 -157.5q0 -133 -94.5 -249t-213.5 -173q-23 -11 -36 9t0 34q137 162 137 266q0 21 -33 32t-77 57.5t-44 106.5z" />
<glyph unicode="-" horiz-adv-x="827" d="M106 544.5q0 65.5 19 65.5h573q20 0 20 -65.5t-22 -65.5h-571q-19 0 -19 65.5z" />
<glyph unicode="." horiz-adv-x="520" d="M104 125q0 63 41.5 108.5t117.5 45.5t115.5 -49.5t39.5 -120.5q0 -56 -45 -95.5t-110 -39t-112 44t-47 106.5z" />
<glyph unicode="/" horiz-adv-x="716" d="M-15 33q0 3 1 6l610 1440q3 7 19 7q42 0 90 -27q26 -15 29 -28l-1 -8l-612 -1441q-4 -9 -21 -9q-40 0 -87 29q-28 17 -28 31z" />
<glyph unicode="0" d="M33 668q0 231 77 404q116 261 369 261q263 0 376 -284q69 -175 69 -406q0 -203 -70 -373q-117 -286 -377 -286q-269 0 -380 291q-64 168 -64 393zM281 680q0 -258 29 -383q51 -221 165 -221q197 0 197 495v62q0 274 -39 436q-41 174 -152 174q-158 0 -192 -354 q-8 -88 -8 -209z" />
<glyph unicode="1" d="M174 1103q-11 32 8 38q132 55 348 213q27 20 48 20q43 0 43 -53q-7 -71 -7 -160v-878q0 -127 35 -171q36 -44 127 -44q15 0 15 -38t-15 -38q-80 8 -282 8q-205 0 -285 -8q-15 0 -15 38t15 38q109 0 145 50q33 45 33 163v806q0 65 -21 57q-105 -35 -161 -63 q-20 -10 -31 22z" />
<glyph unicode="2" d="M-2 39q0 21 20 41q160 160 315 370q255 347 255 529q-5 205 -172 205q-149 0 -242 -164q-12 -22 -48 1q-27 17 -17 34q81 158 210 231q84 47 177 47q164 0 262 -110q86 -96 86 -234q0 -191 -275 -499q-59 -66 -290 -297h296q115 0 158 18q50 22 78 80q11 21 53 4 q39 -15 34 -29l-99 -235q-17 -39 -80 -39q-135 8 -246 8h-80q-161 0 -342 -8q-53 0 -53 47z" />
<glyph unicode="3" d="M59 143q0 97 122 97q45 0 92 -55l51 -60q46 -47 100 -47q101 0 154 133q34 87 34 190q0 133 -81 210q-65 63 -164 63q-59 0 -107 -17q-28 0 -28 56q0 51 22 51q154 0 241 84q68 65 68 160q0 100 -55 156q-39 40 -96 40q-91 0 -168 -83q-30 -33 -56 -72q-14 -21 -49 7 q-27 20 -16 38q95 141 182 193q78 46 174 46q133 0 224 -94q85 -87 85 -207q0 -171 -172 -272q240 -71 240 -334q0 -174 -124 -301q-144 -148 -361 -148q-144 0 -233 49q-79 43 -79 117z" />
<glyph unicode="4" d="M-7 429q0 49 52 122l289 383q188 249 238 329l94 150q15 17 44 17q85 0 85 -53q0 -9 -4 -17l-617 -815q-9 -12 -9 -22q0 -19 19 -19h357v428q0 22 112 22q115 0 115 -22v-428h123q15 0 15 -66q0 -67 -15 -67h-123v-215q0 -88 102 -88q15 0 15 -38t-15 -38q-80 8 -208 8 q-179 0 -263 -8q-15 0 -15 38t15 38q142 0 142 88v215h-461q-87 0 -87 58z" />
<glyph unicode="5" d="M55 129q0 53 35 79q31 23 79 23q62 0 106 -53q74 -86 143 -86q106 -2 179 108q61 91 62 197q0 153 -105 237q-84 68 -210 68q-65 0 -137 -20q-16 -5 -27 -5q-36 0 -32 34q43 278 96 551q10 55 69 55h502q6 0 6 -20q0 -19 -5 -55q-17 -112 -36 -112h-415q-35 0 -37 -14 q-23 -93 -32 -191q-1 -16 15 -13q41 6 72 6q232 0 358 -126q109 -109 109 -288q0 -194 -117 -337q-150 -183 -399 -183q-147 0 -224 51q-55 36 -55 94z" />
<glyph unicode="6" d="M63 475q0 255 178 502q205 282 521 408q3 1 5 1q14 0 25 -26q7 -17 7 -26q0 -10 -6 -13q-240 -132 -372 -387q-62 -120 -91 -248q59 75 156 102q32 9 63 9q162 0 265 -131q87 -111 87 -260q0 -165 -108 -284q-125 -138 -320 -138q-225 0 -335 187q-75 129 -75 304z M301 473q0 -385 197 -385q106 0 155 113q29 65 29 147q0 101 -59 198q-60 97 -154 97q-91 0 -160 -78q-8 -40 -8 -92z" />
<glyph unicode="7" d="M70 1018l51 242q8 39 18 48q11 9 37 9h682q56 0 56 -33q0 -9 -5 -21l-503 -1263q-9 -22 -92 -22q-88 0 -135 25q-5 4 -5 17l549 1121h-297q-115 0 -173 -28q-64 -32 -93 -101q-6 -17 -42 -17q-53 0 -48 23z" />
<glyph unicode="8" d="M68 334q0 179 254 327q-218 133 -218 328q0 145 110 247q105 97 263 97q182 0 284 -98q85 -83 85 -217q0 -180 -211 -302q254 -151 254 -368q0 -158 -121 -261q-123 -103 -291 -103q-171 0 -286 91q-123 97 -123 259zM295 1053q0 -136 230 -272q108 62 108 198 q0 140 -68 209q-45 45 -112 45q-89 0 -133 -79q-25 -45 -25 -101zM297 352q0 -117 62 -198q59 -78 149 -78q91 0 137 89q27 52 27 116q0 165 -245 315q-130 -75 -130 -244z" />
<glyph unicode="9" d="M55 893q0 189 110 309q120 131 318 131q207 0 319 -166q91 -135 91 -313q0 -306 -236 -571q-177 -199 -442 -324q-19 -8 -38 32q-12 25 -12 38q0 10 7 14q202 113 306 258q85 119 147 326q-48 -48 -130 -77q-44 -15 -79 -15q-166 0 -262 110q-99 114 -99 248zM285 958 q0 -104 54 -191q58 -93 142 -93q101 0 160 59q12 46 12 119q0 375 -200 375q-107 0 -149 -133q-19 -62 -19 -136z" />
<glyph unicode=":" horiz-adv-x="593" d="M186 115q0 59 39.5 103t110.5 44t109 -45.5t38 -103.5q0 -66 -42.5 -103t-105 -37t-106 41.5t-43.5 100.5zM186 705q0 59 39.5 103t111 44t109 -45.5t37.5 -103.5q0 -66 -42.5 -103t-105 -37t-106 41.5t-43.5 100.5z" />
<glyph unicode=";" horiz-adv-x="593" d="M156 708.5q0 62.5 41.5 105t110 42.5t108 -44.5t39.5 -105.5t-42.5 -102t-104.5 -41t-107 41.5t-45 104zM166 132q0 60 48 98t115.5 38t132.5 -61.5t65 -157.5q0 -137 -95 -251.5t-213 -170.5q-23 -11 -36 9t0 34q137 162 137 266q0 21 -33 32t-77 57.5t-44 106.5z" />
<glyph unicode="&#x3c;" horiz-adv-x="1024" d="M78 356v129l870 381v-184l-604 -260l604 -260v-185z" />
<glyph unicode="=" horiz-adv-x="999" d="M68 268v142h829v-142h-829zM68 575v142h829v-142h-829z" />
<glyph unicode="&#x3e;" horiz-adv-x="1024" d="M76 -23v185l604 260l-604 260v184l870 -381v-129z" />
<glyph unicode="?" horiz-adv-x="751" d="M174 1259q0 44 36 73.5t85 29.5q94 0 181.5 -60.5t152.5 -159t65 -206.5q0 -178 -102 -229l-166 -82q-72 -36 -72 -58q-2 -53 17 -127q-3 -25 -53 -25q-17 0 -21 7q-80 148 -80 228q0 36 14 69t39.5 54t63.5 40l104 53q125 64 125 113q0 58 -42.5 98t-162.5 50l-79 6 q-31 2 -68 35.5t-37 90.5zM178 123.5q0 61.5 41 108.5t117.5 47t116 -48t39.5 -115q0 -63 -44.5 -102t-111.5 -39t-112.5 43.5t-45.5 105z" />
<glyph unicode="@" horiz-adv-x="1597" d="M72 602q0 297 189 508q245 274 640 274q280 0 454 -156q171 -153 171 -380q0 -174 -115 -309q-158 -187 -436 -187q-102 0 -130 37q-14 19 -14 47q0 27 19 82l-10 6q-151 -166 -250 -166q-113 0 -113 136q0 116 79 258q86 155 205 223q69 39 138 39q62 0 92 -31l21 51 q13 32 74 15q49 -14 42 -39l-141 -478q-9 -31 -9 -61q0 -41 23 -41q162 0 273 108q123 122 123 302q0 186 -130 313q-148 145 -384 145q-252 0 -425 -173q-204 -204 -204 -521q0 -181 96 -322q155 -227 494 -227q158 0 323 72q19 7 31 -18q12 -23 -4 -33 q-177 -109 -412 -109q-240 0 -426 115q-284 174 -284 520zM629 518q0 -69 30 -69q54 0 166 131q62 71 99 192l43 148q-21 47 -84 47q-80 0 -159 -145q-95 -172 -95 -304z" />
<glyph unicode="A" horiz-adv-x="1401" d="M-41 39.5q0 46.5 14 46.5q152 0 202 131l370 968q13 30 13 38t-14.5 22t-14.5 23q0 15 33 26t103.5 53t89.5 42q33 0 44 -47.5t53 -164.5l344 -975q41 -116 202 -116q15 0 15 -46.5t-15 -46.5q-115 7 -265 7t-275 -7q-15 0 -15 46.5t15 46.5q96 0 96 65q0 21 -10 51 l-100 297q-7 22 -34 24h-373q-21 0 -32 -29l-109 -293q-9 -24 -9 -42q0 -73 147 -73q13 0 13 -46.5t-13 -46.5q-83 7 -233 7t-228 -7q-14 0 -14 46.5zM454 618q0 -11 21 -11h293q28 0 28 22q0 6 -3 15l-144 424q-5 16 -16 16q-10 0 -16 -16l-159 -434q-4 -9 -4 -16z" />
<glyph unicode="B" horiz-adv-x="1300" d="M51 1311.5q0 46.5 14 46.5q143 -6 239.5 -6t185 3t149.5 3q217 0 331 -92.5t114 -248.5q0 -87 -52 -157.5t-128 -107.5q-19 -11 -19 -18t21 -16q117 -38 195 -134.5t78 -213.5q0 -151 -113 -264t-422 -113q-46 0 -129.5 3.5t-153.5 3.5t-286 -7q-15 0 -15 46.5t15 46.5 q83 0 122.5 36.5t39.5 79.5v954q0 109 -172 109q-14 0 -14 46.5zM481 250q0 -175 150 -175q278 10 278 295q0 139 -93 220.5t-310 83.5q-25 0 -25 -34v-390zM481 797q0 -20 18 -24t53 -4q145 0 216.5 67.5t71.5 177.5q0 130 -86.5 198t-254.5 68q-18 0 -18 -18v-465z" />
<glyph unicode="C" horiz-adv-x="1349" d="M55 647q0 315 204.5 526.5t535.5 211.5q130 0 338 -43q56 -11 107 -13q33 -90 40 -326q0 -18 -46.5 -21t-47.5 13q-10 110 -65.5 177t-140 96t-191.5 29q-207 0 -334 -168t-127 -424q0 -297 140.5 -467.5t316.5 -170.5h2q341 0 438 277q7 18 51 8t44 -30q0 -45 -42 -154 q-37 -96 -61 -132q-47 -7 -88 -19q-153 -44 -358 -44q-293 0 -504.5 189.5t-211.5 484.5z" />
<glyph unicode="D" horiz-adv-x="1567" d="M51 1311.5q0 46.5 14 46.5q143 -6 239 -6t218.5 3t195.5 3q330 0 549.5 -169t219.5 -463q0 -338 -199 -535.5t-522 -197.5q-64 0 -208.5 3.5t-247.5 3.5t-235 -7q-15 0 -15 46.5t15 46.5q162 0 162 116v954q0 109 -172 109q-14 0 -14 46.5zM481 273q0 -150 87 -186 q39 -16 130 -16q218 0 367.5 170t149.5 475q0 214 -152.5 389t-426.5 175h-79q-76 0 -76 -79v-928z" />
<glyph unicode="E" horiz-adv-x="1250" d="M51 1311.5q0 46.5 14 46.5q143 -6 299 -6t371 3t337 3q57 0 57 -51v-306q0 -17 -50.5 -17t-50.5 17q0 130 -99 205q-61 47 -125 49l-296 10q-27 1 -27 -40v-509q0 -29 29 -29h135q123 0 123 91v99q0 14 52.5 14t52.5 -14q-7 -67 -7 -231t7 -227q0 -15 -52.5 -15t-52.5 15 v86q0 89 -123 89h-135q-29 0 -29 -31v-341q0 -77 75 -116q39 -20 81 -20l223 5q157 2 205 137q18 50 18 116q0 17 51 17t51 -17v-287q0 -64 -117 -64q-187 0 -360 3.5t-335.5 3.5t-297.5 -7q-15 0 -15 46.5t15 46.5q162 0 162 116v954q0 109 -172 109q-14 0 -14 46.5z" />
<glyph unicode="F" horiz-adv-x="1191" d="M51 1311.5q0 46.5 14 46.5q143 -6 288 -6t367 3t349 3q60 0 60 -51v-306q0 -17 -50.5 -17t-50.5 17q0 112 -71.5 181t-152.5 73q-215 10 -296 10q-27 0 -27 -40v-470q0 -30 29 -30h135q93 0 93 90v138q0 14 52 14t52 -14q-7 -67 -7 -275.5t7 -278.5q0 -13 -52 -13t-52 13 v144q0 89 -93 89h-135q-29 0 -29 -30v-400q0 -116 153 -116q14 0 14 -46.5t-14 -46.5q-94 7 -274 7t-285 -7q-15 0 -15 46.5t15 46.5q162 0 162 116v954q0 109 -172 109q-14 0 -14 46.5z" />
<glyph unicode="G" horiz-adv-x="1443" d="M55 647q0 266 152 463q212 275 588 275q131 0 317 -38q70 -18 128 -18q28 -59 38 -275l2 -51q0 -18 -43 -22q-48 -2 -51 14q-19 209 -211 275q-79 27 -186 27q-207 0 -334 -168t-127 -424q0 -324 171 -503q129 -135 286 -135q111 0 192 26q62 24 62 66v242q0 77 -114 77 h-79q-14 0 -14 45q0 46 14 46q60 -6 317 -6q168 0 228 6q13 0 13 -45q0 -46 -13 -46q-108 0 -108 -77v-241q0 -45 42 -45q15 0 15 -39q0 -41 -15 -41q-50 0 -196 -24q-226 -38 -358 -38h-10q-257 0 -453 153q-253 198 -253 521z" />
<glyph unicode="H" horiz-adv-x="1686" d="M60 39q0 47 15 47q162 0 162 116v952q0 116 -161 116q-14 0 -14 46q0 47 14 47q48 -5 279 -5q241 0 289 5q14 0 14 -46q0 -47 -14 -47q-163 0 -163 -116v-372q0 -35 35 -35h638q34 0 34 35v372q0 116 -160 116q-15 0 -15 46q0 47 15 47q45 -5 279 -5q241 0 288 5 q15 0 15 -46q0 -47 -15 -47q-163 0 -163 -116v-952q0 -116 159 -116q14 0 14 -46q0 -47 -14 -47q-126 7 -280 7q-152 0 -285 -7q-15 0 -15 46q0 47 15 47q162 0 162 116v417q0 34 -34 34h-638q-35 0 -35 -34v-417q0 -116 159 -116q14 0 14 -46q0 -47 -14 -47q-133 7 -279 7 q-160 0 -286 -7q-15 0 -15 46z" />
<glyph unicode="I" horiz-adv-x="734" d="M60 39q0 47 15 47q162 0 162 116v952q0 116 -161 116q-14 0 -14 46q0 47 14 47q48 -5 279 -5q241 0 289 5q14 0 14 -46q0 -47 -14 -47q-163 0 -163 -116v-952q0 -116 159 -116q14 0 14 -46q0 -47 -14 -47q-133 7 -279 7q-160 0 -286 -7q-15 0 -15 46z" />
<glyph unicode="J" horiz-adv-x="718" d="M-132 -277q0 71 65 103q33 17 76 17q74 0 128 -58q25 -27 38 -62q33 24 56 82q26 88 26 448v901q0 116 -171 116q-14 0 -14 46q0 47 14 47q48 -5 296 -5q244 0 292 5q14 0 14 -46q0 -47 -14 -47q-172 0 -172 -116v-525q0 -107 -10 -434q-1 -227 -73 -346 q-89 -148 -215 -220q-86 -48 -171 -48q-51 0 -102 33q-63 41 -63 109z" />
<glyph unicode="K" horiz-adv-x="1382" d="M51 1316q0 47 14 47q47 -5 279 -5q250 0 298 5q14 0 14 -46q0 -47 -14 -47q-161 0 -161 -116v-357q0 -27 16 -27q28 0 76 55l277 331q53 63 53 89q-9 24 -61 25q-13 0 -13 46q0 47 13 47q50 -5 197 -5q151 0 199 5q14 0 14 -46q0 -47 -14 -47q-88 0 -132 -20 q-43 -20 -82 -65l-337 -392q-16 -19 -16 -35q0 -17 15 -34l458 -533q78 -91 179 -102q22 -3 60 -3q14 0 14 -46q0 -47 -14 -47q-133 7 -306 7q-133 0 -273 -7q-14 0 -14 46q0 47 14 47q84 0 85 39q0 26 -41 77l-259 323q-63 72 -86 72q-22 0 -22 -28v-367q0 -116 155 -116 q14 0 14 -46q0 -47 -14 -47q-133 7 -275 7q-160 0 -286 -7q-15 0 -15 46q0 47 15 47q162 0 162 116v952q0 116 -172 116q-14 0 -14 46z" />
<glyph unicode="L" horiz-adv-x="1359" d="M51 1316q0 47 14 47q47 -5 288 -5q235 0 283 5q14 0 14 -46q0 -47 -14 -47q-155 0 -155 -116v-904q0 -110 67 -153q34 -19 75 -19l332 13q75 3 142 82q82 105 82 219q0 18 47 18q54 0 54 -18v-335q0 -42 -15 -52q-9 -12 -102 -12l-724 7h-84q-72 0 -280 -7q-15 0 -15 46 q0 47 15 47q162 0 162 126v942q0 116 -172 116q-14 0 -14 46z" />
<glyph unicode="M" horiz-adv-x="1815" d="M26 39q0 47 14 47q147 0 153 124l61 906v45q0 109 -174 109q-13 0 -13 46q0 47 13 47q82 -5 174 -5h97q66 0 117 -88l440 -913q10 -21 23 -21q15 0 28 23l468 917q42 82 111 82h53q104 0 164 5q15 0 15 -46q0 -47 -15 -47q-105 0 -136 -47q-21 -37 -21 -89v-9l10 -917 q2 -122 162 -122q15 0 15 -46q0 -47 -15 -47q-126 7 -280 7q-130 0 -269 -7q-15 0 -15 46q0 47 15 47q153 0 153 122l-5 669q0 21 -7 21q-9 0 -17 -18l-451 -876q-12 -23 -30 -23q-22 0 -31 23l-459 964q-10 21 -16 21q-7 0 -10 -26l-50 -757v-31q0 -89 170 -89q14 0 14 -46 q0 -47 -14 -47q-133 7 -229 7q-137 0 -199 -7q-14 -2 -14 46z" />
<glyph unicode="N" horiz-adv-x="1482" d="M38 1316q0 47 13 47q50 -5 177 -5q84 0 98 -2q59 -9 100 -57l711 -867q10 -14 24 -14q24 0 24 31v703q0 118 -153 118q-15 0 -15 46q0 47 15 47q102 -5 198 -5q100 0 193 5q14 0 14 -46q0 -47 -14 -47q-135 0 -135 -118v-1076q0 -97 -31 -97q-26 0 -74 57l-822 978 q-13 16 -20 16q-13 0 -13 -22v-806q0 -116 151 -116q15 0 15 -46q0 -48 -15 -47q-92 7 -200 7q-102 0 -214 -7q-14 -2 -14 46q0 47 14 47q159 0 159 116v954q0 114 -173 114q-13 0 -13 46z" />
<glyph unicode="O" horiz-adv-x="1524" d="M55 667q0 251 176 474q195 244 514 244q246 0 426 -155q259 -224 259 -567q0 -220 -145 -417q-202 -273 -544 -273q-225 0 -405 124q-281 194 -281 570zM328 724q0 -304 153 -495q129 -162 274 -162q265 0 358 279q44 130 44 303q0 255 -124 438q-142 210 -293 210h-2 q-152 0 -265 -130q-145 -166 -145 -443z" />
<glyph unicode="P" horiz-adv-x="1214" d="M53 1311q0 47 14 47q143 -6 288 -6l304 6q218 0 363 -100q157 -110 157 -290q0 -191 -171 -291q-139 -81 -355 -81q-90 0 -137 4q-35 2 -35 -31v-367q0 -116 168 -116q15 0 15 -46q0 -47 -15 -47q-126 7 -288 7q-148 0 -281 -7q-13 0 -13 46q0 47 13 47q157 0 157 116 v954q0 109 -170 109q-14 0 -14 46zM481 716q0 -31 31 -36q36 -4 80 -4q249 0 312 172q20 53 20 120q0 120 -82 206q-99 104 -279 104q-65 0 -77 -14q-4 -6 -5 -15v-533z" />
<glyph unicode="Q" horiz-adv-x="1489" d="M55 661q0 263 178 478q204 246 512 246q260 0 426 -155q259 -239 259 -571q0 -216 -147 -422q-70 -99 -191 -178q-23 -15 -23 -26q0 -12 23 -29q258 -170 541 -252q1 0 31 -9q21 -6 21 -34q0 -10 -3 -24q-13 -44 -36 -44h-5q-402 76 -988 300l-154 59q-32 12 -155 86 q-131 81 -210 236q-79 154 -79 339zM328 716q0 -308 154 -496q126 -155 274 -155q253 0 350 265q51 138 51 312q0 252 -120 445q-130 210 -297 210q-197 0 -313 -193q-99 -162 -99 -388z" />
<glyph unicode="R" horiz-adv-x="1420" d="M51 1311q0 47 14 47q143 -6 290 -6l298 6h6q337 0 481 -175q73 -90 73 -215q0 -251 -283 -336q-18 -4 -18 -19q0 -10 12 -28q131 -224 325 -423q95 -101 180 -116q26 -5 26 -29q0 -38 -24 -38l-91 -3q-155 1 -238 55q-142 88 -263 260l-130 187q-63 75 -79 88 q-24 21 -63 21h-67q-19 0 -19 -19v-366q0 -116 155 -116q14 0 14 -46q0 -47 -14 -47q-133 7 -275 7q-151 0 -286 -7q-15 0 -15 46q0 47 15 47q162 0 162 116v954q0 109 -172 109q-14 0 -14 46zM481 713q0 -33 25 -39q47 -9 86 -9q264 0 340 167q27 60 27 136q0 136 -118 229 q-107 81 -278 81q-62 0 -72 -9q-10 -8 -10 -33v-523z" />
<glyph unicode="S" horiz-adv-x="1077" d="M104 1033q0 142 129 258q105 94 292 94q120 0 213 -21q56 -12 62 -12l36 2h1q37 -118 49 -271q2 -26 -44 -33q-46 -6 -51 12q-30 117 -98 178t-187 61q-95 0 -154 -84q-40 -56 -40 -142q0 -181 247 -241q421 -102 421 -431q0 -181 -109 -300q-118 -130 -317 -130 q-144 0 -246 36l-144 62q-53 160 -53 313q0 24 46 26q48 3 51 -18q10 -116 90 -207q105 -118 273 -118q72 0 129 57q71 70 71 184q0 206 -270 275q-397 101 -397 450z" />
<glyph unicode="T" horiz-adv-x="1300" d="M35 1008v299q0 34 14 41q24 10 98 10q188 -6 496 -6t520 6q84 0 96 -16q8 -11 8 -35v-299q0 -16 -51 -16t-51 16q0 129 -78 193t-153 64h-128q-33 0 -33 -29v-1034q0 -116 171 -116q13 0 13 -46.5t-13 -46.5q-85 7 -292.5 7t-302.5 -7q-14 0 -14 46.5t14 46.5 q180 0 180 116v1034q0 29 -27 29h-143q-86 0 -154.5 -72.5t-68.5 -184.5q0 -16 -50.5 -16t-50.5 16z" />
<glyph unicode="U" horiz-adv-x="1512" d="M53 1316q0 47 14 47q147 -5 281 -5q146 0 294 5q14 0 14 -46q0 -47 -14 -47q-174 0 -174 -116v-468l11 -281q3 -124 55 -203q90 -135 276 -135q173 0 277 106q90 93 90 323v658q0 116 -157 116q-14 0 -14 46q0 47 14 47q138 -5 229 -5q92 0 227 5q15 0 15 -46 q0 -47 -15 -47q-154 0 -154 -116v-274q0 -276 -12 -416q-17 -245 -154 -373q-126 -118 -383 -118q-156 0 -268 42q-157 61 -219 185q-52 107 -62 345v609q0 116 -157 116q-14 0 -14 46z" />
<glyph unicode="V" horiz-adv-x="1358" d="M16 1316q0 47 15 47q45 -5 231 -5q208 0 256 5q13 0 13 -46q0 -47 -13 -47q-124 0 -124 -64q0 -22 11 -52l282 -775q9 -20 25 -20q17 0 26 23l294 764q11 30 11 53q-5 71 -99 71q-15 0 -15 46q0 47 15 47q48 -5 206 -5q166 0 214 5q14 0 14 -46q0 -47 -14 -47 q-148 0 -183 -85l-483 -1178q-21 -45 -51 -45q-34 0 -51 45l-423 1147q-41 116 -142 116q-15 0 -15 46z" />
<glyph unicode="W" horiz-adv-x="2012" d="M-8 1316q0 47 14 47q48 -5 216 -5q186 0 234 5q15 0 15 -46q0 -47 -15 -47q-69 0 -70 -45q4 -40 19 -71l351 -780q8 -17 22 -17q12 0 20 17l121 266q6 15 6 22q0 9 -6 24l-235 522q-28 62 -82 62q-14 0 -14 46q0 47 14 47q48 -5 208 -5q156 0 204 5q14 0 14 -46 q0 -47 -14 -47q-70 0 -70 -41q0 -32 20 -75l75 -163q8 -18 18 -18q13 0 24 24l69 149q26 56 26 85q0 39 -53 39q-14 0 -14 46q0 47 14 47q50 -5 176 -5q135 0 183 5q15 0 15 -46q0 -47 -15 -47q-145 0 -183 -85l-158 -347q-11 -24 -11 -40q0 -12 5 -23l181 -399 q8 -18 23 -18q12 0 19 16l352 772q21 46 21 75q-1 49 -65 49q-15 0 -15 46q0 47 15 47q45 -5 187 -5q141 0 189 5q14 0 14 -46q0 -47 -14 -47q-145 0 -183 -85l-537 -1178q-23 -45 -50 -45q-26 0 -57 63l-205 456q-8 18 -15 18q-8 0 -17 -20l-216 -472q-21 -45 -50 -45 q-28 0 -57 63l-506 1129q-51 116 -143 116q-14 0 -14 46z" />
<glyph unicode="X" horiz-adv-x="1382" d="M-46 39q0 47 13 47q151 0 222 86l365 459q13 16 13 33q0 14 -13 31l-356 499q-54 76 -177 76q-14 0 -14 46q0 47 14 47q47 -5 291 -5q242 0 290 5q14 0 14 -46q0 -47 -14 -47q-124 0 -124 -55q0 -23 27 -61l198 -275q10 -14 19 -14q12 0 23 14l216 267q34 42 34 71 q0 53 -82 53q-14 0 -14 46q0 47 14 47q47 -5 222 -5q173 0 221 5q15 0 15 -46q0 -47 -15 -47q-117 0 -210 -85q-33 -30 -84 -93l-252 -310q-17 -21 -17 -37q0 -14 11 -32l348 -511q81 -116 217 -116q15 0 15 -46q0 -47 -15 -47q-79 7 -274 7q-175 0 -270 -7q-14 0 -14 46 q0 47 14 47q108 0 108 47q0 29 -35 75l-243 319q-11 15 -23 15q-14 0 -25 -15l-171 -227q-68 -91 -68 -147q0 -67 100 -67q14 0 14 -46q0 -47 -14 -47q-78 7 -231 7q-228 0 -270 -7q-13 0 -13 46z" />
<glyph unicode="Y" horiz-adv-x="1325" d="M-28 1316q0 47 15 47q47 -5 261 -5q216 0 266 5q14 0 14 -46q0 -47 -14 -47q-110 0 -110 -53q0 -31 20 -63l254 -405q11 -17 20 -17q10 0 22 19l268 395q23 34 23 60q0 64 -105 64q-15 0 -15 46q0 47 15 47q45 -5 221 -5q185 0 233 5q14 0 14 -46q0 -47 -14 -47 q-108 0 -179 -68l-33 -35l-337 -481q-38 -56 -45 -78q-8 -28 -8 -109v-297q0 -116 148 -116q13 0 13 -46q0 -47 -13 -47q-65 7 -266 7q-200 0 -273 -7q-14 0 -14 46q0 47 14 47q147 0 147 116v292q0 68 -10 94q-8 22 -55 96l-298 470q-52 82 -101 104q-28 12 -63 12 q-15 0 -15 46z" />
<glyph unicode="Z" horiz-adv-x="1317" d="M76 49q0 26 17 48l871 1139q10 13 10 21q0 17 -40 17h-513q-44 0 -71 -27q-39 -31 -97 -172q-31 -75 -33 -101q-1 -11 -26 -12q-16 0 -32 5q-24 8 -25 21q31 235 31 332q0 48 41 48q3 0 60 -9q48 -7 61 -7h507l382 6h4q61 0 61 -32q0 -24 -25 -58l-833 -1144 q-7 -10 -7 -17q0 -21 33 -21q411 0 593 13q53 4 138 150q40 69 51 106q2 7 19 7q34 0 55 -17q7 -6 6 -15q-44 -172 -44 -311q0 -48 -16 -48h-5q-25 0 -74 8q-131 21 -581 21h-448q-70 0 -70 49z" />
<glyph unicode="[" horiz-adv-x="798" d="M295 -332v1843q0 19 20 19h439q20 0 20 -48t-20 -48h-226q-20 0 -20 -23v-1640q0 -29 14 -29h232q20 0 20 -48t-20 -48h-437q-22 0 -22 22z" />
<glyph unicode="\" horiz-adv-x="716" d="M-14 1425q-12 28 57 57q30 12 53 12q24 0 29 -13l606 -1450q10 -24 -67 -50q-27 -9 -47 -9q-19 0 -23 10z" />
<glyph unicode="]" horiz-adv-x="798" d="M27 -306q0 48 20 48h232q14 0 14 25v1644q0 23 -19 23h-227q-20 0 -20 48t20 48h436q21 0 21 -19v-1843q0 -22 -23 -22h-434q-20 0 -20 48z" />
<glyph unicode="^" horiz-adv-x="1095" d="M49 535l422 837h154l419 -837h-219l-276 577l-279 -577h-221z" />
<glyph unicode="_" horiz-adv-x="1024" d="M0 -145h1024v-121h-1024v121z" />
<glyph unicode="`" horiz-adv-x="569" d="M184 1334q0 32 58 63q42 23 74 23q24 0 28 -14l117 -292q8 -22 8 -40q0 -54 -42 -54q-35 0 -69 49l-169 249q-5 8 -5 16z" />
<glyph unicode="a" horiz-adv-x="860" d="M43 586q0 67 56 144q31 44 65 65q120 75 264 75q113 0 195 -56q65 -44 67 -107v-508q0 -114 67 -114h4q29 0 68 36q8 8 28 -9q10 -10 10 -18q0 -3 -1 -6q-58 -113 -190 -113q-92 0 -162 82q-14 19 -21 19q-13 0 -28 -17q-82 -82 -199 -82q-125 0 -177 85q-26 43 -26 100 q0 121 212 231l151 72q35 20 35 47v190q0 72 -105 72q-79 0 -116 -51q-9 -14 -10 -75q0 -35 -5 -52q-25 -88 -92 -88q-90 0 -90 78zM293 205q0 -117 72 -117q96 0 96 105v182q0 23 -14 23q-7 0 -13 -3q-141 -71 -141 -190z" />
<glyph unicode="b" horiz-adv-x="1050" d="M19 1322q0 38 16 38q50 0 186 66q68 33 88 51q13 10 29 10q26 0 29 -25l-9 -176v-446q0 -28 16 -28q9 0 19 7q73 51 168 51q176 0 295 -119q125 -125 125 -311q0 -207 -113 -336q-110 -127 -331 -127q-58 0 -130 30q-56 24 -104 24q-17 0 -55 -34l-19 -15q-4 -3 -13 -3 q-31 0 -74 33q-19 15 -19 23q6 30 6 244v882q0 125 -94 125q-16 0 -16 36zM358 297q0 -116 73 -186q56 -54 134 -54q162 0 162 371q0 158 -67 255q-59 87 -158 87q-71 0 -113 -43q-31 -31 -31 -80v-350z" />
<glyph unicode="c" horiz-adv-x="880" d="M66 387q0 170 106 307q136 176 350 176q135 0 223 -45q39 -20 54 -45q6 -16 6 -40q0 -52 -31 -85q-35 -35 -65 -35q-37 0 -56 29l-39 66q-39 59 -112 59q-81 0 -141 -93q-66 -102 -66 -245q0 -133 88 -227q79 -84 180 -84q109 0 187 55q17 12 46 -30q16 -26 16 -40 q0 -9 -7 -14l-82 -53q-116 -66 -266 -66q-140 0 -251 99q-140 123 -140 311z" />
<glyph unicode="d" horiz-adv-x="1036" d="M53 418q0 177 122 302q147 150 392 150q49 0 80 -4q27 -3 27 23v272q0 125 -92 125q-16 0 -16 36q0 38 16 38q50 0 185 67q65 32 85 50q13 10 27 10q30 0 30 -33q-6 -70 -6 -168v-1030q0 -90 10 -117q14 -40 53 -40q13 0 33 5q16 4 27 -31q3 -15 3 -24q0 -15 -7 -18 q-29 -12 -156 -35q-102 -26 -131 -31h-12q-10 0 -10 45v29q0 22 -11 22q-12 0 -28 -14q-94 -70 -195 -70q-244 0 -355 174q-71 111 -71 267zM307 444q0 -193 79 -302q59 -81 144 -81q86 0 130 52q14 17 14 28v553q0 44 -4 52q-5 10 -17 18q-47 29 -112 29q-134 0 -196 -144 q-38 -88 -38 -205z" />
<glyph unicode="e" horiz-adv-x="876" d="M68 436q0 165 107 291q122 143 286 143q178 0 283 -119q65 -89 65 -139q0 -75 -90 -75h-385q-37 0 -37 -27q0 -237 112 -334q62 -53 152 -53q81 0 166 55q20 11 49 -26q26 -35 15 -46q-48 -49 -134 -88q-88 -41 -202 -41q-135 0 -243 109q-144 144 -144 350zM309 653 q0 -26 37 -26h203q37 0 37 24q0 67 -55 112q-34 28 -68 28q-64 0 -113 -43q-41 -40 -41 -95z" />
<glyph unicode="f" horiz-adv-x="583" d="M40 30q0 38 15 38q109 0 109 68v573q0 36 -37 36h-55q-16 0 -16 36q0 38 16 38q50 0 75 42q17 29 17 71q0 146 68 279q33 65 77 110q158 166 365 166q123 0 185 -59q38 -36 38 -85q0 -55 -53 -96q-31 -24 -60 -24q-101 0 -147 89q-29 58 -78 62q-58 0 -96 -53 q-70 -96 -70 -273v-161q0 -37 37 -37h164q15 0 15 -52q0 -53 -15 -53h-164q-37 0 -37 -36v-573q0 -68 133 -68q16 0 16 -37q0 -39 -16 -39q-80 8 -239 8q-148 0 -232 -8q-15 0 -15 38z" />
<glyph unicode="g" horiz-adv-x="948" d="M20 -319q0 81 103 166q34 28 80 51q14 7 14 14q0 5 -16 12q-133 56 -133 174q0 75 145 138q16 7 16 13q0 5 -18 17q-154 97 -154 262q0 141 109 240q112 102 276 102q111 0 222 -43q65 -28 91 -30h193q16 0 16 -55q0 -60 -16 -60h-92q-31 0 -31 -29v-78q0 -169 -119 -270 q-104 -88 -276 -88q-50 0 -106 7q-12 1 -23 -7q-37 -30 -37 -57q0 -32 40 -52q33 -16 87 -16h254q129 0 192 -21q144 -47 144 -212q0 -162 -147 -280q-173 -138 -422 -138q-300 0 -372 148q-20 41 -20 92zM258 -248q0 -75 60 -130q68 -62 186 -62q251 0 298 140q9 27 9 58 q0 131 -236 131h-212q-21 0 -41 -14q-63 -46 -64 -123zM289 549q0 -121 59 -196q46 -58 113 -58q89 0 119 119q12 48 12 108q0 177 -71 242q-31 29 -75 29q-72 0 -119 -86q-38 -70 -38 -158z" />
<glyph unicode="h" horiz-adv-x="1093" d="M36 30q0 37 15 38q113 0 113 69v1024q0 125 -92 125q-16 0 -16 36q0 38 16 38q50 0 185 67q65 32 85 50q13 10 29 10q27 0 28 -27q-2 -85 -6 -174v-465q0 -23 11 -23q8 0 22 11q82 61 211 61q180 0 270 -136q56 -84 56 -177v-414q7 -75 116 -75q16 0 16 -37 q0 -39 -16 -39q-80 8 -221 8q-149 0 -229 -8q-16 0 -16 37q0 39 16 39q104 0 104 64v423q0 75 -45 139q-49 68 -123 68q-90 0 -143 -63q-29 -35 -29 -72v-484q0 -75 103 -75q15 0 15 -38t-15 -38q-84 8 -209 8q-152 0 -236 -8q-15 0 -15 38z" />
<glyph unicode="i" horiz-adv-x="524" d="M44 30q0 38 15 38q105 0 105 75v414q0 125 -92 125q-16 0 -16 36q0 38 16 38q50 0 187 68q63 31 83 48q13 11 31 11q28 0 26 -27q-6 -88 -6 -174v-539q0 -75 103 -75q15 0 15 -38q0 -37 -15 -38q-84 8 -209 8q-144 0 -228 -8q-15 0 -15 38zM113 1185q0 70 57 111 q38 28 86 28q78 0 118 -58q27 -39 27 -81q0 -70 -59 -111q-38 -26 -86 -26q-75 0 -117 58q-26 35 -26 79z" />
<glyph unicode="j" horiz-adv-x="499" d="M-193 -426q0 57 51 87q26 15 58 15q48 0 80 -52q44 -73 80 -73q46 1 56 91q5 43 5 129v786q0 125 -92 125q-15 0 -15 37t15 37q51 0 189 68q63 31 83 48q14 11 29 11q28 0 29 -27q-8 -92 -8 -174v-543q0 -186 -11 -268q-24 -175 -108 -287q-76 -103 -208 -131 q-37 -8 -72 -8q-60 0 -117 43q-44 35 -44 86zM82 1187q0 68 57 110q39 29 88 29q73 0 117 -57q29 -38 29 -82q0 -71 -59 -112q-39 -27 -87 -27q-74 0 -117 56q-28 37 -28 83z" />
<glyph unicode="k" horiz-adv-x="1073" d="M34 30q0 38 15 38q115 0 115 71v1022q-9 118 -92 125q-16 0 -16 36q0 38 16 38q50 0 185 67q65 32 85 50q13 10 29 10q27 0 28 -27q-6 -87 -6 -173v-759q0 -36 21 -36q44 0 80 38l153 170q32 36 32 54q0 30 -83 30q-16 0 -16 35q0 37 16 37q60 -6 217 -6q140 0 203 6 q15 0 15 -36t-15 -36q-105 0 -182 -71l-209 -189q-11 -10 -11 -19q0 -14 11 -26l329 -358q47 -53 125 -53q16 0 16 -37q0 -39 -16 -39q-80 8 -229 8q-150 0 -234 -8q-15 0 -15 38t15 38q74 0 75 29q0 16 -27 48l-195 224q-25 30 -59 30q-17 0 -17 -34v-222q0 -75 109 -75 q15 0 15 -38t-15 -38q-84 8 -215 8q-154 0 -238 -8q-15 0 -15 38z" />
<glyph unicode="l" horiz-adv-x="524" d="M44 30q0 38 15 38q105 0 105 67v1026q0 125 -92 125q-16 0 -16 36q0 38 16 38q50 0 185 67q65 32 85 50q13 10 27 10q30 0 30 -33q-6 -75 -6 -168v-1143q0 -75 103 -75q15 0 15 -38t-15 -38q-84 8 -209 8q-144 0 -228 -8q-15 0 -15 38z" />
<glyph unicode="m" horiz-adv-x="1630" d="M36 30q0 38 15 38q113 0 113 69v414q0 131 -92 131q-16 0 -16 36q0 38 16 38q50 0 187 68q63 31 83 48q13 11 29 11q28 0 28 -24l-6 -71q-1 -19 9 -19q9 0 18 9q81 92 219 92q141 0 215 -127q9 -16 17 -16q10 0 26 18q79 84 186 113q44 12 84 12q128 0 205 -69 q109 -96 109 -248v-413q0 -72 106 -72q16 0 16 -38t-16 -38q-80 8 -221 8q-135 0 -215 -8q-16 0 -16 38t16 38q100 0 100 67v475q0 152 -151 152q-69 0 -119 -62q-45 -56 -45 -131v-429q0 -72 104 -72q16 0 16 -38t-16 -38q-80 8 -219 8q-131 0 -215 -8q-15 0 -15 38t15 38 q101 0 101 64v433q0 134 -45 175q-26 22 -97 22q-52 0 -97 -32q-75 -58 -75 -126v-471q0 -65 99 -65q15 0 15 -38t-15 -38q-84 8 -220 8q-137 0 -221 -8q-15 0 -15 38z" />
<glyph unicode="n" horiz-adv-x="1087" d="M42 30q0 38 15 38q107 0 107 75v406q0 133 -92 133q-16 0 -16 36q0 38 16 38q50 0 187 68q63 31 83 48q13 11 27 11q29 0 30 -27l-6 -68q0 -19 9 -19t18 9q42 55 138 81q41 11 95 11q189 0 274 -185q36 -73 36 -220v-329q0 -68 106 -68q16 0 16 -38t-16 -38 q-107 8 -211 8q-105 0 -225 -8h-1q-14 0 -14 38t15 38q101 0 101 62v407q0 149 -59 200q-29 25 -96 25q-62 0 -119 -50q-67 -58 -67 -120v-449q0 -75 99 -75q15 0 15 -38t-15 -38q-84 8 -216 8q-135 0 -219 -8q-15 0 -15 38z" />
<glyph unicode="o" horiz-adv-x="1032" d="M66 424q0 170 110 296q132 150 340 150q218 0 351 -158q102 -122 102 -286q0 -209 -123 -331q-119 -118 -328 -118q-185 0 -313 122q-139 131 -139 325zM319 420q0 -185 73 -287q52 -72 124 -72q94 0 150 114q49 99 49 245q0 184 -71 292q-53 81 -126 81q-82 0 -139 -104 q-60 -109 -60 -269z" />
<glyph unicode="p" horiz-adv-x="1009" d="M17 -521q0 38 16 38q103 0 104 84v948q0 133 -92 133q-15 0 -15 37t15 37q55 0 190 70q58 30 78 46q14 11 27 11q27 0 31 -21l-4 -47q-1 -24 13 -24q12 0 28 18q28 33 84 52q30 9 68 9q150 0 241 -66q157 -114 157 -329q0 -349 -200 -452q-89 -46 -231 -46q-91 0 -128 19 q-8 4 -14 4q-18 0 -18 -27v-370q0 -86 141 -86q15 0 15 -38t-15 -38q-84 8 -252 8q-143 0 -223 -8q-16 0 -16 38zM367 178q7 -118 177 -119q88 0 144 140q37 92 37 202q0 226 -84 318q-52 51 -122 51q-85 0 -140 -84q-12 -18 -12 -70v-438z" />
<glyph unicode="q" horiz-adv-x="980" d="M66 481q0 172 115 284q108 105 286 105q153 0 244 -52q7 -4 14 -7l109 53q10 5 19 5q25 0 47 -33q24 -34 8 -48q-15 -14 -15 -172v-1015q0 -84 123 -84q16 0 16 -38t-16 -38q-80 8 -235 8q-156 0 -240 -8q-15 0 -15 38t15 38q123 0 123 86v391q-61 -17 -150 -17 q-448 0 -448 504zM299 420q0 -154 51 -260q48 -101 137 -101q120 0 159 58q18 26 18 63v463q0 23 -8 35q-67 92 -148 92q-209 0 -209 -350z" />
<glyph unicode="r" horiz-adv-x="755" d="M44 30q0 38 15 38q105 0 105 75v406q0 133 -92 133q-16 0 -16 36q0 38 16 38q51 0 190 70q60 30 80 46q13 11 29 11q24 0 28 -20l-6 -75q0 -23 13 -23t36 26q68 79 168 79q70 0 115 -44q31 -31 31 -74q0 -59 -42 -95q-27 -24 -61 -24q-51 0 -102 51q-23 23 -49 23 q-42 0 -77 -58q-32 -55 -32 -127v-379q0 -75 103 -75q15 0 15 -38t-15 -38q-84 8 -209 8q-144 0 -228 -8q-15 0 -15 38z" />
<glyph unicode="s" horiz-adv-x="749" d="M63 612q0 114 100 189q93 69 224 69q123 0 217 -36q39 -105 39 -191q0 -19 -30 -19q-32 0 -35 11q-18 51 -80 113q-41 40 -125 40q-61 0 -99 -50q-23 -31 -22 -64q0 -100 168 -142q160 -40 224 -117q50 -61 50 -157q0 -133 -111 -214q-90 -67 -229 -67h-8q-146 0 -240 60 q-28 67 -28 221q0 19 34 19q38 0 42 -17q4 -54 67 -127q65 -76 158 -76q49 0 90 42q33 34 33 75q0 120 -172 166q-177 47 -237 150q-30 52 -30 122z" />
<glyph unicode="t" horiz-adv-x="671" d="M52 781q0 38 16 38q61 0 133 59q69 57 92 126q2 6 13 6q10 0 29 -5q44 -12 50 -30v-94q0 -31 31 -31h215q15 0 15 -52q0 -53 -15 -53h-215q-31 0 -31 -31v-415q0 -121 34 -159q27 -31 87 -31q52 0 127 47q11 8 38 -24q18 -22 18 -34q0 -5 -3 -8q-108 -113 -274 -113 q-219 2 -252 183q-6 33 -6 73v481q0 31 -31 31h-55q-16 0 -16 36z" />
<glyph unicode="u" horiz-adv-x="1028" d="M28 794.5q0 36.5 15 36.5q112 0 224 18q31 5 50 5q46 0 46 -44q-7 -98 -7 -161v-342q0 -123 50 -182q28 -33 98 -33q64 0 132 55q54 44 54 93v415q0 103 -84 103q-16 0 -16 36.5t16 36.5q111 0 229 19q25 4 39 4q53 0 53 -36q-8 -95 -8 -156v-406q0 -90 10 -117 q14 -40 53 -40q13 0 33 5q16 4 27 -32q3 -14 3 -23q0 -15 -7 -18q-8 -2 -105 -21q-26 -5 -51 -10q-56 -12 -114 -31q-13 -4 -24 -4q-15 0 -15 45v47q0 23 -12 23t-27 -14q-92 -89 -246 -89q-126 0 -170 35q-147 118 -147 297v346q0 103 -84 103q-15 0 -15 36.5z" />
<glyph unicode="v" horiz-adv-x="925" d="M-3 820q0 36 15 36q63 -6 193 -6q156 0 219 6q15 0 15 -36t-15 -36q-70 0 -70 -45q0 -19 2 -26l146 -457q4 -14 13 -14q7 0 13 14l156 451q5 13 5 24q0 53 -91 53q-15 0 -15 36t15 36q60 -6 180 -6q93 0 156 6q15 0 15 -36t-15 -36q-99 0 -125 -71l-258 -674 q-26 -62 -79 -62q-51 0 -73 52l-286 684q-30 71 -101 71q-15 0 -15 36z" />
<glyph unicode="w" horiz-adv-x="1458" d="M-3 820q0 36 15 36q63 -6 193 -6q156 0 219 6q15 0 15 -36t-15 -36q-70 0 -70 -45q0 -19 6 -39l142 -444q5 -14 12 -14q8 0 14 14l123 358q4 13 4 23t-4 22l-22 54q-30 71 -88 71q-16 0 -16 36t16 36q60 -6 180 -6q159 0 219 6q16 0 16 -36t-16 -36q-69 0 -70 -46 q0 -14 7 -38l141 -444q5 -14 12 -14q9 0 14 14l156 451q5 13 5 24q0 53 -91 53q-15 0 -15 36t15 36q63 -6 180 -6q96 0 156 6q15 0 15 -36t-15 -36q-99 0 -125 -71l-258 -674q-23 -62 -76 -62q-54 0 -76 52l-178 426q-5 13 -13 13t-13 -13l-160 -416q-24 -62 -78 -62 q-49 0 -74 52l-286 684q-30 71 -101 71q-15 0 -15 36z" />
<glyph unicode="x" horiz-adv-x="950" d="M-30 30q0 38 16 38q100 0 155 67l205 250q11 12 11 27q0 11 -7 22l-221 281q-54 69 -113 69q-15 0 -15 36t15 36q63 -6 213 -6q153 0 213 6q16 0 16 -36t-16 -36q-61 0 -61 -28q0 -18 25 -54l75 -106q7 -11 18 -11q10 0 19 11l72 90q33 42 33 65q0 33 -72 33 q-16 0 -16 36t16 36q60 -6 166 -6q105 0 168 6q15 0 15 -36t-15 -36q-63 0 -120 -65l-181 -217q-10 -12 -10 -24q0 -10 10 -23l227 -301q64 -86 135 -86q16 0 16 -38t-16 -38q-80 8 -219 8q-149 0 -229 -8q-16 0 -16 38t16 38q82 0 82 24q0 11 -31 55l-105 152q-6 8 -17 8 q-9 0 -17 -10l-111 -133q-47 -56 -47 -73q0 -23 54 -23h5q16 0 16 -38t-16 -38q-80 8 -164 8q-81 0 -161 -8q-16 0 -16 38z" />
<glyph unicode="y" horiz-adv-x="884" d="M-54 820q0 36 15 36q63 -6 203 -6q148 0 211 6q15 0 15 -36t-15 -36q-80 0 -80 -47q0 -15 8 -37l152 -424q7 -20 17 -20q13 0 22 23l165 421q5 13 5 23q0 61 -121 61q-16 0 -16 36t16 36q60 -6 194 -6q114 0 174 6q16 0 16 -36t-16 -36q-92 0 -125 -59l-448 -1124 q-41 -106 -128 -141q-33 -13 -69 -13q-62 0 -101 43q-26 30 -26 68q0 61 59 91q30 15 66 15q104 0 121 39l78 182q7 18 7 35t-7 35l-270 758q-26 71 -107 71q-15 0 -15 36z" />
<glyph unicode="z" horiz-adv-x="770" d="M25 569q29 252 30 256q7 43 31 45q158 -20 211 -20h348q46 0 46 -33q0 -18 -8 -32l-359 -666q-4 -7 -4 -15q0 -24 28 -24h109q132 0 225 205q5 11 27 11q9 0 26 -4q31 -9 31 -28l-24 -188q-3 -34 -3 -60q0 -41 -39 -41q-11 0 -95 15q-53 10 -93 10h-443q-41 0 -41 37 q0 13 9 31l356 659q9 17 9 27q0 20 -29 20h-111q-63 0 -124 -128l-46 -103q-4 -9 -18 -9q-19 0 -36 12q-13 9 -13 23z" />
<glyph unicode="{" horiz-adv-x="784" d="M81 616q0 31 15 31q117 0 144 78q10 29 10 72v325q0 219 81 297q61 60 206 70q54 4 176 4q15 0 15 -38t-13 -38q-133 0 -185 -37q-69 -48 -69 -196v-234q0 -144 -17 -201q-25 -84 -110 -133q91 -56 114 -153q13 -56 13 -158v-266q0 -163 42 -221q44 -61 210 -61 q17 0 17 -38t-15 -38q-176 0 -239 10q-139 24 -190 124q-36 72 -36 191v424q0 115 -76 144q-31 12 -78 12q-15 0 -15 30z" />
<glyph unicode="|" horiz-adv-x="536" d="M197 -334v1768h194v-1768h-194z" />
<glyph unicode="}" horiz-adv-x="784" d="M64 -281q0 38 16 38q136 0 185 35q67 50 67 247v266q0 147 33 213q29 59 96 98q-91 53 -114 149q-13 54 -13 185v234q0 152 -75 200q-52 33 -179 33q-16 0 -16 38t16 38q194 0 267 -17q116 -26 157 -116q39 -88 39 -238v-325q0 -112 77 -139q31 -11 76 -11q17 0 17 -30 q0 -31 -15 -31q-113 0 -141 -75q-12 -32 -12 -81v-424q0 -203 -120 -279q-73 -46 -345 -46q-16 0 -16 38z" />
<glyph unicode="~" horiz-adv-x="743" d="M3 411q1 3 3 5l63 72q83 85 191 85q52 0 148 -45q86 -41 122 -44q6 -1 11 -1q46 0 95 42q35 30 44 36l11 2q23 -2 40 -24l7 -12l-2 -8l-1 -1l-77 -87q-84 -85 -177 -85q-52 0 -145 44q-89 42 -129 47q-10 1 -19 1q-46 0 -112 -56l-16 -14l-1 -1q-4 -4 -11 -4l-14 3 q-23 11 -30 33z" />
<glyph unicode="&#xa1;" horiz-adv-x="520" d="M118 726q0 62 45 101t112 39t112 -43t45 -105t-41 -109t-117 -47t-116 48.5t-40 115.5zM136 -438q0 118 68 594q14 90 22 246q0 20 50 20t52 -20q2 -102 41 -439t39 -369q0 -70 -42 -111t-94 -41q-66 0 -101 35.5t-35 84.5z" />
<glyph unicode="&#xa2;" horiz-adv-x="880" d="M66 633q0 172 104 309q122 160 309 176l35 193q1 7 20 7q25 0 58 -9q33 -10 33 -19l-31 -174q143 -10 205 -86q6 -17 6 -40q0 -55 -31 -85q-35 -35 -57 -35q-42 0 -64 29q-6 8 -38 67q-10 18 -40 38l-110 -625q47 -21 78 -21q128 0 207 64q21 13 46 -28q26 -45 9 -56 l-82 -53q-116 -66 -266 -66h-21l-33 -190q-1 -8 -22 -8q-14 0 -35 3q-54 8 -52 21l34 199q-131 49 -203 171q-59 99 -59 218zM295 682q0 -120 72 -215l96 551q-77 -25 -126 -130q-42 -91 -42 -206z" />
<glyph unicode="&#xa3;" horiz-adv-x="1263" d="M68 113q0 74 69 117q57 36 144 36q87 -4 206 -45q14 53 15 125q0 128 -60 295h-239q-16 0 -16 48q0 50 16 50h203q-50 122 -50 254q0 159 123 268q120 109 301 109q65 0 173 -34q154 -48 155 -107q0 -86 -17 -188q-11 -66 -47 -66q-44 0 -73 115q-13 48 -13 49 q-47 159 -188 159q-201 0 -201 -219q0 -88 84 -340h289q16 0 16 -48q0 -50 -16 -50h-268q14 -75 14 -152q0 -162 -74 -307q117 -41 240 -41q115 0 219 70q63 43 78 43q38 0 38 -30q0 -14 -9 -36q-54 -135 -168 -194q-67 -35 -146 -35q-135 0 -315 129q-117 -129 -283 -129 q-117 0 -172 73q-28 37 -28 81zM160 115q0 -45 47 -68q26 -12 61 -12q121 0 189 110q-89 50 -174 50q-82 0 -113 -47q-10 -16 -10 -33z" />
<glyph unicode="&#xa4;" horiz-adv-x="1024" d="M80 668q0 145 88 260l-80 80l-1 7q4 21 44 57q25 21 36 22q3 0 5 -2l80 -80q118 90 260 90q144 0 262 -88l78 78l7 1q21 -4 57 -44l17 -24l5 -14l-2 -3l-78 -78q88 -118 88 -262q0 -145 -88 -262l78 -78l1 -7q-4 -22 -44 -57l-24 -18l-13 -4q-2 0 -4 2l-78 78 q-118 -89 -260 -89q-145 0 -262 91l-80 -80l-7 -2q-21 4 -57 45q-21 24 -22 36q0 3 2 5l80 80q-88 114 -88 260zM201 668q0 -129 91 -221q91 -91 220 -91q131 0 222 92q91 91 91 220q0 130 -92 221q-91 90 -221 90q-129 0 -221 -92l-28 -32q-62 -83 -62 -187z" />
<glyph unicode="&#xa5;" horiz-adv-x="1421" d="M-30 1411l3 32q5 19 13 19q60 -6 280 -6q222 0 285 6q15 0 15 -50l-3 -33q-5 -17 -12 -17q-112 0 -118 -58l2 -22l11 -29q4 -8 9 -16l272 -434q11 -17 22 -17t23 19l287 424q25 37 25 65q0 12 -4 23q-20 45 -109 45q-15 0 -16 49l3 32q5 19 13 19q60 -6 237 -6 q190 0 250 6q15 0 16 -49l-3 -32l-6 -15q-3 -4 -7 -4q-115 0 -190 -71q-39 -37 -116 -149l-19 -28l-105 -151h182q15 0 16 -70l-4 -46l-6 -21q-2 -5 -6 -5h-280l-60 -86q-37 -54 -47 -80h387q15 0 16 -68l-3 -47l-7 -21q-2 -5 -6 -5h-397v-297q0 -86 59 -110q35 -15 99 -15 q15 0 15 -50t-15 -50q-84 8 -285 8q-209 0 -293 -8q-15 0 -15 50t15 50q103 0 133 33q25 27 25 92v297h-375q-15 0 -15 70q0 49 9 66q3 5 6 5h352q-17 33 -47 78l-55 88h-250q-15 0 -15 71t15 71h160l-174 274q-55 87 -107 111q-31 14 -69 14q-15 0 -16 49z" />
<glyph unicode="&#xa6;" horiz-adv-x="536" d="M197 109v579h194v-579h-194zM197 795v577h194v-577h-194z" />
<glyph unicode="&#xa7;" d="M57 528q0 123 98 221q37 36 83 62q-105 107 -105 227q0 147 113 246q111 96 264 96q84 0 172 -37q135 -59 143 -131q0 -45 -46 -83q-33 -27 -68 -27q-28 0 -58 50l-43 71q-44 73 -125 73q-76 0 -126 -65q-37 -49 -37 -109q0 -88 118 -170q30 -20 166 -96 q157 -87 224 -161q85 -95 85 -214q0 -172 -178 -270q127 -123 127 -248q0 -150 -117 -255q-122 -111 -292 -111q-83 0 -197 42q-176 64 -176 158q0 42 56 83q39 28 69 28q31 0 70 -59l57 -84q57 -84 137 -84q91 0 147 77q41 57 41 131q0 91 -122 178q-51 34 -188 112 q-159 91 -223 168q-69 83 -69 181zM242 598q0 -80 161 -176q134 -76 261 -160q63 58 63 164q0 96 -215 211q-93 51 -197 121q-73 -67 -73 -160z" />
<glyph unicode="&#xa8;" horiz-adv-x="778" d="M47 1169q0 74 57 111q32 20 72 20q68 0 104 -54q21 -32 21 -67q0 -79 -60 -114q-29 -17 -65 -17q-84 0 -116 63q-12 25 -13 58zM477 1169q0 74 57 111q32 20 72 20q67 0 104 -54q21 -31 21 -67q0 -79 -60 -114q-29 -17 -65 -17q-84 0 -116 63q-12 25 -13 58z" />
<glyph unicode="&#xa9;" horiz-adv-x="1611" d="M90 748q0 243 148 437q137 178 350 248q108 35 223 35q243 0 437 -148q179 -137 249 -349q35 -108 35 -223q0 -244 -148 -438q-59 -76 -134 -134q-194 -149 -439 -149q-244 0 -437 148q-179 137 -249 350q-35 108 -35 223zM193 748q0 -218 136 -388q128 -159 324 -211 q77 -20 158 -20q218 0 388 137q159 128 211 324q20 77 20 158q0 218 -137 388q-128 158 -324 210q-77 20 -158 20q-219 0 -388 -137q-52 -41 -93 -93q-137 -169 -137 -388zM430 724v13q0 170 109 282q111 114 286 114q66 0 192 -26l5 -1q10 -2 43 -2q17 -37 22 -162v-14 q0 -11 -28 -12l-18 3q-4 2 -5 5q-15 154 -197 161h-16q-126 0 -195 -113q-53 -86 -53 -204q0 -195 114 -290q63 -52 132 -52q186 0 236 149q2 6 13 6q23 0 35 -13l3 -7q-3 -37 -34 -109l-18 -38l-3 -4q-32 -7 -47 -11q-90 -24 -191 -24q-163 0 -274 104q-106 100 -111 245z " />
<glyph unicode="&#xaa;" horiz-adv-x="532" d="M27 1182q0 50 43 101q15 19 32 30q74 45 164 45q80 0 131 -43q31 -26 31 -58v-315q0 -54 28 -67l15 -3q19 1 43 23l6 1q11 -3 17 -15v-7q-41 -69 -117 -69q-61 0 -101 49q-10 12 -14 13l-9 -4l-7 -7q-55 -51 -123 -51q-90 0 -118 66q-9 22 -9 49q0 75 138 146l87 42 q21 10 21 29v118q-6 40 -64 43q-51 0 -71 -30q-7 -9 -8 -54q-1 -17 -3 -26q-14 -53 -57 -53q-52 5 -55 47zM182 946q0 -72 43 -72t56 39q4 12 4 25v113q0 14 -8 16l-9 -2q-86 -46 -86 -119z" />
<glyph unicode="&#xab;" horiz-adv-x="867" d="M75 436.5q0 18.5 17 37.5l317 359q12 14 32 -3t14 -28l-167 -334q-8 -18 -8 -29.5t6 -23.5l169 -348q7 -15 -14 -29.5t-32 -1.5l-317 363q-17 19 -17 37.5zM430 436.5q0 18.5 17 37.5l317 359q12 14 32 -3t14 -28l-166 -334q-10 -18 -10 -29.5t6 -23.5l170 -348 q7 -15 -14 -29.5t-32 -1.5l-317 363q-17 19 -17 37.5z" />
<glyph unicode="&#xac;" horiz-adv-x="1366" d="M0 483v174h1366v-657h-186v483h-1180z" />
<glyph unicode="&#xad;" horiz-adv-x="827" d="M106 544.5q0 65.5 19 65.5h573q20 0 20 -65.5t-22 -65.5h-571q-19 0 -19 65.5z" />
<glyph unicode="&#xae;" horiz-adv-x="1611" d="M90 748q0 243 148 437q137 178 350 248q108 35 223 35q243 0 437 -148q179 -137 249 -349q35 -108 35 -223q0 -244 -148 -438q-59 -76 -134 -134q-194 -149 -439 -149q-244 0 -437 148q-179 137 -249 350q-35 108 -35 223zM193 748q0 -218 136 -388q128 -159 324 -211 q77 -20 158 -20q218 0 388 137q159 128 211 324q20 77 20 158q0 218 -137 388q-128 158 -324 210q-77 20 -158 20q-219 0 -388 -137q-52 -41 -93 -93q-137 -169 -137 -388zM468 1103q0 25 7 25q130 -4 156 -4q22 0 83 3q56 3 79 3q179 0 254 -86q45 -51 45 -122 q0 -120 -152 -181q-12 -5 -10 -11l3 -11q18 -67 177 -230q55 -57 96 -63q15 -2 15 -18q0 -18 -15 -18h-63q-60 0 -111 28q-74 42 -153 157q-17 25 -58 82q-42 58 -68 58h-8q-3 0 -32 2q-15 1 -15 -12v-195q0 -50 42 -58q16 -3 40 -3q10 0 10 -27q0 -25 -7 -25q-33 4 -148 4 t-154 -4q-9 0 -9 25q0 24 7 24q88 0 88 64v510q0 53 -65 58q-12 1 -27 1q-7 0 -7 24zM698 784q0 -19 13 -20q24 -6 47 -6q171 0 193 127q3 17 3 37q0 73 -62 121q-56 44 -149 44q-37 0 -42 -7q-3 -8 -3 -12v-284z" />
<glyph unicode="&#xaf;" horiz-adv-x="608" d="M55 1186q0 54 23 54h450q27 0 27 -52q0 -60 -31 -60h-446q-23 0 -23 58z" />
<glyph unicode="&#xb0;" horiz-adv-x="712" d="M82 1047q0 126 94 202q76 62 180 62q122 0 202 -81q73 -74 73 -183q0 -137 -102 -212q-73 -53 -173 -53q-127 0 -205 82q-69 72 -69 183zM227 1047q0 -97 63 -140q30 -20 66 -20q69 0 105 62q24 41 24 98q0 97 -63 139q-30 20 -66 20q-67 0 -104 -61q-25 -41 -25 -98z " />
<glyph unicode="&#xb1;" horiz-adv-x="1064" d="M143 -6v147h781v-147h-781zM143 629v147h301v305h181v-305h299v-147h-299v-342h-181v342h-301z" />
<glyph unicode="&#xb2;" horiz-adv-x="626" d="M26 544q0 13 12 26q99 99 195 229q159 215 159 328q-4 127 -107 127q-92 0 -150 -102q-8 -13 -30 1q-17 11 -10 21q50 98 130 143q52 29 110 29q101 0 162 -68q53 -59 53 -145q0 -118 -170 -309q-37 -41 -180 -184h184q71 0 97 11q31 13 49 49q7 13 33 3q24 -9 21 -18 l-62 -146q-10 -24 -49 -24q-84 5 -153 5h-49q-100 0 -212 -5q-33 0 -33 29z" />
<glyph unicode="&#xb3;" d="M37 609q0 60 75 60q28 0 57 -34l32 -37q28 -30 62 -30q63 0 95 83q21 54 21 118q0 82 -50 130q-40 39 -101 39q-37 0 -67 -11q-17 0 -17 35q0 32 13 32q96 0 150 52q42 40 42 99q0 62 -34 97q-24 24 -60 24q-56 0 -104 -51q-18 -20 -34 -45q-9 -13 -31 5q-17 12 -10 23 q59 88 113 120q48 28 108 28q82 0 139 -58q53 -54 53 -128q0 -106 -107 -169q149 -44 149 -207q0 -108 -77 -186q-89 -92 -224 -92q-89 0 -144 30q-49 27 -49 73z" />
<glyph unicode="&#xb4;" horiz-adv-x="569" d="M144 1073q0 21 8 41l120 302q7 17 28 17q32 0 95 -43q38 -26 38 -47q0 -6 -3 -11l-176 -263q-32 -49 -68 -49q-42 0 -42 53z" />
<glyph unicode="&#xb5;" horiz-adv-x="1073" d="M28 794l3 24q4 13 12 13q99 0 224 18q31 5 50 5q45 0 46 -44q0 -7 -1 -15q-6 -78 -6 -146v-342q0 -100 45 -163q37 -52 97 -52q96 0 162 59q47 42 47 89v415q0 81 -58 99l-25 4h-1q-15 0 -16 36l4 24q4 13 12 13q111 0 229 19q25 4 39 4q47 0 53 -36v-30q-8 -86 -8 -126 v-406q0 -90 10 -117q14 -40 53 -40q13 0 33 5l8 -1q16 -9 21 -45v-20q-2 -6 -6 -7q-16 -7 -129 -29l-27 -6q-102 -26 -131 -31h-12q-11 4 -11 45v47q0 22 -11 23l-13 -4q-6 -3 -14 -10q-83 -75 -199 -86q-26 -3 -55 -3q-55 0 -113 23q-6 -75 -6 -76l8 -285v-1q0 -59 -51 -99 q-40 -31 -90 -31q-75 0 -109 61q-14 26 -14 54q0 36 24 240q8 71 11 112q14 192 14 304v20v356q0 93 -66 102q-8 1 -18 1q-15 0 -15 36z" />
<glyph unicode="&#xb6;" horiz-adv-x="1118" d="M16 964q0 180 129.5 287t317.5 107q85 0 185.5 -3t242.5 -3t190 6q16 0 16 -38t-16 -38q-118 0 -118 -74v-1063q0 -77 118 -77q16 0 16 -38t-16 -38q-80 8 -194 8h-307q-129 0 -209 -8q-16 0 -16 38t16 38q116 0 116 75v414q0 22 -24 22q-212 0 -329.5 109.5 t-117.5 275.5zM653 145q0 -77 70 -77q74 0 74 75v1065q0 74 -66 74q-78 0 -78 -74v-1063z" />
<glyph unicode="&#xb7;" horiz-adv-x="593" d="M176 522q0 56 40 100q45 50 126 50q93 0 134 -85q16 -34 16 -75q0 -78 -63 -121q-39 -26 -87 -26q-72 0 -121 45q-45 42 -45 112z" />
<glyph unicode="&#xb8;" horiz-adv-x="778" d="M201 -424q0 42 36 61q13 7 29 7q31 0 75 -39q43 -37 65 -37q53 0 53 51q0 77 -142 142q-20 9 -20 17q0 5 6 13l141 209h109l-78 -106q-9 -12 -9 -18q0 -10 28 -26q124 -66 124 -174q0 -86 -88 -142q-74 -48 -172 -48q-124 0 -151 61q-6 13 -6 29z" />
<glyph unicode="&#xb9;" horiz-adv-x="667" d="M102 1247q0 12 7 15q192 63 284 112q6 4 17 4q9 0 10 -12v-6q-2 -18 -2 -107v-555q0 -79 19 -98q18 -18 79 -18q9 0 9 -30l-3 -24q-3 -6 -6 -6q-40 4 -194 4q-157 0 -197 -4q-9 0 -9 30t9 30q72 0 93 25q20 24 20 91v510q0 28 -20 29l-21 -4q-52 -18 -74 -23l-7 2 q-14 12 -14 35z" />
<glyph unicode="&#xba;" horiz-adv-x="624" d="M41 1081q0 118 83 200q78 77 189 77q123 0 203 -89q70 -78 70 -186q0 -145 -92 -220q-70 -58 -181 -58q-119 0 -199 88q-73 80 -73 188zM182 1079q0 -117 56 -182q33 -39 75 -39q63 0 100 79q29 60 29 142q0 121 -54 190q-34 42 -75 42q-55 0 -94 -73l-18 -40 q-19 -55 -19 -119z" />
<glyph unicode="&#xbb;" horiz-adv-x="867" d="M75 67l167 334q8 18 8 29.5t-6 23.5l-169 348q-7 15 14 29.5t32 1.5l317 -363q17 -19 17 -37.5t-17 -37.5l-317 -359q-12 -14 -32 3t-14 28zM430 67l166 334q10 18 10 29.5t-6 23.5l-170 348q-7 15 14 29.5t32 1.5l317 -363q17 -19 17 -37.5t-17 -37.5l-317 -359 q-12 -14 -32 3t-14 28z" />
<glyph unicode="&#xbc;" horiz-adv-x="1509" d="M129 1209q-7 20 5 23q82 35 216 132q16 13 29 13q27 0 27 -33q-4 -44 -4 -99v-545q0 -78 22 -105.5t78 -27.5q9 0 9 -23.5t-9 -23.5q-49 5 -175.5 5t-175.5 -5q-10 0 -10 23.5t10 23.5q67 0 88.5 29.5t21.5 102.5v500q0 40 -13 35q-65 -21 -100 -39q-12 -6 -19 14zM463 0 l455 1300h126l-454 -1300h-127zM890 266q0 30 32 76l179 237q117 154 148 204l58 93q9 11 27 11q53 0 53 -33q0 -6 -3 -11l-382 -505q-6 -8 -6 -14q0 -12 12 -12h221v266q0 13 70.5 13t70.5 -13v-266h76q10 0 10 -41t-10 -41h-76v-133q0 -55 63 -55q10 0 10 -23.5t-10 -23.5 q-49 5 -144.5 5t-147.5 -5q-9 0 -9 23.5t9 23.5q88 0 88 55v133h-285q-54 0 -54 36z" />
<glyph unicode="&#xbd;" horiz-adv-x="1509" d="M129 1209q-7 20 5 23q82 35 216 132q16 13 29 13q27 0 27 -33q-4 -44 -4 -99v-545q0 -78 22 -105.5t78 -27.5q9 0 9 -23.5t-9 -23.5q-49 5 -175.5 5t-175.5 -5q-10 0 -10 23.5t10 23.5q67 0 88.5 29.5t21.5 102.5v500q0 40 -13 35q-65 -21 -100 -39q-12 -6 -19 14zM463 0 l455 1300h126l-454 -1300h-127zM896 24q0 13 12 26q99 99 195 229q159 215 159 328q-4 127 -107 127q-92 0 -150 -102q-8 -13 -30 1q-17 11 -10 21q50 98 130 143q52 29 110 29q101 0 162 -68q53 -59 53 -145q0 -118 -170 -309q-37 -41 -180 -184h184q71 0 97 11 q31 13 49 49q7 13 33 3q24 -9 21 -18l-62 -146q-10 -24 -49 -24q-84 5 -153 5h-49q-100 0 -212 -5q-33 0 -33 29z" />
<glyph unicode="&#xbe;" horiz-adv-x="1509" d="M37 614q0 60 75 60q28 0 57 -34l32 -38q28 -29 62 -29q63 0 95 83q21 54 21 118q0 82 -50 130q-40 39 -101 39q-37 0 -67 -11q-17 0 -17 35q0 32 13 32q96 0 150 52q42 40 42 99q0 62 -34 97q-24 24 -60 24q-56 0 -104 -51q-18 -20 -34 -45q-9 -13 -31 5q-17 12 -10 23 q59 88 113 120q48 28 108 28q82 0 139 -58q53 -54 53 -128q0 -106 -107 -169q149 -44 149 -207q0 -108 -77 -187q-89 -91 -224 -91q-89 0 -144 30q-49 27 -49 73zM463 0l455 1300h126l-454 -1300h-127zM890 266q0 30 32 76l179 237q117 154 148 204l58 93q9 11 27 11 q53 0 53 -33q0 -6 -3 -11l-382 -505q-6 -8 -6 -14q0 -12 12 -12h221v266q0 13 70.5 13t70.5 -13v-266h76q10 0 10 -41t-10 -41h-76v-133q0 -55 63 -55q10 0 10 -23.5t-10 -23.5q-49 5 -144.5 5t-147.5 -5q-9 0 -9 23.5t9 23.5q88 0 88 55v133h-285q-54 0 -54 36z" />
<glyph unicode="&#xbf;" horiz-adv-x="751" d="M174 -112q0 178 102 230l166 82q72 36 72 58q2 52 -18 126q4 26 54 26q16 0 20 -8q80 -148 80 -227q0 -37 -14 -70t-39 -54t-63 -39l-104 -54q-126 -64 -126 -112q0 -58 43 -98t163 -50l78 -6q32 -2 69 -36t37 -90q0 -44 -36 -74t-86 -30q-94 0 -181 61t-152 159t-65 206 zM376 709q0 62 44.5 101.5t111 39.5t112.5 -44t46 -105t-41 -108t-117.5 -47t-116 48t-39.5 115z" />
<glyph unicode="&#xc0;" horiz-adv-x="1401" d="M-41 39.5q0 46.5 14 46.5q152 0 202 131l370 968q13 30 13 38t-14.5 22t-14.5 23q0 15 33 26t103.5 53t89.5 42q33 0 44 -47.5t53 -164.5l344 -975q41 -116 202 -116q15 0 15 -46.5t-15 -46.5q-115 7 -265 7t-275 -7q-15 0 -15 46.5t15 46.5q96 0 96 65q0 21 -10 51 l-100 297q-7 22 -34 24h-373q-21 0 -32 -29l-109 -293q-9 -24 -9 -42q0 -73 147 -73q13 0 13 -46.5t-13 -46.5q-83 7 -233 7t-228 -7q-14 0 -14 46.5zM325 1758q0 13 6 33q14 44 50 81q25 25 43 25q9 0 16 -5l379 -298q18 -15 18 -31q0 -11 -8 -22q-12 -17 -31 -17 q-11 0 -25 7l-438 200q-10 9 -10 27zM454 618q0 -11 21 -11h293q28 0 28 22q0 6 -3 15l-144 424q-5 16 -16 16q-10 0 -16 -16l-159 -434q-4 -9 -4 -16z" />
<glyph unicode="&#xc1;" horiz-adv-x="1401" d="M-41 39.5q0 46.5 14 46.5q152 0 202 131l370 968q13 30 13 38t-14.5 22t-14.5 23q0 15 33 26t103.5 53t89.5 42q33 0 44 -47.5t53 -164.5l344 -975q41 -116 202 -116q15 0 15 -46.5t-15 -46.5q-115 7 -265 7t-275 -7q-15 0 -15 46.5t15 46.5q96 0 96 65q0 21 -10 51 l-100 297q-7 22 -34 24h-373q-21 0 -32 -29l-109 -293q-9 -24 -9 -42q0 -73 147 -73q13 0 13 -46.5t-13 -46.5q-83 7 -233 7t-228 -7q-14 0 -14 46.5zM454 618q0 -11 21 -11h293q28 0 28 22q0 6 -3 15l-144 424q-5 16 -16 16q-10 0 -16 -16l-159 -434q-4 -9 -4 -16z M538 1563q0 16 18 31l379 298q7 5 16 5q18 0 43 -25q37 -37 50 -81q6 -20 6 -33q0 -18 -10 -27l-438 -200q-14 -7 -25 -7q-19 0 -31 17q-8 11 -8 22z" />
<glyph unicode="&#xc2;" horiz-adv-x="1401" d="M-41 39.5q0 46.5 14 46.5q152 0 202 131l370 968q13 30 13 38t-14.5 22t-14.5 23q0 15 33 26t103.5 53t89.5 42q33 0 44 -47.5t53 -164.5l344 -975q41 -116 202 -116q15 0 15 -46.5t-15 -46.5q-115 7 -265 7t-275 -7q-15 0 -15 46.5t15 46.5q96 0 96 65q0 21 -10 51 l-100 297q-7 22 -34 24h-373q-21 0 -32 -29l-109 -293q-9 -24 -9 -42q0 -73 147 -73q13 0 13 -46.5t-13 -46.5q-83 7 -233 7t-228 -7q-14 0 -14 46.5zM357 1566q0 5 4 8l283 251q26 23 50.5 23t48.5 -23l283 -251q4 -4 4 -10q0 -8 -8 -21q-11 -19 -20 -19q-1 0 -3 1 l-267 124q-19 8 -38 8t-37 -8l-266 -124l-2 -1q-12 4 -22 20q-10 14 -10 22zM454 618q0 -11 21 -11h293q28 0 28 22q0 6 -3 15l-144 424q-5 16 -16 16q-10 0 -16 -16l-159 -434q-4 -9 -4 -16z" />
<glyph unicode="&#xc3;" horiz-adv-x="1401" d="M-41 39.5q0 46.5 14 46.5q152 0 202 131l370 968q13 30 13 38t-14.5 22t-14.5 23q0 15 33 26t103.5 53t89.5 42q33 0 44 -47.5t53 -164.5l344 -975q41 -116 202 -116q15 0 15 -46.5t-15 -46.5q-115 7 -265 7t-275 -7q-15 0 -15 46.5t15 46.5q96 0 96 65q0 21 -10 51 l-100 297q-7 22 -34 24h-373q-21 0 -32 -29l-109 -293q-9 -24 -9 -42q0 -73 147 -73q13 0 13 -46.5t-13 -46.5q-83 7 -233 7t-228 -7q-14 0 -14 46.5zM389 1588q0 3 2 5q106 160 218 160q50 0 133 -33q75 -27 110 -27q64 0 122 62q2 3 6 3q8 0 24 -13q18 -16 18 -27 q0 -3 -2 -6q-110 -164 -219 -164q-41 0 -127 31q-94 33 -127 33q-63 0 -112 -59q-3 -3 -8 -3q-9 0 -23 14q-15 15 -15 24zM454 618q0 -11 21 -11h293q28 0 28 22q0 6 -3 15l-144 424q-5 16 -16 16q-10 0 -16 -16l-159 -434q-4 -9 -4 -16z" />
<glyph unicode="&#xc4;" horiz-adv-x="1401" d="M-41 39.5q0 46.5 14 46.5q152 0 202 131l370 968q13 30 13 38t-14.5 22t-14.5 23q0 15 33 26t103.5 53t89.5 42q33 0 44 -47.5t53 -164.5l344 -975q41 -116 202 -116q15 0 15 -46.5t-15 -46.5q-115 7 -265 7t-275 -7q-15 0 -15 46.5t15 46.5q96 0 96 65q0 21 -10 51 l-100 297q-7 22 -34 24h-373q-21 0 -32 -29l-109 -293q-9 -24 -9 -42q0 -73 147 -73q13 0 13 -46.5t-13 -46.5q-83 7 -233 7t-228 -7q-14 0 -14 46.5zM347 1672q0 74 57 110q32 20 72 20q68 0 104 -54q21 -32 21 -66q0 -80 -60 -114q-29 -18 -65 -18q-84 0 -116 64 q-12 24 -13 58zM454 618q0 -11 21 -11h293q28 0 28 22q0 6 -3 15l-144 424q-5 16 -16 16q-10 0 -16 -16l-159 -434q-4 -9 -4 -16zM777 1672q0 74 57 110q32 20 72 20q67 0 104 -54q21 -30 21 -66q0 -80 -60 -114q-29 -18 -65 -18q-84 0 -116 64q-12 24 -13 58z" />
<glyph unicode="&#xc5;" horiz-adv-x="1401" d="M-41 39q0 22 4 36q4 11 10 11q152 0 202 131l425 1117q-89 31 -125 115q-16 39 -16 81q0 92 70 154q64 55 158 55q120 0 186 -84l20 -30l15 -36q9 -29 9 -59q0 -95 -73 -157q-21 -18 -46 -30l4 -14q8 -35 50 -152l344 -975q22 -63 106 -96q48 -20 96 -20q15 0 15 -46 q0 -21 -5 -35q-4 -12 -10 -12q-133 7 -266 7q-141 0 -274 -7q-15 0 -15 46q0 21 5 35q4 12 10 12q95 0 96 65q0 22 -10 51l-100 297q-9 24 -34 24h-373q-18 0 -29 -21q-2 -4 -3 -8l-109 -293q-9 -24 -9 -42q0 -14 4 -25q26 -47 143 -48q13 0 13 -46q1 -23 -4 -37 q-4 -10 -9 -10q-140 7 -233 7q-88 0 -228 -7q-14 0 -14 46zM454 624l3 -10q6 -7 24 -7h287q28 0 28 22q0 7 -3 15l-144 424q-5 16 -15 16t-17 -16l-158 -426q-5 -11 -5 -18zM587 1530q0 -79 48 -114q23 -16 52 -16q64 0 90 66q12 29 12 64q0 82 -52 118q-22 14 -50 16 q-64 -4 -89 -71q-11 -28 -11 -63z" />
<glyph unicode="&#xc6;" horiz-adv-x="1848" d="M-127 39q0 47 14 47q91 0 140 45q29 27 61 81l571 967q18 29 18 47q0 39 -83 39q-14 0 -14 46q0 47 14 47q142 -6 378 -6l614 6q72 1 85 -4q16 -7 17 -41v-303q0 -16 -48 -16q-53 0 -53 16q0 252 -229 257l-250 5q-31 1 -31 -44v-515q0 -29 29 -29h181q77 0 77 176 q0 14 48 14t48 -14q-7 -90 -7 -215q0 -136 7 -206q0 -13 -48 -13t-48 13q0 157 -77 161h-181q-29 0 -29 -33v-294q0 -195 130 -195l244 8q217 7 217 250q0 17 47 17q54 0 54 -17v-287q0 -27 -6 -35q-19 -22 -93 -21l-612 7h-118q-156 0 -262 -7q-14 0 -14 46q0 47 14 47 q153 0 153 109v374q0 31 -29 31h-334q-26 0 -36 -19l-206 -394q-14 -27 -14 -46q0 -55 141 -55q14 0 14 -46q0 -47 -14 -47q-116 7 -216 7q-149 0 -250 -7q-14 0 -14 46zM510 700q0 -16 17 -16h273q31 0 31 29v498q0 17 -10 17q-11 0 -21 -17l-286 -498q-4 -7 -4 -13z" />
<glyph unicode="&#xc7;" horiz-adv-x="1349" d="M55 647q0 315 204.5 526.5t535.5 211.5q130 0 338 -43q56 -11 107 -13q33 -90 40 -326q0 -18 -46.5 -21t-47.5 13q-10 110 -65.5 177t-140 96t-191.5 29q-207 0 -334 -168t-127 -424q0 -297 140.5 -467.5t316.5 -170.5q343 -1 440 277q7 19 51.5 8.5t43.5 -31.5 q-5 -57 -42 -153t-61 -132q-47 -7 -88 -19q-153 -44 -358 -44q-293 0 -504.5 189.5t-211.5 484.5zM530 -436q0 42 36 61q13 7 29 7q31 0 75 -39q43 -37 65 -37q53 0 53 51q0 77 -142 142q-20 9 -20 17q0 5 6 13l141 209h109l-78 -106q-9 -12 -9 -18q0 -10 28 -26 q124 -66 124 -174q0 -86 -88 -142q-74 -48 -172 -48q-124 0 -151 61q-6 13 -6 29z" />
<glyph unicode="&#xc8;" horiz-adv-x="1250" d="M51 1311.5q0 46.5 14 46.5q143 -6 299 -6t371 3t337 3q57 0 57 -51v-306q0 -17 -50.5 -17t-50.5 17q0 130 -99 205q-61 47 -125 49l-296 10q-27 1 -27 -40v-509q0 -29 29 -29h135q123 0 123 91v99q0 14 52.5 14t52.5 -14q-7 -67 -7 -231t7 -227q0 -15 -52.5 -15t-52.5 15 v86q0 89 -123 89h-135q-29 0 -29 -31v-341q0 -77 75 -116q39 -20 81 -20l223 5q157 2 205 137q18 50 18 116q0 17 51 17t51 -17v-287q0 -64 -117 -64q-187 0 -360 3.5t-335.5 3.5t-297.5 -7q-15 0 -15 46.5t15 46.5q162 0 162 116v954q0 109 -172 109q-14 0 -14 46.5z M340 1758q0 13 6 33q14 44 50 81q25 25 43 25q9 0 16 -5l379 -298q18 -15 18 -31q0 -11 -8 -22q-12 -17 -31 -17q-11 0 -25 7l-438 200q-10 9 -10 27z" />
<glyph unicode="&#xc9;" horiz-adv-x="1250" d="M51 1311.5q0 46.5 14 46.5q143 -6 299 -6t371 3t337 3q57 0 57 -51v-306q0 -17 -50.5 -17t-50.5 17q0 130 -99 205q-61 47 -125 49l-296 10q-27 1 -27 -40v-509q0 -29 29 -29h135q123 0 123 91v99q0 14 52.5 14t52.5 -14q-7 -67 -7 -231t7 -227q0 -15 -52.5 -15t-52.5 15 v86q0 89 -123 89h-135q-29 0 -29 -31v-341q0 -77 75 -116q39 -20 81 -20l223 5q157 2 205 137q18 50 18 116q0 17 51 17t51 -17v-287q0 -64 -117 -64q-187 0 -360 3.5t-335.5 3.5t-297.5 -7q-15 0 -15 46.5t15 46.5q162 0 162 116v954q0 109 -172 109q-14 0 -14 46.5z M473 1563q0 16 18 31l379 298q7 5 16 5q18 0 43 -25q37 -37 50 -81q6 -20 6 -33q0 -18 -10 -27l-438 -200q-14 -7 -25 -7q-19 0 -31 17q-8 11 -8 22z" />
<glyph unicode="&#xca;" horiz-adv-x="1250" d="M51 1311.5q0 46.5 14 46.5q143 -6 299 -6t371 3t337 3q57 0 57 -51v-306q0 -17 -50.5 -17t-50.5 17q0 130 -99 205q-61 47 -125 49l-296 10q-27 1 -27 -40v-509q0 -29 29 -29h135q123 0 123 91v99q0 14 52.5 14t52.5 -14q-7 -67 -7 -231t7 -227q0 -15 -52.5 -15t-52.5 15 v86q0 89 -123 89h-135q-29 0 -29 -31v-341q0 -77 75 -116q39 -20 81 -20l223 5q157 2 205 137q18 50 18 116q0 17 51 17t51 -17v-287q0 -64 -117 -64q-187 0 -360 3.5t-335.5 3.5t-297.5 -7q-15 0 -15 46.5t15 46.5q162 0 162 116v954q0 109 -172 109q-14 0 -14 46.5z M301 1566q0 5 4 8l283 251q26 23 50.5 23t48.5 -23l283 -251q4 -4 4 -10q0 -8 -8 -21q-11 -19 -20 -19q-1 0 -3 1l-267 124q-19 8 -38 8t-37 -8l-266 -124l-2 -1q-12 4 -22 20q-10 14 -10 22z" />
<glyph unicode="&#xcb;" horiz-adv-x="1250" d="M51 1311.5q0 46.5 14 46.5q143 -6 299 -6t371 3t337 3q57 0 57 -51v-306q0 -17 -50.5 -17t-50.5 17q0 130 -99 205q-61 47 -125 49l-296 10q-27 1 -27 -40v-509q0 -29 29 -29h135q123 0 123 91v99q0 14 52.5 14t52.5 -14q-7 -67 -7 -231t7 -227q0 -15 -52.5 -15t-52.5 15 v86q0 89 -123 89h-135q-29 0 -29 -31v-341q0 -77 75 -116q39 -20 81 -20l223 5q157 2 205 137q18 50 18 116q0 17 51 17t51 -17v-287q0 -64 -117 -64q-187 0 -360 3.5t-335.5 3.5t-297.5 -7q-15 0 -15 46.5t15 46.5q162 0 162 116v954q0 109 -172 109q-14 0 -14 46.5z M272 1672q0 74 57 110q32 20 72 20q68 0 104 -54q21 -32 21 -66q0 -80 -60 -114q-29 -18 -65 -18q-84 0 -116 64q-12 24 -13 58zM702 1672q0 74 57 110q32 20 72 20q67 0 104 -54q21 -30 21 -66q0 -80 -60 -114q-29 -18 -65 -18q-84 0 -116 64q-12 24 -13 58z" />
<glyph unicode="&#xcc;" horiz-adv-x="734" d="M-20 1758q0 13 6 33q14 44 50 81q25 25 43 25q9 0 16 -5l379 -298q18 -15 18 -31q0 -11 -8 -22q-12 -17 -31 -17q-11 0 -25 7l-438 200q-10 9 -10 27zM60 39q0 47 15 47q162 0 162 116v952q0 116 -161 116q-14 0 -14 46q0 47 14 47q48 -5 279 -5q241 0 289 5q14 0 14 -46 q0 -47 -14 -47q-163 0 -163 -116v-952q0 -116 159 -116q14 0 14 -46q0 -47 -14 -47q-133 7 -279 7q-160 0 -286 -7q-15 0 -15 46z" />
<glyph unicode="&#xcd;" horiz-adv-x="734" d="M60 39q0 47 15 47q162 0 162 116v952q0 116 -161 116q-14 0 -14 46q0 47 14 47q48 -5 279 -5q241 0 289 5q14 0 14 -46q0 -47 -14 -47q-163 0 -163 -116v-952q0 -116 159 -116q14 0 14 -46q0 -47 -14 -47q-133 7 -279 7q-160 0 -286 -7q-15 0 -15 46zM213 1563 q0 16 18 31l379 298q7 5 16 5q18 0 43 -25q37 -37 50 -81q6 -20 6 -33q0 -18 -10 -27l-438 -200q-14 -7 -25 -7q-19 0 -31 17q-8 11 -8 22z" />
<glyph unicode="&#xce;" horiz-adv-x="734" d="M21 1566q0 5 4 8l283 251q26 23 50.5 23t48.5 -23l283 -251q4 -4 4 -10q0 -8 -8 -21q-11 -19 -20 -19q-1 0 -3 1l-267 124q-19 8 -38 8t-37 -8l-266 -124l-2 -1q-12 4 -22 20q-10 14 -10 22zM60 39q0 47 15 47q162 0 162 116v952q0 116 -161 116q-14 0 -14 46q0 47 14 47 q48 -5 279 -5q241 0 289 5q14 0 14 -46q0 -47 -14 -47q-163 0 -163 -116v-952q0 -116 159 -116q14 0 14 -46q0 -47 -14 -47q-133 7 -279 7q-160 0 -286 -7q-15 0 -15 46z" />
<glyph unicode="&#xcf;" horiz-adv-x="734" d="M22 1672q0 74 57 110q32 20 72 20q68 0 104 -54q21 -32 21 -66q0 -80 -60 -114q-29 -18 -65 -18q-84 0 -116 64q-12 24 -13 58zM60 39q0 47 15 47q162 0 162 116v952q0 116 -161 116q-14 0 -14 46q0 47 14 47q48 -5 279 -5q241 0 289 5q14 0 14 -46q0 -47 -14 -47 q-163 0 -163 -116v-952q0 -116 159 -116q14 0 14 -46q0 -47 -14 -47q-133 7 -279 7q-160 0 -286 -7q-15 0 -15 46zM452 1672q0 74 57 110q32 20 72 20q67 0 104 -54q21 -30 21 -66q0 -80 -60 -114q-29 -18 -65 -18q-84 0 -116 64q-12 24 -13 58z" />
<glyph unicode="&#xd0;" horiz-adv-x="1567" d="M14 671q0 47 15 47h179q29 0 29 29v409q0 109 -172 109q-14 0 -14 46q0 47 14 47q143 -6 288 -6l365 6q303 0 510 -139q259 -174 259 -493q0 -338 -200 -537q-198 -196 -521 -196l-348 7h-78q-165 0 -265 -7q-15 0 -15 46q0 47 15 47q162 0 162 116v392q0 31 -29 31h-179 q-15 0 -15 46zM481 273q0 -150 87 -186q39 -16 130 -16q213 0 353 153q164 178 164 492q0 177 -99 324q-164 240 -480 240h-79q-76 0 -76 -79v-454q0 -29 27 -29h230q13 0 13 -46q0 -47 -13 -47h-230q-27 0 -27 -31v-321z" />
<glyph unicode="&#xd1;" horiz-adv-x="1482" d="M38 1316q0 47 13 47q50 -5 177 -5q84 0 98 -2q59 -9 100 -57l711 -867q10 -14 24 -14q24 0 24 31v703q0 118 -153 118q-15 0 -15 46q0 47 15 47q102 -5 198 -5q100 0 193 5q14 0 14 -46q0 -47 -14 -47q-135 0 -135 -118v-1076q0 -97 -31 -97q-26 0 -74 57l-822 978 q-13 16 -20 16q-13 0 -13 -22v-806q0 -116 151 -116q15 0 15 -46q0 -48 -15 -47q-92 7 -200 7q-102 0 -214 -7q-14 -2 -14 46q0 47 14 47q159 0 159 116v954q0 114 -173 114q-13 0 -13 46zM422 1588q0 3 2 5q106 160 218 160q50 0 133 -33q75 -27 110 -27q64 0 122 62 q2 3 6 3q8 0 24 -13q18 -16 18 -27q0 -3 -2 -6q-110 -164 -219 -164q-41 0 -127 31q-94 33 -127 33q-63 0 -112 -59q-3 -3 -8 -3q-9 0 -23 14q-15 15 -15 24z" />
<glyph unicode="&#xd2;" horiz-adv-x="1524" d="M55 667q0 251 176 474q195 244 514 244q246 0 426 -155q259 -224 259 -567q0 -220 -145 -417q-202 -273 -544 -273q-225 0 -405 124q-281 194 -281 570zM328 724q0 -304 153 -495q129 -162 274 -162q265 0 358 279q44 130 44 303q0 255 -124 438q-142 210 -293 210 q-153 1 -267 -130q-145 -166 -145 -443zM375 1758q0 13 6 33q14 44 50 81q25 25 43 25q9 0 16 -5l379 -298q18 -15 18 -31q0 -11 -8 -22q-12 -17 -31 -17q-11 0 -25 7l-438 200q-10 9 -10 27z" />
<glyph unicode="&#xd3;" horiz-adv-x="1524" d="M55 667q0 251 176 474q195 244 514 244q246 0 426 -155q259 -224 259 -567q0 -220 -145 -417q-202 -273 -544 -273q-225 0 -405 124q-281 194 -281 570zM328 724q0 -304 153 -495q129 -162 274 -162q265 0 358 279q44 130 44 303q0 255 -124 438q-142 210 -293 210 q-153 1 -267 -130q-145 -166 -145 -443zM603 1563q0 16 18 31l379 298q7 5 16 5q18 0 43 -25q37 -37 50 -81q6 -20 6 -33q0 -18 -10 -27l-438 -200q-14 -7 -25 -7q-19 0 -31 17q-8 11 -8 22z" />
<glyph unicode="&#xd4;" horiz-adv-x="1524" d="M55 667q0 251 176 474q195 244 514 244q246 0 426 -155q259 -224 259 -567q0 -220 -145 -417q-202 -273 -544 -273q-225 0 -405 124q-281 194 -281 570zM328 724q0 -304 153 -495q129 -162 274 -162q265 0 358 279q44 130 44 303q0 255 -124 438q-142 210 -293 210 q-153 1 -267 -130q-145 -166 -145 -443zM401 1566q0 5 4 8l283 251q26 23 50.5 23t48.5 -23l283 -251q4 -4 4 -10q0 -8 -8 -21q-11 -19 -20 -19q-1 0 -3 1l-267 124q-19 8 -38 8t-37 -8l-266 -124l-2 -1q-12 4 -22 20q-10 14 -10 22z" />
<glyph unicode="&#xd5;" horiz-adv-x="1524" d="M55 667q0 251 176 474q195 244 514 244q246 0 426 -155q259 -224 259 -567q0 -220 -145 -417q-202 -273 -544 -273q-225 0 -405 124q-281 194 -281 570zM328 724q0 -304 153 -495q129 -162 274 -162q265 0 358 279q44 130 44 303q0 255 -124 438q-142 210 -293 210 q-153 1 -267 -130q-145 -166 -145 -443zM430 1588q0 3 2 5q106 160 218 160q50 0 133 -33q75 -27 110 -27q64 0 122 62q2 3 6 3q8 0 24 -13q18 -16 18 -27q0 -3 -2 -6q-110 -164 -219 -164q-41 0 -127 31q-94 33 -127 33q-63 0 -112 -59q-3 -3 -8 -3q-9 0 -23 14 q-15 15 -15 24z" />
<glyph unicode="&#xd6;" horiz-adv-x="1524" d="M55 667q0 251 176 474q195 244 514 244q246 0 426 -155q259 -224 259 -567q0 -220 -145 -417q-202 -273 -544 -273q-225 0 -405 124q-281 194 -281 570zM328 724q0 -304 153 -495q129 -162 274 -162q265 0 358 279q44 130 44 303q0 255 -124 438q-142 210 -293 210 q-153 1 -267 -130q-145 -166 -145 -443zM382 1672q0 74 57 110q32 20 72 20q68 0 104 -54q21 -32 21 -66q0 -80 -60 -114q-29 -18 -65 -18q-84 0 -116 64q-12 24 -13 58zM812 1672q0 74 57 110q32 20 72 20q67 0 104 -54q21 -30 21 -66q0 -80 -60 -114q-29 -18 -65 -18 q-84 0 -116 64q-12 24 -13 58z" />
<glyph unicode="&#xd7;" horiz-adv-x="786" d="M18 98l242 244l-242 242l138 137l241 -242l244 242l137 -137l-243 -242l243 -244l-137 -137l-244 242l-241 -242z" />
<glyph unicode="&#xd8;" horiz-adv-x="1524" d="M55 667q0 251 176 474q195 244 514 244q246 0 426 -155q259 -224 259 -567q0 -220 -145 -417q-202 -273 -544 -273q-225 0 -405 124q-281 194 -281 570zM173 -25q0 7 2 10l1008 1442q3 4 11 4q30 0 73 -34q32 -26 32 -39q0 -4 -2 -7l-1009 -1444q-5 -7 -14 -7 q-25 0 -61 28q-40 30 -40 47zM328 724q0 -304 153 -495q129 -162 274 -162q265 0 358 279q44 130 44 303q0 255 -124 438q-142 210 -293 210q-153 1 -267 -130q-145 -166 -145 -443z" />
<glyph unicode="&#xd9;" horiz-adv-x="1512" d="M53 1316q0 47 14 47q147 -5 281 -5q146 0 294 5q14 0 14 -46q0 -47 -14 -47q-174 0 -174 -116v-468l11 -281q3 -124 55 -203q90 -135 276 -135q173 0 277 106q90 93 90 323v658q0 116 -157 116q-14 0 -14 46q0 47 14 47q138 -5 229 -5q92 0 227 5q15 0 15 -46 q0 -47 -15 -47q-154 0 -154 -116v-274q0 -276 -12 -416q-17 -245 -154 -373q-126 -118 -383 -118q-156 0 -268 42q-157 61 -219 185q-52 107 -62 345v609q0 116 -157 116q-14 0 -14 46zM445 1758q0 13 6 33q14 44 50 81q25 25 43 25q9 0 16 -5l379 -298q18 -15 18 -31 q0 -11 -8 -22q-12 -17 -31 -17q-11 0 -25 7l-438 200q-10 9 -10 27z" />
<glyph unicode="&#xda;" horiz-adv-x="1512" d="M53 1316q0 47 14 47q147 -5 281 -5q146 0 294 5q14 0 14 -46q0 -47 -14 -47q-174 0 -174 -116v-468l11 -281q3 -124 55 -203q90 -135 276 -135q173 0 277 106q90 93 90 323v658q0 116 -157 116q-14 0 -14 46q0 47 14 47q138 -5 229 -5q92 0 227 5q15 0 15 -46 q0 -47 -15 -47q-154 0 -154 -116v-274q0 -276 -12 -416q-17 -245 -154 -373q-126 -118 -383 -118q-156 0 -268 42q-157 61 -219 185q-52 107 -62 345v609q0 116 -157 116q-14 0 -14 46zM678 1563q0 16 18 31l379 298q7 5 16 5q18 0 43 -25q37 -37 50 -81q6 -20 6 -33 q0 -18 -10 -27l-438 -200q-14 -7 -25 -7q-19 0 -31 17q-8 11 -8 22z" />
<glyph unicode="&#xdb;" horiz-adv-x="1512" d="M53 1316q0 47 14 47q147 -5 281 -5q146 0 294 5q14 0 14 -46q0 -47 -14 -47q-174 0 -174 -116v-468l11 -281q3 -124 55 -203q90 -135 276 -135q173 0 277 106q90 93 90 323v658q0 116 -157 116q-14 0 -14 46q0 47 14 47q138 -5 229 -5q92 0 227 5q15 0 15 -46 q0 -47 -15 -47q-154 0 -154 -116v-274q0 -276 -12 -416q-17 -245 -154 -373q-126 -118 -383 -118q-156 0 -268 42q-157 61 -219 185q-52 107 -62 345v609q0 116 -157 116q-14 0 -14 46zM472 1566q0 5 4 8l283 251q26 23 50.5 23t48.5 -23l283 -251q4 -4 4 -10q0 -8 -8 -21 q-11 -19 -20 -19q-1 0 -3 1l-267 124q-19 8 -38 8t-37 -8l-266 -124l-2 -1q-12 4 -22 20q-10 14 -10 22z" />
<glyph unicode="&#xdc;" horiz-adv-x="1512" d="M53 1316q0 47 14 47q147 -5 281 -5q146 0 294 5q14 0 14 -46q0 -47 -14 -47q-174 0 -174 -116v-468l11 -281q3 -124 55 -203q90 -135 276 -135q173 0 277 106q90 93 90 323v658q0 116 -157 116q-14 0 -14 46q0 47 14 47q138 -5 229 -5q92 0 227 5q15 0 15 -46 q0 -47 -15 -47q-154 0 -154 -116v-274q0 -276 -12 -416q-17 -245 -154 -373q-126 -118 -383 -118q-156 0 -268 42q-157 61 -219 185q-52 107 -62 345v609q0 116 -157 116q-14 0 -14 46zM477 1672q0 74 57 110q32 20 72 20q68 0 104 -54q21 -32 21 -66q0 -80 -60 -114 q-29 -18 -65 -18q-84 0 -116 64q-12 24 -13 58zM907 1672q0 74 57 110q32 20 72 20q67 0 104 -54q21 -30 21 -66q0 -80 -60 -114q-29 -18 -65 -18q-84 0 -116 64q-12 24 -13 58z" />
<glyph unicode="&#xdd;" horiz-adv-x="1325" d="M-28 1316q0 47 15 47q47 -5 261 -5q216 0 266 5q14 0 14 -46q0 -47 -14 -47q-110 0 -110 -53q0 -31 20 -63l254 -405q11 -17 20 -17q10 0 22 19l268 395q23 34 23 60q0 64 -105 64q-15 0 -15 46q0 47 15 47q45 -5 221 -5q185 0 233 5q14 0 14 -46q0 -47 -14 -47 q-108 0 -179 -68l-33 -35l-337 -481q-38 -56 -45 -78q-8 -28 -8 -109v-297q0 -116 148 -116q13 0 13 -46q0 -47 -13 -47q-65 7 -266 7q-200 0 -273 -7q-14 0 -14 46q0 47 14 47q147 0 147 116v292q0 68 -10 94q-8 22 -55 96l-298 470q-52 82 -101 104q-28 12 -63 12 q-15 0 -15 46zM608 1563q0 16 18 31l379 298q7 5 16 5q18 0 43 -25q37 -37 50 -81q6 -20 6 -33q0 -18 -10 -27l-438 -200q-14 -7 -25 -7q-19 0 -31 17q-8 11 -8 22z" />
<glyph unicode="&#xde;" horiz-adv-x="1225" d="M12 1274q0 47 15 47q176 0 326 60q20 8 41 8q40 0 43 -35l-7 -197q0 -23 17 -23q11 0 19 5q16 7 137 106q102 84 186 84q43 0 77 -22q157 -122 226 -322q43 -123 43 -257q0 -215 -141 -411q-132 -184 -335 -274q-93 -41 -191 -56q-36 -7 -36 -38v-193q0 -71 -142 -173 l-144 -99q-6 -4 -12 -4q-39 0 -77 61q-14 23 -14 39q0 9 5 13q82 71 103 97q35 45 35 102v1300q0 136 -159 136q-15 0 -15 46zM430 118q0 -36 28 -36q7 0 16 2q202 57 307 273q81 167 81 371q0 282 -153 444q-18 20 -29 20q-13 0 -22 -7q-7 -4 -62 -53q-72 -65 -144 -102 q-22 -12 -22 -46v-866z" />
<glyph unicode="&#xdf;" horiz-adv-x="1153" d="M40 30q0 38 15 38q109 0 109 75v527q0 35 -31 35h-61q-16 0 -16 36q0 37 16 37q92 0 92 113q0 276 145 430q156 166 365 166q187 0 297 -105q88 -85 88 -204q0 -132 -197 -270q-114 -80 -114 -173q0 -89 137 -162q141 -75 200 -173q39 -64 39 -142q0 -144 -108 -224 q-80 -59 -203 -59q-109 0 -195 62q-28 71 -28 180q0 19 35 19q41 0 41 -17q0 -48 57 -106q56 -56 115 -56q94 0 94 117q0 130 -137 207q-236 132 -236 293q0 128 163 243q120 85 120 222q0 89 -48 164q-56 88 -147 88q-131 0 -205 -190q-49 -126 -49 -308v-750 q0 -75 133 -75q16 0 16 -37q0 -39 -16 -39q-80 8 -239 8q-148 0 -232 -8q-15 0 -15 38z" />
<glyph unicode="&#xe0;" horiz-adv-x="860" d="M43 586q0 67 56 144q31 44 65 65q120 75 264 75q113 0 195 -56q65 -44 67 -107v-508q0 -114 67 -114q30 -3 72 36q8 8 28 -9q14 -14 9 -24q-58 -113 -190 -113q-92 0 -162 82q-14 19 -21 19q-13 0 -28 -17q-82 -82 -199 -82q-125 0 -177 85q-26 43 -26 100q0 121 212 231 l151 72q35 20 35 47v190q0 72 -105 72q-79 0 -116 -51q-9 -14 -10 -75q0 -35 -5 -52q-25 -88 -92 -88q-90 0 -90 78zM175 1334q0 32 58 63q42 23 74 23q24 0 28 -14l117 -292q8 -22 8 -40q0 -54 -42 -54q-35 0 -69 49l-169 249q-5 8 -5 16zM293 205q0 -117 72 -117 q96 0 96 105v182q0 23 -14 23q-7 0 -13 -3q-141 -71 -141 -190z" />
<glyph unicode="&#xe1;" horiz-adv-x="860" d="M43 586q0 67 56 144q31 44 65 65q120 75 264 75q113 0 195 -56q65 -44 67 -107v-508q0 -114 67 -114q30 -3 72 36q8 8 28 -9q14 -14 9 -24q-58 -113 -190 -113q-92 0 -162 82q-14 19 -21 19q-13 0 -28 -17q-82 -82 -199 -82q-125 0 -177 85q-26 43 -26 100q0 121 212 231 l151 72q35 20 35 47v190q0 72 -105 72q-79 0 -116 -51q-9 -14 -10 -75q0 -35 -5 -52q-25 -88 -92 -88q-90 0 -90 78zM293 205q0 -117 72 -117q96 0 96 105v182q0 23 -14 23q-7 0 -13 -3q-141 -71 -141 -190zM348 1073q0 21 8 41l120 302q7 17 28 17q32 0 95 -43 q38 -26 38 -47q0 -6 -3 -11l-176 -263q-32 -49 -68 -49q-42 0 -42 53z" />
<glyph unicode="&#xe2;" horiz-adv-x="860" d="M43 586q0 67 56 144q31 44 65 65q120 75 264 75q113 0 195 -56q65 -44 67 -107v-508q0 -114 67 -114q30 -3 72 36q8 8 28 -9q14 -14 9 -24q-58 -113 -190 -113q-92 0 -162 82q-14 19 -21 19q-13 0 -28 -17q-82 -82 -199 -82q-125 0 -177 85q-26 43 -26 100q0 121 212 231 l151 72q35 20 35 47v190q0 72 -105 72q-79 0 -116 -51q-9 -14 -10 -75q0 -35 -5 -52q-25 -88 -92 -88q-90 0 -90 78zM100 1055q0 4 2 8l229 412q16 31 48 31q34 0 50 -31l230 -412q2 -4 2 -8q0 -12 -19 -24q-18 -11 -28 -11q-6 0 -9 4l-182 213q-25 28 -42 28q-19 0 -44 -28 l-182 -213q-4 -4 -10 -4q-10 0 -26 10q-19 13 -19 25zM293 205q0 -117 72 -117q96 0 96 105v182q0 23 -14 23q-7 0 -13 -3q-141 -71 -141 -190z" />
<glyph unicode="&#xe3;" horiz-adv-x="860" d="M43 586q0 67 56 144q31 44 65 65q120 75 264 75q113 0 195 -56q65 -44 67 -107v-508q0 -114 67 -114q30 -3 72 36q8 8 28 -9q14 -14 9 -24q-58 -113 -190 -113q-92 0 -162 82q-14 19 -21 19q-13 0 -28 -17q-82 -82 -199 -82q-125 0 -177 85q-26 43 -26 100q0 121 212 231 l151 72q35 20 35 47v190q0 72 -105 72q-79 0 -116 -51q-9 -14 -10 -75q0 -35 -5 -52q-25 -88 -92 -88q-90 0 -90 78zM92 1088q0 3 2 5q106 160 218 160q50 0 133 -33q75 -27 110 -27q64 0 122 62q2 3 6 3q8 0 24 -13q18 -16 18 -27q0 -3 -2 -6q-110 -164 -219 -164 q-41 0 -127 31q-94 33 -127 33q-63 0 -112 -59q-3 -3 -8 -3q-9 0 -23 14q-15 15 -15 24zM293 205q0 -117 72 -117q96 0 96 105v182q0 23 -14 23q-7 0 -13 -3q-141 -71 -141 -190z" />
<glyph unicode="&#xe4;" horiz-adv-x="860" d="M43 586q0 67 56 144q31 44 65 65q120 75 264 75q113 0 195 -56q65 -44 67 -107v-508q0 -114 67 -114q30 -3 72 36q8 8 28 -9q14 -14 9 -24q-58 -113 -190 -113q-92 0 -162 82q-14 19 -21 19q-13 0 -28 -17q-82 -82 -199 -82q-125 0 -177 85q-26 43 -26 100q0 121 212 231 l151 72q35 20 35 47v190q0 72 -105 72q-79 0 -116 -51q-9 -14 -10 -75q0 -35 -5 -52q-25 -88 -92 -88q-90 0 -90 78zM49 1169q0 74 57 111q32 20 72 20q68 0 104 -54q21 -32 21 -67q0 -79 -60 -114q-29 -17 -65 -17q-84 0 -116 63q-12 25 -13 58zM293 205q0 -117 72 -117 q96 0 96 105v182q0 23 -14 23q-7 0 -13 -3q-141 -71 -141 -190zM479 1169q0 74 57 111q32 20 72 20q67 0 104 -54q21 -31 21 -67q0 -79 -60 -114q-29 -17 -65 -17q-84 0 -116 63q-12 25 -13 58z" />
<glyph unicode="&#xe5;" horiz-adv-x="860" d="M43 586q0 67 56 144q31 44 65 65q120 75 264 75q113 0 195 -56q65 -44 67 -107v-508q0 -114 67 -114q30 -3 72 36q8 8 28 -9q14 -14 9 -24q-58 -113 -190 -113q-92 0 -162 82q-14 19 -21 19q-13 0 -28 -17q-82 -82 -199 -82q-125 0 -177 85q-26 43 -26 100q0 121 212 231 l151 72q35 20 35 47v190q0 72 -105 72q-79 0 -116 -51q-9 -14 -10 -75q0 -35 -5 -52q-25 -88 -92 -88q-90 0 -90 78zM169 1245q0 96 73 161q69 62 173 62q127 0 198 -88q48 -59 48 -135q0 -112 -102 -185q-57 -40 -144 -40q-126 0 -197 88q-49 60 -49 137zM293 205 q0 -117 72 -117q96 0 96 105v182q0 23 -14 23q-7 0 -13 -3q-141 -71 -141 -190zM307 1245q0 -86 52 -122q25 -17 56 -17q68 0 96 68q13 32 13 71q0 78 -53 124q-22 19 -56 19q-64 0 -96 -75q-12 -29 -12 -68z" />
<glyph unicode="&#xe6;" horiz-adv-x="1239" d="M59 588q0 65 55 140q30 40 62 60q138 82 250 82q104 0 177 -56q26 -25 38 -25q13 0 35 20q77 61 180 61q183 0 276 -88q39 -40 39 -65q0 -27 -57 -51l-387 -162q-41 -16 -41 -80q0 -89 53 -174q74 -117 195 -117q79 0 159 48q15 9 23 18q14 13 42 -9q27 -26 18 -36 q-148 -177 -361 -177q-104 0 -196 69q-28 21 -50 46q-17 22 -26 22q-8 0 -33 -22q-60 -67 -117 -87q-41 -15 -96 -15q-151 0 -206 87q-23 37 -23 85q0 153 159 219l207 90q35 15 35 59v148q0 110 -98 110q-65 0 -111 -61q-9 -12 -9 -49l1 -41q0 -75 -46 -110 q-25 -19 -59 -19q-88 0 -88 80zM297 190q0 -61 44 -87q19 -11 40 -11q45 0 98 68q19 24 19 44q0 10 -4 21q-15 38 -25 142q-2 22 -14 22q-8 0 -19 -6q-139 -77 -139 -193zM700 606q0 -16 15 -16l243 98q17 6 17 25q0 29 -39 54q-32 21 -70 21q-60 0 -119 -76 q-45 -59 -47 -106z" />
<glyph unicode="&#xe7;" horiz-adv-x="880" d="M66 387q0 170 106 307q136 176 350 176q135 0 223 -45q39 -20 54 -45q6 -16 6 -40q0 -52 -31 -85q-35 -35 -65 -35q-37 0 -56 29l-39 66q-39 59 -112 59q-81 0 -141 -93q-66 -102 -66 -245q0 -133 88 -227q79 -84 180 -84q109 0 187 55q17 12 46 -30q26 -43 9 -54 l-82 -53q-116 -66 -266 -66q-140 0 -251 99q-140 123 -140 311zM159 -438q0 42 36 61q13 7 29 7q31 0 75 -39q43 -37 65 -37q53 0 53 51q0 77 -142 142q-20 9 -20 17q0 5 6 13l141 209h109l-78 -106q-9 -12 -9 -18q0 -10 28 -26q124 -66 124 -174q0 -86 -88 -142 q-74 -48 -172 -48q-124 0 -151 61q-6 13 -6 29z" />
<glyph unicode="&#xe8;" horiz-adv-x="876" d="M68 436q0 165 107 291q122 143 286 143q178 0 283 -119q65 -89 65 -139q0 -75 -90 -75h-385q-37 0 -37 -27q0 -237 112 -334q62 -53 152 -53q81 0 166 55q20 11 49 -26q26 -35 15 -46q-48 -49 -134 -88q-88 -41 -202 -41q-135 0 -243 109q-144 144 -144 350zM256 1334 q0 32 58 63q42 23 74 23q24 0 28 -14l117 -292q8 -22 8 -40q0 -54 -42 -54q-35 0 -69 49l-169 249q-5 8 -5 16zM309 653q0 -26 37 -26h203q37 0 37 24q0 67 -55 112q-34 28 -68 28q-64 0 -113 -43q-41 -40 -41 -95z" />
<glyph unicode="&#xe9;" horiz-adv-x="876" d="M68 436q0 165 107 291q122 143 286 143q178 0 283 -119q65 -89 65 -139q0 -75 -90 -75h-385q-37 0 -37 -27q0 -237 112 -334q62 -53 152 -53q81 0 166 55q20 11 49 -26q26 -35 15 -46q-48 -49 -134 -88q-88 -41 -202 -41q-135 0 -243 109q-144 144 -144 350zM309 653 q0 -26 37 -26h203q37 0 37 24q0 67 -55 112q-34 28 -68 28q-64 0 -113 -43q-41 -40 -41 -95zM410 1073q0 21 8 41l120 302q7 17 28 17q32 0 95 -43q38 -26 38 -47q0 -6 -3 -11l-176 -263q-32 -49 -68 -49q-42 0 -42 53z" />
<glyph unicode="&#xea;" horiz-adv-x="876" d="M68 436q0 165 107 291q122 143 286 143q178 0 283 -119q65 -89 65 -139q0 -75 -90 -75h-385q-37 0 -37 -27q0 -237 112 -334q62 -53 152 -53q81 0 166 55q20 11 49 -26q26 -35 15 -46q-48 -49 -134 -88q-88 -41 -202 -41q-135 0 -243 109q-144 144 -144 350zM181 1055 q0 4 2 8l229 412q16 31 48 31q34 0 50 -31l230 -412q2 -4 2 -8q0 -12 -19 -24q-18 -11 -28 -11q-6 0 -9 4l-182 213q-25 28 -42 28q-19 0 -44 -28l-182 -213q-4 -4 -10 -4q-10 0 -26 10q-19 13 -19 25zM309 653q0 -26 37 -26h203q37 0 37 24q0 67 -55 112q-34 28 -68 28 q-64 0 -113 -43q-41 -40 -41 -95z" />
<glyph unicode="&#xeb;" horiz-adv-x="876" d="M68 436q0 165 107 291q122 143 286 143q178 0 283 -119q65 -89 65 -139q0 -75 -90 -75h-385q-37 0 -37 -27q0 -237 112 -334q62 -53 152 -53q81 0 166 55q20 11 49 -26q26 -35 15 -46q-48 -49 -134 -88q-88 -41 -202 -41q-135 0 -243 109q-144 144 -144 350zM119 1169 q0 74 57 111q32 20 72 20q68 0 104 -54q21 -32 21 -67q0 -79 -60 -114q-29 -17 -65 -17q-84 0 -116 63q-12 25 -13 58zM309 653q0 -26 37 -26h203q37 0 37 24q0 67 -55 112q-34 28 -68 28q-64 0 -113 -43q-41 -40 -41 -95zM549 1169q0 74 57 111q32 20 72 20q67 0 104 -54 q21 -31 21 -67q0 -79 -60 -114q-29 -17 -65 -17q-84 0 -116 63q-12 25 -13 58z" />
<glyph unicode="&#xec;" horiz-adv-x="524" d="M44 30q0 38 15 38q105 0 105 75v414q0 125 -92 125q-16 0 -16 37t16 37q50 0 187 68q63 31 83 48q13 11 31 11q28 0 26 -27q-6 -84 -6 -174v-539q0 -75 103 -75q15 0 15 -38t-15 -38q-84 8 -209 8q-144 0 -228 -8q-15 0 -15 38zM92 1334q0 32 58 63q42 23 74 23 q24 0 28 -14l117 -292q8 -22 8 -40q0 -54 -42 -54q-35 0 -69 49l-169 249q-5 8 -5 16z" />
<glyph unicode="&#xed;" horiz-adv-x="524" d="M44 30q0 38 15 38q105 0 105 75v414q0 125 -92 125q-16 0 -16 37t16 37q50 0 187 68q63 31 83 48q13 11 31 11q28 0 26 -27q-6 -84 -6 -174v-539q0 -75 103 -75q15 0 15 -38t-15 -38q-84 8 -209 8q-144 0 -228 -8q-15 0 -15 38zM169 1073q0 21 8 41l120 302q7 17 28 17 q32 0 95 -43q38 -26 38 -47q0 -6 -3 -11l-176 -263q-32 -49 -68 -49q-42 0 -42 53z" />
<glyph unicode="&#xee;" horiz-adv-x="524" d="M1 1055q0 4 2 8l229 412q16 31 48 31q34 0 50 -31l230 -412q2 -4 2 -8q0 -12 -19 -24q-18 -11 -28 -11q-6 0 -9 4l-182 213q-25 28 -42 28q-19 0 -44 -28l-182 -213q-4 -4 -10 -4q-10 0 -26 10q-19 13 -19 25zM44 30q0 38 15 38q105 0 105 75v414q0 125 -92 125 q-16 0 -16 37t16 37q50 0 187 68q63 31 83 48q13 11 31 11q28 0 26 -27q-6 -84 -6 -174v-539q0 -75 103 -75q15 0 15 -38t-15 -38q-84 8 -209 8q-144 0 -228 -8q-15 0 -15 38z" />
<glyph unicode="&#xef;" horiz-adv-x="524" d="M-82 1169q0 74 57 111q32 20 72 20q68 0 104 -54q21 -32 21 -67q0 -79 -60 -114q-29 -17 -65 -17q-84 0 -116 63q-12 25 -13 58zM44 30q0 38 15 38q105 0 105 75v414q0 125 -92 125q-16 0 -16 37t16 37q50 0 187 68q63 31 83 48q13 11 31 11q28 0 26 -27q-6 -84 -6 -174 v-539q0 -75 103 -75q15 0 15 -38t-15 -38q-84 8 -209 8q-144 0 -228 -8q-15 0 -15 38zM348 1169q0 74 57 111q32 20 72 20q67 0 104 -54q21 -31 21 -67q0 -79 -60 -114q-29 -17 -65 -17q-84 0 -116 63q-12 25 -13 58z" />
<glyph unicode="&#xf0;" horiz-adv-x="1075" d="M-40 1014q0 8 8 4q64 -33 95 -33q22 0 37 12l88 70q18 14 18 22q0 9 -18 19q-130 68 -180 88q-18 7 6 60q20 44 39 36q151 -62 230 -104q20 -11 32 -11q15 0 39 19l295 229q14 10 69 -61q45 -56 54 -71q1 -9 -6 -9l-117 25q-20 0 -31 -9l-186 -147q-18 -14 -18 -23 q0 -11 22 -24q334 -196 457 -373q106 -153 106 -282q0 -221 -126 -350q-122 -124 -331 -124q-207 0 -339 124q-137 130 -137 348q0 150 105 267q137 154 361 154q-76 76 -200 156q-17 11 -30 11q-15 0 -34 -15l-200 -158q-13 -9 -66 72q-41 65 -42 78zM319 444 q0 -180 81 -294q62 -89 143 -89q94 0 151 121q51 107 51 262q0 163 -73 267q-56 82 -129 82q-78 0 -143 -84q-81 -106 -81 -265z" />
<glyph unicode="&#xf1;" horiz-adv-x="1087" d="M42 30q0 38 15 38q107 0 107 75v406q0 133 -92 133q-16 0 -16 36q0 38 16 38q50 0 187 68q63 31 83 48q13 11 27 11q29 0 30 -27l-6 -68q0 -19 9 -19t18 9q42 55 138 81q41 11 95 11q189 0 274 -185q36 -73 36 -220v-329q0 -68 106 -68q16 0 16 -38t-16 -38 q-107 8 -211 8q-105 0 -225 -8q-15 -1 -15 37.5t15 38.5q101 0 101 62v407q0 149 -59 200q-29 25 -96 25q-62 0 -119 -50q-67 -58 -67 -120v-449q0 -75 99 -75q15 0 15 -38t-15 -38q-84 8 -216 8q-135 0 -219 -8q-15 0 -15 38zM234 1088q0 3 2 5q106 160 218 160 q50 0 133 -33q75 -27 110 -27q64 0 122 62q2 3 6 3q8 0 24 -13q18 -16 18 -27q0 -3 -2 -6q-110 -164 -219 -164q-41 0 -127 31q-94 33 -127 33q-63 0 -112 -59q-3 -3 -8 -3q-9 0 -23 14q-15 15 -15 24z" />
<glyph unicode="&#xf2;" horiz-adv-x="1032" d="M66 424q0 170 110 296q132 150 340 150q218 0 351 -158q102 -122 102 -286q0 -209 -123 -331q-119 -118 -328 -118q-185 0 -313 122q-139 131 -139 325zM303 1334q0 32 58 63q42 23 74 23q24 0 28 -14l117 -292q8 -22 8 -40q0 -54 -42 -54q-35 0 -69 49l-169 249 q-5 8 -5 16zM319 420q0 -185 73 -287q52 -72 124 -72q94 0 150 114q49 99 49 245q0 184 -71 292q-53 81 -126 81q-82 0 -139 -104q-60 -109 -60 -269z" />
<glyph unicode="&#xf3;" horiz-adv-x="1032" d="M66 424q0 170 110 296q132 150 340 150q218 0 351 -158q102 -122 102 -286q0 -209 -123 -331q-119 -118 -328 -118q-185 0 -313 122q-139 131 -139 325zM319 420q0 -185 73 -287q52 -72 124 -72q94 0 150 114q49 99 49 245q0 184 -71 292q-53 81 -126 81q-82 0 -139 -104 q-60 -109 -60 -269zM441 1073q0 21 8 41l120 302q7 17 28 17q32 0 95 -43q38 -26 38 -47q0 -6 -3 -11l-176 -263q-32 -49 -68 -49q-42 0 -42 53z" />
<glyph unicode="&#xf4;" horiz-adv-x="1032" d="M66 424q0 170 110 296q132 150 340 150q218 0 351 -158q102 -122 102 -286q0 -209 -123 -331q-119 -118 -328 -118q-185 0 -313 122q-139 131 -139 325zM232 1055q0 4 2 8l229 412q16 31 48 31q34 0 50 -31l230 -412q2 -4 2 -8q0 -12 -19 -24q-18 -11 -28 -11q-6 0 -9 4 l-182 213q-25 28 -42 28q-19 0 -44 -28l-182 -213q-4 -4 -10 -4q-10 0 -26 10q-19 13 -19 25zM319 420q0 -185 73 -287q52 -72 124 -72q94 0 150 114q49 99 49 245q0 184 -71 292q-53 81 -126 81q-82 0 -139 -104q-60 -109 -60 -269z" />
<glyph unicode="&#xf5;" horiz-adv-x="1032" d="M66 424q0 170 110 296q132 150 340 150q218 0 351 -158q102 -122 102 -286q0 -209 -123 -331q-119 -118 -328 -118q-185 0 -313 122q-139 131 -139 325zM200 1088q0 3 2 5q106 160 218 160q50 0 133 -33q75 -27 110 -27q64 0 122 62q2 3 6 3q8 0 24 -13q18 -16 18 -27 q0 -3 -2 -6q-110 -164 -219 -164q-41 0 -127 31q-94 33 -127 33q-63 0 -112 -59q-3 -3 -8 -3q-9 0 -23 14q-15 15 -15 24zM319 420q0 -185 73 -287q52 -72 124 -72q94 0 150 114q49 99 49 245q0 184 -71 292q-53 81 -126 81q-82 0 -139 -104q-60 -109 -60 -269z" />
<glyph unicode="&#xf6;" horiz-adv-x="1032" d="M66 424q0 170 110 296q132 150 340 150q218 0 351 -158q102 -122 102 -286q0 -209 -123 -331q-119 -118 -328 -118q-185 0 -313 122q-139 131 -139 325zM174 1169q0 74 57 111q32 20 72 20q68 0 104 -54q21 -32 21 -67q0 -79 -60 -114q-29 -17 -65 -17q-84 0 -116 63 q-12 25 -13 58zM319 420q0 -185 73 -287q52 -72 124 -72q94 0 150 114q49 99 49 245q0 184 -71 292q-53 81 -126 81q-82 0 -139 -104q-60 -109 -60 -269zM604 1169q0 74 57 111q32 20 72 20q67 0 104 -54q21 -31 21 -67q0 -79 -60 -114q-29 -17 -65 -17q-84 0 -116 63 q-12 25 -13 58z" />
<glyph unicode="&#xf7;" horiz-adv-x="1050" d="M82 383v158h889v-158h-889zM391 137q0 50 37 86q37 37 102 37t104 -52q25 -35 25 -83q0 -73 -62 -107l-28 -11q-19 -5 -39 -5q-64 0 -104 41q-35 36 -35 94zM391 799q0 50 37 86q37 37 102 37t103 -52q26 -36 26 -84q0 -71 -60 -105q-31 -17 -69 -17q-65 0 -105 42 q-34 35 -34 93z" />
<glyph unicode="&#xf8;" horiz-adv-x="1032" d="M66 424q0 170 110 296q132 150 340 150q218 0 351 -158q102 -122 102 -286q0 -209 -123 -331q-119 -118 -328 -118q-185 0 -313 122q-139 131 -139 325zM147 -35l684 953q6 8 16 8q13 0 35 -14q41 -26 25 -48l-686 -952q-5 -7 -14 -7q-13 0 -38 19q-32 27 -22 41z M319 420q0 -185 73 -287q52 -72 124 -72q94 0 150 114q49 99 49 245q0 184 -71 292q-53 81 -126 81q-82 0 -139 -104q-60 -109 -60 -269z" />
<glyph unicode="&#xf9;" horiz-adv-x="1028" d="M28 794.5q0 36.5 15 36.5q112 0 224 18q31 5 50 5q46 0 46 -44q-7 -98 -7 -161v-342q0 -123 50 -182q28 -33 98 -33q64 0 132 55q54 44 54 93v415q0 103 -84 103q-16 0 -16 36.5t16 36.5q111 0 229 19q25 4 39 4q53 0 53 -36q-8 -95 -8 -156v-406q0 -90 10 -117 q14 -40 53 -40q13 0 33 5q16 4 27 -32q7 -36 -4 -41q-8 -2 -105 -21q-26 -5 -51 -10q-56 -12 -114 -31q-13 -4 -24 -4q-15 0 -15 45v47q0 23 -12 23t-27 -14q-92 -89 -246 -89q-126 0 -170 35q-147 118 -147 297v346q0 103 -84 103q-15 0 -15 36.5zM309 1334q0 32 58 63 q42 23 74 23q24 0 28 -14l117 -292q8 -22 8 -40q0 -54 -42 -54q-35 0 -69 49l-169 249q-5 8 -5 16z" />
<glyph unicode="&#xfa;" horiz-adv-x="1028" d="M28 794.5q0 36.5 15 36.5q112 0 224 18q31 5 50 5q46 0 46 -44q-7 -98 -7 -161v-342q0 -123 50 -182q28 -33 98 -33q64 0 132 55q54 44 54 93v415q0 103 -84 103q-16 0 -16 36.5t16 36.5q111 0 229 19q25 4 39 4q53 0 53 -36q-8 -95 -8 -156v-406q0 -90 10 -117 q14 -40 53 -40q13 0 33 5q16 4 27 -32q7 -36 -4 -41q-8 -2 -105 -21q-26 -5 -51 -10q-56 -12 -114 -31q-13 -4 -24 -4q-15 0 -15 45v47q0 23 -12 23t-27 -14q-92 -89 -246 -89q-126 0 -170 35q-147 118 -147 297v346q0 103 -84 103q-15 0 -15 36.5zM427 1073q0 21 8 41 l120 302q7 17 28 17q32 0 95 -43q38 -26 38 -47q0 -6 -3 -11l-176 -263q-32 -49 -68 -49q-42 0 -42 53z" />
<glyph unicode="&#xfb;" horiz-adv-x="1028" d="M28 794.5q0 36.5 15 36.5q112 0 224 18q31 5 50 5q46 0 46 -44q-7 -98 -7 -161v-342q0 -123 50 -182q28 -33 98 -33q64 0 132 55q54 44 54 93v415q0 103 -84 103q-16 0 -16 36.5t16 36.5q111 0 229 19q25 4 39 4q53 0 53 -36q-8 -95 -8 -156v-406q0 -90 10 -117 q14 -40 53 -40q13 0 33 5q16 4 27 -32q7 -36 -4 -41q-8 -2 -105 -21q-26 -5 -51 -10q-56 -12 -114 -31q-13 -4 -24 -4q-15 0 -15 45v47q0 23 -12 23t-27 -14q-92 -89 -246 -89q-126 0 -170 35q-147 118 -147 297v346q0 103 -84 103q-15 0 -15 36.5zM222 1055q0 4 2 8 l229 412q16 31 48 31q34 0 50 -31l230 -412q2 -4 2 -8q0 -12 -19 -24q-18 -11 -28 -11q-6 0 -9 4l-182 213q-25 28 -42 28q-19 0 -44 -28l-182 -213q-4 -4 -10 -4q-10 0 -26 10q-19 13 -19 25z" />
<glyph unicode="&#xfc;" horiz-adv-x="1028" d="M28 794.5q0 36.5 15 36.5q112 0 224 18q31 5 50 5q46 0 46 -44q-7 -98 -7 -161v-342q0 -123 50 -182q28 -33 98 -33q64 0 132 55q54 44 54 93v415q0 103 -84 103q-16 0 -16 36.5t16 36.5q111 0 229 19q25 4 39 4q53 0 53 -36q-8 -95 -8 -156v-406q0 -90 10 -117 q14 -40 53 -40q13 0 33 5q16 4 27 -32q7 -36 -4 -41q-8 -2 -105 -21q-26 -5 -51 -10q-56 -12 -114 -31q-13 -4 -24 -4q-15 0 -15 45v47q0 23 -12 23t-27 -14q-92 -89 -246 -89q-126 0 -170 35q-147 118 -147 297v346q0 103 -84 103q-15 0 -15 36.5zM151 1169q0 74 57 111 q32 20 72 20q68 0 104 -54q21 -32 21 -67q0 -79 -60 -114q-29 -17 -65 -17q-84 0 -116 63q-12 25 -13 58zM581 1169q0 74 57 111q32 20 72 20q67 0 104 -54q21 -31 21 -67q0 -79 -60 -114q-29 -17 -65 -17q-84 0 -116 63q-12 25 -13 58z" />
<glyph unicode="&#xfd;" horiz-adv-x="884" d="M-54 820q0 36 15 36q63 -6 203 -6q148 0 211 6q15 0 15 -36t-15 -36q-80 0 -80 -47q0 -15 8 -37l152 -424q7 -20 17 -20q13 0 22 23l165 421q5 13 5 23q0 61 -121 61q-16 0 -16 36t16 36q60 -6 194 -6q114 0 174 6q16 0 16 -36t-16 -36q-92 0 -125 -59l-448 -1124 q-41 -106 -128 -141q-33 -13 -69 -13q-62 0 -101 43q-26 30 -26 68q0 61 59 91q30 15 66 15q104 0 121 39l78 182q7 18 7 35t-7 35l-270 758q-26 71 -107 71q-15 0 -15 36zM394 1073q0 21 8 41l120 302q7 17 28 17q32 0 95 -43q38 -26 38 -47q0 -6 -3 -11l-176 -263 q-32 -49 -68 -49q-42 0 -42 53z" />
<glyph unicode="&#xfe;" horiz-adv-x="1046" d="M30 1323q0 37 15 37q44 0 187 68q65 31 85 49q15 10 29 10q29 0 29 -29q-8 -131 -8 -229v-404q0 -23 14 -23q8 0 18 9q70 59 189 59q160 0 264 -78q125 -94 125 -284q0 -264 -241 -416q-105 -66 -345 -104q-24 -4 -24 -33v-348q0 -80 -82 -107l-174 -57q-29 -7 -54 39 q-18 38 4 53l62 43q14 8 14 31v1544q0 133 -92 133q-15 0 -15 37zM367 100q0 -19 19 -19q4 0 9 1q132 16 211 112q117 143 117 263q0 321 -178 321q-105 0 -166 -90q-12 -24 -12 -63v-525z" />
<glyph unicode="&#xff;" horiz-adv-x="884" d="M-54 820q0 36 15 36q63 -6 203 -6q148 0 211 6q15 0 15 -36t-15 -36q-80 0 -80 -47q0 -15 8 -37l152 -424q7 -20 17 -20q13 0 22 23l165 421q5 13 5 23q0 61 -121 61q-16 0 -16 36t16 36q60 -6 194 -6q114 0 174 6q16 0 16 -36t-16 -36q-92 0 -125 -59l-448 -1124 q-41 -106 -128 -141q-33 -13 -69 -13q-62 0 -101 43q-26 30 -26 68q0 61 59 91q30 15 66 15q104 0 121 39l78 182q7 18 7 35t-7 35l-270 758q-26 71 -107 71q-15 0 -15 36zM115 1169q0 74 57 111q32 20 72 20q68 0 104 -54q21 -32 21 -67q0 -79 -60 -114q-29 -17 -65 -17 q-84 0 -116 63q-12 25 -13 58zM545 1169q0 74 57 111q32 20 72 20q67 0 104 -54q21 -31 21 -67q0 -79 -60 -114q-29 -17 -65 -17q-84 0 -116 63q-12 25 -13 58z" />
<glyph unicode="&#x152;" horiz-adv-x="2010" d="M53 661q0 200 120 388q23 37 51 72q188 237 498 237l389 -6h5q90 0 625 6h43q81 0 95 -14l7 -10l3 -25v-2v-306q0 -16 -47 -17l-32 3l-17 6q-5 3 -5 8q0 130 -99 205q-60 46 -125 49q-43 2 -296 10q-22 0 -26 -30q-1 -5 -1 -10v-509q6 -27 29 -29h136q121 0 122 91v99 q0 14 52 14q28 0 43 -5q10 -4 10 -9q-7 -67 -7 -233q0 -162 7 -225q0 -15 -52 -15q-27 0 -42 5q-11 4 -11 10v86q0 89 -122 89h-136q-29 0 -29 -31v-341q0 -76 74 -115q40 -21 82 -21h5l218 5q158 5 205 137q18 50 18 116q0 17 47 18l32 -3q23 -5 23 -15v-287q0 -42 -15 -52 l-18 -8q-20 -4 -84 -4l-705 7h-2q-24 0 -286 -9q-67 -2 -117 -2q-132 0 -272 59q-64 27 -118 63q-114 74 -190 213q-85 156 -85 337zM326 718q0 -294 150 -482q91 -113 198 -147q31 -9 57 -9q127 0 179 17q87 27 87 105v954q0 109 -218 115q-18 1 -63 1q-138 0 -246 -122 q-119 -134 -140 -350q-4 -40 -4 -82z" />
<glyph unicode="&#x153;" horiz-adv-x="1548" d="M53 424q0 170 110 295q112 128 285 148q28 3 56 3q205 0 330 -139l6 -6q94 109 216 137q33 8 64 8q160 0 271 -114q65 -67 76 -130l1 -14q0 -75 -90 -75h-411q-11 0 -11 -27q0 -194 76 -304q64 -93 168 -93q77 0 156 47q27 16 30 18l10 2q22 -1 40 -30q6 -10 7 -19 l-2 -10l-1 -2q-61 -66 -155 -107q-84 -37 -171 -37q-130 0 -237 106q-15 15 -29 32q-119 -136 -342 -136q-184 0 -313 121q-119 112 -137 275q-3 26 -3 51zM307 420q0 -185 73 -287q52 -72 124 -72q95 0 150 115q48 99 48 244q0 185 -71 293q-52 80 -125 80q-83 0 -140 -105 q-59 -109 -59 -268zM969 637q4 -10 20 -10h234q21 0 22 14v10q-8 82 -65 121q-28 19 -58 19q-133 0 -153 -138v-16z" />
<glyph unicode="&#x178;" horiz-adv-x="1325" d="M-28 1316q0 47 15 47q47 -5 261 -5q216 0 266 5q14 0 14 -46q0 -47 -14 -47q-110 0 -110 -53q0 -31 20 -63l254 -405q11 -17 20 -17q10 0 22 19l268 395q23 34 23 60q0 64 -105 64q-15 0 -15 46q0 47 15 47q45 -5 221 -5q185 0 233 5q14 0 14 -46q0 -47 -14 -47 q-108 0 -179 -68l-33 -35l-337 -481q-38 -56 -45 -78q-8 -28 -8 -109v-297q0 -116 148 -116q13 0 13 -46q0 -47 -13 -47q-65 7 -266 7q-200 0 -273 -7q-14 0 -14 46q0 47 14 47q147 0 147 116v292q0 68 -10 94q-8 22 -55 96l-298 470q-52 82 -101 104q-28 12 -63 12 q-15 0 -15 46zM362 1672q0 74 57 110q32 20 72 20q68 0 104 -54q21 -32 21 -66q0 -80 -60 -114q-29 -18 -65 -18q-84 0 -116 64q-12 24 -13 58zM792 1672q0 74 57 110q32 20 72 20q67 0 104 -54q21 -30 21 -66q0 -80 -60 -114q-29 -18 -65 -18q-84 0 -116 64q-12 24 -13 58z " />
<glyph unicode="&#x2c6;" horiz-adv-x="778" d="M109 1055q0 4 2 8l229 412q16 31 48 31q34 0 50 -31l230 -412q2 -4 2 -8q0 -12 -19 -24q-18 -11 -28 -11q-6 0 -9 4l-182 213q-25 28 -42 28q-19 0 -44 -28l-182 -213q-4 -4 -10 -4q-10 0 -26 10q-19 13 -19 25z" />
<glyph unicode="&#x2dc;" horiz-adv-x="581" d="M-26 1088q0 3 2 5q106 160 218 160q50 0 133 -33q75 -27 110 -27q64 0 122 62q2 3 6 3q8 0 24 -13q18 -16 18 -27q0 -3 -2 -6q-110 -164 -219 -164q-41 0 -127 31q-94 33 -127 33q-63 0 -112 -59q-3 -3 -8 -3q-9 0 -23 14q-15 15 -15 24z" />
<glyph unicode="&#x2000;" horiz-adv-x="948" />
<glyph unicode="&#x2001;" horiz-adv-x="1897" />
<glyph unicode="&#x2002;" horiz-adv-x="948" />
<glyph unicode="&#x2003;" horiz-adv-x="1897" />
<glyph unicode="&#x2004;" horiz-adv-x="632" />
<glyph unicode="&#x2005;" horiz-adv-x="474" />
<glyph unicode="&#x2006;" horiz-adv-x="316" />
<glyph unicode="&#x2007;" horiz-adv-x="316" />
<glyph unicode="&#x2008;" horiz-adv-x="237" />
<glyph unicode="&#x2009;" horiz-adv-x="379" />
<glyph unicode="&#x200a;" horiz-adv-x="105" />
<glyph unicode="&#x2010;" horiz-adv-x="827" d="M106 544.5q0 65.5 19 65.5h573q20 0 20 -65.5t-22 -65.5h-571q-19 0 -19 65.5z" />
<glyph unicode="&#x2011;" horiz-adv-x="827" d="M106 544.5q0 65.5 19 65.5h573q20 0 20 -65.5t-22 -65.5h-571q-19 0 -19 65.5z" />
<glyph unicode="&#x2012;" horiz-adv-x="827" d="M106 544.5q0 65.5 19 65.5h573q20 0 20 -65.5t-22 -65.5h-571q-19 0 -19 65.5z" />
<glyph unicode="&#x2013;" horiz-adv-x="1024" d="M16 529.5q0 66.5 15 66.5h962q15 0 15 -66.5t-15 -66.5h-962q-15 0 -15 66.5z" />
<glyph unicode="&#x2014;" horiz-adv-x="2048" d="M16 529.5q0 66.5 15 66.5h1986q15 0 15 -66.5t-15 -66.5h-1986q-15 0 -15 66.5z" />
<glyph unicode="&#x2018;" horiz-adv-x="430" d="M27 1133q0 155 159 280q61 47 115 70h12q15 -5 22 -22l1 -11q0 -2 -2 -4q-69 -54 -102 -143q-17 -47 -17 -93q0 -27 14 -32q63 -25 88 -63q21 -33 21 -77q0 -57 -56 -88q-37 -20 -87 -20q-66 0 -117 59t-51 144z" />
<glyph unicode="&#x2019;" horiz-adv-x="430" d="M76 1362q0 59 56 90q37 21 87 21q66 0 117 -59t51 -144q0 -154 -156 -278q-63 -50 -118 -72l-11 -1q-13 3 -21 17l-3 13q0 3 2 5q70 60 101 150q16 45 16 88q0 26 -13 31q-45 20 -61 34q-47 39 -47 105z" />
<glyph unicode="&#x201a;" horiz-adv-x="430" d="M74 145q0 62 59 93q36 18 84 18q64 0 115 -58q51 -59 51 -145q0 -154 -156 -278q-62 -50 -118 -72l-11 -1q-16 4 -23 23l-1 10q1 2 2 3q72 59 103 149q16 45 16 88q0 26 -15 31q-45 21 -63 36q-43 39 -43 103z" />
<glyph unicode="&#x201c;" horiz-adv-x="884" d="M68 1133q0 155 158 279q61 48 116 71h11q15 -5 22 -22l2 -11q0 -2 -2 -4q-69 -54 -102 -143q-17 -47 -17 -93q0 -27 14 -32q63 -25 88 -63q21 -33 21 -77q0 -57 -56 -88q-37 -20 -87 -20q-66 0 -117 59t-51 144zM477 1133q0 155 158 279q62 48 117 71h11q15 -5 22 -22 l1 -11q0 -2 -2 -4q-69 -54 -101 -144q-17 -47 -17 -92q0 -27 14 -32q56 -23 80 -53l15 -25q13 -28 13 -62q0 -57 -56 -88l-31 -12q-26 -8 -56 -8q-66 0 -117 59t-51 144z" />
<glyph unicode="&#x201d;" horiz-adv-x="884" d="M90 949q0 3 2 5q71 57 103 148q16 46 16 90q0 26 -14 31q-49 21 -69 41q-38 38 -38 98q0 61 58 92q36 19 85 19q64 0 115 -58q33 -39 45 -91q6 -26 6 -54q0 -154 -152 -276q-65 -52 -122 -74l-11 -1q-13 3 -21 17zM479 948q0 4 2 6q71 57 103 148q16 46 16 90 q0 26 -14 31q-49 21 -69 41q-38 38 -38 98t58 91q36 20 86 20q64 0 114 -58q33 -39 45 -92q6 -26 6 -53q0 -154 -152 -276q-65 -52 -122 -74l-11 -1q-6 1 -12 6q-12 11 -12 23z" />
<glyph unicode="&#x201e;" horiz-adv-x="884" d="M114 -266q1 3 3 4q72 59 103 149q16 45 16 88q0 26 -15 31q-45 21 -63 36q-43 39 -43 103q0 62 59 93q36 18 84 18q64 0 115 -58q51 -59 51 -145q0 -154 -156 -278q-62 -50 -118 -72l-11 -1q-16 4 -23 22zM504 145q0 62 59 93q36 18 84 18q64 0 115 -58q51 -59 51 -145 q0 -154 -156 -278q-62 -50 -118 -72l-11 -1q-6 2 -11 6q-14 12 -13 24q0 4 2 6q72 59 103 149q16 45 16 88q0 26 -15 31q-45 21 -63 36q-43 39 -43 103z" />
<glyph unicode="&#x2022;" horiz-adv-x="808" d="M86 688q0 135 93 228q92 92 224 92q133 0 226 -93q94 -94 94 -227q0 -136 -95 -230q-93 -91 -225 -91t-224 93q-93 93 -93 228z" />
<glyph unicode="&#x202f;" horiz-adv-x="379" />
<glyph unicode="&#x2039;" horiz-adv-x="532" d="M75 436.5q0 18.5 17 37.5l317 359q12 14 32 -3t14 -28l-167 -334q-8 -18 -8 -29.5t6 -23.5l169 -348q7 -15 -14 -29.5t-32 -1.5l-317 363q-17 19 -17 37.5z" />
<glyph unicode="&#x203a;" horiz-adv-x="532" d="M75 67l169 348q6 12 6 23.5t-8 29.5l-167 334q-6 11 14 28t32 3l317 -359q17 -19 17 -37.5t-17 -37.5l-317 -363q-11 -13 -32 1.5t-14 29.5z" />
<glyph unicode="&#x205f;" horiz-adv-x="474" />
<glyph unicode="&#x20ac;" horiz-adv-x="1261" d="M-43 550.5q0 65.5 19 65.5h80q-1 25 -1 51q0 34 2 66h-81q-19 0 -19 65.5t19 65.5h102q51 209 216.5 365t401.5 156q136 0 249 -42.5t159.5 -94t46.5 -90.5q0 -31 -30.5 -54t-67.5 -23q-54 0 -93 47l-57 68q-43 52 -97 76.5t-115 24.5q-133 0 -228.5 -131.5 t-122.5 -301.5h568q20 0 20 -65.5t-22 -65.5h-578v-21q0 -47 7 -96h573q20 0 20 -65.5t-22 -65.5h-542q50 -159 134 -269t229 -110q121 1 209.5 39t132 67t46.5 29q11 0 23 -24.5t12 -33t-8 -15.5q-137 -113 -237 -154t-212 -41q-227 0 -402 140t-220 372h-95 q-19 0 -19 65.5z" />
<glyph unicode="&#x2122;" horiz-adv-x="1902" d="M55 1221v159q0 19 11 23q10 4 49 4l339 -4h15l359 4h1q48 0 54 -11l2 -16v-159q0 -9 -27 -10l-22 3l-6 5q-1 1 -1 2q0 77 -76 116q-24 12 -48 15l-152 6q-15 0 -18 -17v-553q0 -63 92 -63q9 0 9 -24l-3 -19q-2 -6 -6 -6q-42 4 -156 4q-122 0 -164 -4q-9 0 -9 24l3 19 q2 6 6 6q96 0 96 63v553q0 15 -14 17l-160 -8q-37 -2 -75 -36q-43 -39 -43 -93q0 -10 -28 -10q-19 0 -26 6q-2 2 -2 4zM898 700l3 19q2 6 6 6q72 0 80 53q2 7 2 15l33 485l-1 31q-7 41 -57 47l-34 2q-9 0 -9 25l3 20q2 6 6 6q40 -4 92 -4q65 0 74 -2q41 -7 59 -43l240 -481 q5 -11 8 -12l4 3q2 2 6 9l248 485q21 39 54 41h44q54 0 94 4q9 0 10 -24l-3 -19q-2 -5 -7 -6q-63 0 -77 -35l-6 -26l-1 -17l5 -491q0 -43 31 -57q21 -9 57 -9q9 0 9 -24l-3 -19q-2 -6 -6 -6q-42 4 -156 4q-105 0 -145 -4q-9 0 -10 24l3 19q3 6 7 6q81 0 81 66l-2 358 q0 11 -3 11l-5 -2l-4 -7l-244 -471q-8 -12 -26 -12q-20 0 -27 14l-244 516q-5 10 -9 11l-3 -3q-2 -4 -2 -12l-29 -403l3 -22q14 -44 90 -44q9 0 9 -24l-3 -19q-2 -6 -6 -6q-42 4 -123 4q-65 0 -107 -4q-9 0 -9 24z" />
<glyph unicode="&#x25fc;" horiz-adv-x="855" d="M0 0v855h855v-855h-855z" />
</font>
</defs>
</svg>
