<?xml version="1.0" standalone="no"?>
<!DOCTYPE svg PUBLIC "-//W3C//DTD SVG 1.1//EN" "http://www.w3.org/Graphics/SVG/1.1/DTD/svg11.dtd" >
<svg>
<metadata>
Created by FontForge 20090622 at Tue Mar 20 10:08:04 2018
 By deploy user
Copyright (c) 2010 by Sorkin Type Co with Reserved Font Name Pinyon Script.This Font Software is licensed under the SIL Open Font License, Version 1.1. This license is copied below, and is also available with a FAQ at: http://scripts.sil.org/OFL
</metadata>
<defs>
<font id="PinyonScript" horiz-adv-x="0" >
  <font-face 
    font-family="Pinyon Script"
    font-weight="400"
    font-stretch="normal"
    units-per-em="2048"
    panose-1="2 1 5 1 8 1 1 13 0 2"
    ascent="1638"
    descent="-410"
    x-height="679"
    cap-height="1392"
    bbox="-1259 -787 2780 1768"
    underline-thickness="44"
    underline-position="-83"
    unicode-range="U+0001-U+FB01"
  />
<missing-glyph horiz-adv-x="376" 
 />
    <glyph glyph-name=".notdef" horiz-adv-x="376" 
 />
    <glyph glyph-name=".null" 
 />
    <glyph glyph-name="nonmarkingreturn" 
 />
    <glyph glyph-name="uni0001" 
 />
    <glyph glyph-name="uni0002" 
 />
    <glyph glyph-name="uni0003" 
 />
    <glyph glyph-name="uni0004" 
 />
    <glyph glyph-name="uni0005" 
 />
    <glyph glyph-name="uni0006" 
 />
    <glyph glyph-name="uni0007" 
 />
    <glyph glyph-name="uni0008" 
 />
    <glyph glyph-name="uni0009" unicode="&#x9;" 
 />
    <glyph glyph-name="uni0010" 
 />
    <glyph glyph-name="uni0011" 
 />
    <glyph glyph-name="uni0012" 
 />
    <glyph glyph-name="uni0013" 
 />
    <glyph glyph-name="uni0014" 
 />
    <glyph glyph-name="uni0015" 
 />
    <glyph glyph-name="uni0016" 
 />
    <glyph glyph-name="uni0017" 
 />
    <glyph glyph-name="uni0018" 
 />
    <glyph glyph-name="uni0019" 
 />
    <glyph glyph-name="space" unicode=" " horiz-adv-x="703" 
 />
    <glyph glyph-name="exclam" unicode="!" horiz-adv-x="807" 
d="M886 1279q43 -7 77 -5.5t42.5 1.5t18.5 1q21 1 36 3q-87 -97 -158 -185q-170 -216 -231 -305l-325 -458q-11 -16 -21.5 -16t-10.5 8q0 16 24 60l162 279l284 464zM137 16q-17 18 -17 40.5t8 39t22 29.5q31 29 66 29q66 0 66 -63q0 -57 -64 -85q-18 -8 -41 -8t-40 18z" />
    <glyph glyph-name="quotedbl" unicode="&#x22;" horiz-adv-x="1430" 
d="M1150 1175q0 9 26 56l118 215l11 22l13 27q48 90 75 114q40 34 77.5 35.5t48 -10t10.5 -27.5t-5.5 -29.5t-23.5 -37t-52 -62.5l-193 -223l-58 -63q-28 -28 -37.5 -28t-9.5 11zM793 1175q0 6 5 17l138 254q7 12 12 22l13 27q48 90 75 114q40 34 77.5 35.5t47.5 -10
t10 -27.5t-5.5 -29.5t-23.5 -37t-52 -62.5l-192 -223q-81 -91 -93 -91t-12 11z" />
    <glyph glyph-name="numbersign" unicode="#" horiz-adv-x="1270" 
d="M409 22q-10 2 -23 2q-19 0 -49 -2l363 509h-221l-363 -509q-10 2 -22 2q-20 0 -48 -2l363 509h-191l23 27q9 11 17 26h189l170 239h-219l23 28q9 11 18 25h216l354 497q17 -5 30 -5q30 0 39 3l-353 -495h221l355 497q17 -5 34 -5q26 0 35 3l-353 -495h180
q-25 -34 -29 -53h-189l-170 -239h208q-24 -34 -29 -53h-217zM738 584l170 239h-221l-170 -239h221z" />
    <glyph glyph-name="dollar" unicode="$" horiz-adv-x="975" 
d="M168 22l-14 2q-20 0 -24 -2l200 269q-83 31 -83 105q0 38 21 68t48 34q58 10 58 -37q0 -22 -14 -38t-35.5 -19.5t-37.5 12.5v-15q0 -57 63 -83l291 391q-3 9 -13 31q-26 59 -26 118t20.5 105.5t57.5 84.5q82 86 203 105q44 6 88 -1l169 227q9 -3 18 -3q11 0 21 2
l-175 -234q95 -31 95 -107q0 -60 -45 -90q-38 -25 -60 -10.5t-22 36t13.5 37.5t35 20t38.5 -12q1 4 1 22t-20 41.5t-55 37.5l-225 -302q40 -87 40 -151.5t-29.5 -131t-77.5 -119.5q-102 -112 -239 -135q-50 -7 -93 2zM953 1128q-31 6 -66.5 1t-64 -22.5t-52.5 -42.5
q-52 -54 -52 -104t28 -112zM381 309q33 -7 72.5 -1t79 25t73.5 51q78 72 78 168q0 48 -30 124z" />
    <glyph glyph-name="percent" unicode="%" horiz-adv-x="1594" 
d="M559.5 849q-52.5 -19 -98 -19t-73.5 12t-46 32q-34 36 -34 81.5t18.5 91.5t51.5 93t77.5 91t96.5 78q113 75 220 75q59 0 90 -32t31 -81.5t-18 -101t-49.5 -100.5t-74 -92.5t-91 -76t-101 -51.5zM1236 1373q18 -5 27 -5q26 0 35 3l-980 -1376q-11 3 -24 3q-20 0 -41 -3z
M416 928q0 -66 68 -66q74 0 166 66q140 100 196 246q17 47 17 91q0 82 -64 82q-113 0 -275 -188q-54 -63 -81 -126t-27 -105zM702 84q-9 24 -9 54.5t19 76.5t52 92.5t77.5 91t96.5 78.5q115 75 220 75q59 0 90 -32.5t31 -82t-18 -100.5t-49.5 -100t-74 -92.5t-91.5 -76.5
q-105 -70 -205 -70q-108 0 -139 86zM1248 432q0 82 -62 82q-104 0 -276 -199q-109 -127 -109 -222q0 -65 70 -65q73 0 165 66q139 102 194 248q18 47 18 90z" />
    <glyph glyph-name="ampersand" unicode="&#x26;" horiz-adv-x="1452" 
d="M471 18q-30 6 -66 6q-55 0 -95 -5l84 140q-124 98 -162 251q-12 50 -12 105t14.5 103.5t40.5 84.5q55 76 137 76q63 0 108 -55q50 -61 50 -160q0 -83 -65 -242q-20 -49 -45 -98q239 369 498 629l135 131q18 16 29 16t11 -8q0 -9 -54.5 -61.5t-133.5 -147t-155 -201.5
q-160 -228 -273 -463q63 -26 128 -26q131 0 227 81q90 81 90 179q0 5 -2 15q-40 2 -40 36q0 11 8.5 20t25.5 9t30 -17t13 -64t-29 -103t-80 -97q-105 -86 -244 -86q-69 0 -139 28zM409 188q131 243 131 387q0 114 -74 153q-21 11 -45.5 11t-51 -19t-47.5 -50
q-45 -70 -45 -164q0 -195 132 -318z" />
    <glyph glyph-name="quotesingle" unicode="'" horiz-adv-x="1072" 
d="M793 1175q0 6 5 17l138 254q7 12 12 22l13 27q48 90 75 114q40 34 77.5 35.5t47.5 -10t10 -27.5t-5.5 -29.5t-23.5 -37t-52 -62.5l-192 -223q-81 -91 -93 -91t-12 11z" />
    <glyph glyph-name="parenleft" unicode="(" horiz-adv-x="1412" 
d="M579 -165q-175 282 -96 649q78 360 379 636q195 178 442 286q29 13 39 13t10 -7t-2 -9t-16 -10q-397 -212 -603 -553q-193 -320 -183 -693q5 -133 55 -293q11 -38 -3 -41q-6 0 -22 22z" />
    <glyph glyph-name="parenright" unicode=")" horiz-adv-x="1412" 
d="M880 -48q-112 -72 -188.5 -105.5t-86.5 -33.5t-10 7t2 9t16 10q398 214 603 553q193 319 183 693q-5 133 -55 293q-11 38 3 41q6 0 22 -22q113 -182 118 -403q12 -371 -229 -692q-150 -201 -378 -350z" />
    <glyph glyph-name="asterisk" unicode="*" horiz-adv-x="1060" 
d="M853 1352q37 -65 52 -82l-49 -24q-119 -55 -202 -103q123 -65 184 -78q-14 -17 -34.5 -39t-38.5 -48l-63 76q-31 35 -69 71q-11 -22 -23 -51l-24 -58q-23 -61 -38 -115q-8 1 -20.5 3.5t-26.5 4.5q-35 5 -56 5q114 140 165 217q-42 -9 -95 -23l-85 -24q-33 -9 -58 -18
l10 47q7 29 8 55l99 -7q56 -4 130 -2q-17 95 -56 183q52 23 104 51l-5 -41q-11 -76 -18 -188q95 72 141 119z" />
    <glyph glyph-name="plus" unicode="+" horiz-adv-x="937" 
d="M329 172q-20 4 -30 4q-19 0 -35 -4l180 293h-272q31 35 41 55h265l170 277q20 -4 29 -4q14 0 40 4l-172 -277h276q-14 -14 -21 -26l-19 -29h-270z" />
    <glyph glyph-name="comma" unicode="," horiz-adv-x="726" 
d="M-46 -213q-14 0 -14 12q0 11 24 18t53.5 27.5t54.5 45.5q58 56 58 81q0 37 -8 59q-11 35 -11 55t7 36t20 29q29 32 69 32q64 0 64 -77q0 -119 -166 -248q-92 -70 -151 -70z" />
    <glyph glyph-name="hyphen" unicode="-" horiz-adv-x="1068" 
d="M326 461q13 13 18.5 31t10.5 26h381q-24 -31 -28 -57h-382z" />
    <glyph glyph-name="period" unicode="." horiz-adv-x="726" 
d="M99 18.5q-20 20.5 -20 47.5t9.5 46.5t25.5 35.5q36 34 77 34q79 0 79 -74q0 -42 -28 -67q-47 -43 -85 -43t-58 20.5z" />
    <glyph glyph-name="slash" unicode="/" horiz-adv-x="832" 
d="M76 -106q-10 2 -22 2q-22 0 -48 -2l1060 1488q14 -6 33 -6q8 0 20.5 1t17.5 1z" />
    <glyph glyph-name="zero" unicode="0" horiz-adv-x="1273" 
d="M237.5 78.5q-58.5 83.5 -58.5 217t40.5 261t109.5 249.5t160.5 231t194.5 191q223 180 416 180q116 0 176 -90q56 -83 56 -234q0 -263 -180 -552q-176 -286 -420 -434q-171 -103 -327 -103q-109 0 -167.5 83.5zM288 225q0 -203 142 -203q158 0 388 205q237 212 365 497
q94 208 94 405q0 202 -105 243q-32 12 -78.5 12t-110 -34.5t-130.5 -94t-135 -139t-131 -171t-117.5 -189t-95.5 -192.5q-86 -201 -86 -339z" />
    <glyph glyph-name="one" unicode="1" horiz-adv-x="987" 
d="M1128 1414.5q9 9.5 21 9.5t12 -15t-33.5 -58.5t-80.5 -118.5l-107 -176l-130 -226l-143 -258l-147 -276l-143 -278q-9 0 -23 1l-62 4q-15 1 -35 1q-52 0 -85 -11l321 471l320 488q-218 -224 -298.5 -290.5t-114.5 -90.5q-75 -54 -98 -54t-23 20t34 31l21 10
q91 43 274 218l149 148l143 155q146 165 199 254q20 32 29 41.5z" />
    <glyph glyph-name="two" unicode="2" horiz-adv-x="1444" 
d="M1195 336q15 0 15 -22.5t-9.5 -48t-25.5 -53.5q-125 -214 -328 -214q-96 0 -187 74q-119 97 -248 97q-98 0 -208 -60t-150 -132q-2 -4 -3 -10t-4 -13q-5 -12 -25 -12q-11 0 -11 24t26.5 68.5t86.5 98.5q142 129 441 276q324 161 503 381q164 202 164 396q0 162 -88 188
q-28 9 -82 9t-125 -32.5t-137 -85.5t-124 -119t-101 -133q-93 -145 -93 -234q0 -42 24 -69.5t67 -27.5t85 16.5t84 46.5q90 63 161 166q11 18 21.5 18t10.5 -8.5t-11 -27t-32 -43.5q-45 -56 -105 -104q-112 -91 -209 -91t-139 55q-29 37 -29 99t26.5 131t72.5 135.5t110 127
t139 107.5q162 100 327 100q134 0 209 -80q69 -72 69 -182.5t-47 -210.5t-138 -195q-185 -193 -525 -343q-305 -136 -361 -172q-84 -55 -135 -104q167 93 303 107q46 4 106 4q124 0 229 -69q87 -57 136.5 -57t85 12t66.5 36q68 51 98 138q6 14 6 28t8 14z" />
    <glyph glyph-name="three" unicode="3" horiz-adv-x="1338" 
d="M1035 1410q294 0 294 -251q0 -121 -125 -261q-141 -160 -372 -255q121 24 200 -32q81 -58 81 -176q0 -129 -120 -285q-125 -164 -310 -269q-209 -119 -425 -119q-138 0 -253 64q-110 60 -110 125q0 29 17.5 48t45 19t44.5 -19t17 -49t-5 -60q44 -71 170 -98q36 -7 97 -7
t148.5 28.5t166.5 78.5t146.5 119t116.5 150q105 174 105 354q0 96 -98 96q-85 0 -151 -33q-115 -59 -159 -125q-7 -11 -9.5 -19t-8 -24t-23 -16t-17.5 21q0 28 26.5 55.5t51.5 49t58 42.5q57 38 172 96.5t188.5 125t118.5 137.5q83 131 83 282q0 145 -96 171q-30 9 -77.5 9
t-110 -29.5t-123 -77.5t-115 -110t-96.5 -127q-90 -142 -90 -235.5t73 -93.5q69 0 161 74q134 108 200 272q21 50 25.5 83t13.5 33t9 -39t-20.5 -95t-55 -107.5t-78 -97t-90.5 -79.5q-99 -71 -174 -71q-102 0 -135 87q-11 28 -11 75.5t26.5 112.5t73 129t108 122.5
t131.5 102.5q153 98 290 98z" />
    <glyph glyph-name="four" unicode="4" horiz-adv-x="1577" 
d="M1127 446q-54 0 -102 7q-191 -272 -257.5 -389.5t-94.5 -178.5l-136 72q34 55 77 118q126 175 189 255l118 147q-186 56 -253.5 79t-120.5 39q-137 -93 -248 -101q-32 -3 -82 -3t-93.5 20t-43.5 49t21.5 47.5t55.5 30.5q64 21 160 21t188 -19q53 46 109 104
q152 163 217 244l117 148l94 132l77 118q42 5 76 10l63 9q65 9 104.5 9t39.5 -12q0 -8 -31 -20.5t-49 -24t-37 -27.5t-41 -38l-54 -53q-18 -18 -54 -58l-186 -207q-161 -171 -224 -231t-114 -100l-28 -22q143 -38 216 -59l155 -44l139 158q229 247 361 315l23 11q14 6 23 6
t9 -7q0 -9 -29 -29.5t-78 -67.5t-106 -110.5l-119 -139.5l-123 -160q61 -14 116 -14t93.5 4.5t72.5 11.5q100 23 154 67q17 14 27 14t10 -6.5t-9 -14.5l-23 -20q-112 -90 -369 -90zM144 557q0 -41 107 -41q96 0 197 78l27 21q-87 20 -165.5 20t-122 -22t-43.5 -56z" />
    <glyph glyph-name="five" unicode="5" horiz-adv-x="1231" 
d="M498 789q81 47 172.5 47t151.5 -21.5t101 -62.5q85 -86 79 -245q-8 -195 -152 -389q-140 -190 -354 -310q-227 -125 -454 -125q-165 0 -267 59q-71 45 -71 93q0 14 8 22t20 8q18 0 25 -17q13 -31 28 -52q57 -84 263 -84q205 0 402 148q179 133 298 340q117 203 117 381
q0 166 -119 203q-38 11 -89 11t-106 -17.5t-105 -47.5q-104 -63 -161 -155q-18 -28 -26 -26q-16 4 -13 15t16.5 31.5t33.5 44.5q45 52 94 90q275 491 358 666l83 4q-2 -3 -7 -13l-10 -24l-16 -31l-18 -35q122 113 246 113q42 0 103 -20t94.5 -20t56.5 3t45 13q56 25 96 90
q4 7 7.5 15.5t12.5 8.5t9 -7q0 -15 -15 -44t-48.5 -67.5t-76.5 -66.5q-94 -60 -211 -60q-50 0 -94 13q-87 27 -120 27t-72 -17.5t-66 -46.5l-223 -399z" />
    <glyph glyph-name="six" unicode="6" horiz-adv-x="1400" 
d="M588.5 496.5q0.5 35.5 18 87.5t47.5 100.5t70.5 91t87.5 74.5q101 67 198 67t145 -54t46 -152.5t-35.5 -190t-88 -171t-125 -145t-146.5 -112.5q-161 -97 -298 -97q-129 0 -193 98q-59 91 -55 248q6 241 196 525q120 181 281 318q263 226 508 226q107 0 168 -46
q54 -42 52 -94q0 -50 -22 -77q-38 -46 -74.5 -46t-54 19t-16.5 52t48 61q33 17 34 41.5t-33 43.5t-107 19t-155.5 -35t-159.5 -95.5t-147 -142t-130.5 -173.5t-110 -190t-84.5 -192q-74 -199 -76 -312.5t28.5 -166t85 -52.5t101.5 16.5t100 56.5q110 83 241 269
q112 162 151 318q13 49 14 92q1 115 -91 115q-54 0 -118 -44.5t-104.5 -83t-75.5 -83.5q-78 -100 -93 -192q-5 -27 -16.5 -27t-11 35.5z" />
    <glyph glyph-name="seven" unicode="7" horiz-adv-x="1187" 
d="M675 -520q11 -11 11 -18t-8 -7q-7 0 -36 17t-66 57.5t-68 98.5q-69 131 -69 275t46 288t136 300q184 319 533 656l110 104q-96 -59 -199 -59q-65 0 -100.5 21t-56.5 35l-37 24q-50 33 -88.5 33t-65 -1.5t-55.5 -11.5q-70 -24 -117 -90q-122 -202 -203 -276
q-23 -21 -34.5 -21t-11.5 7q0 8 25.5 34.5t59.5 70t67 98.5q79 132 95 251q2 20 5.5 29t14.5 9q18 0 18 -22q0 -45 -20 -115q118 143 285 143q85 0 163 -50l52 -35q65 -44 144 -44q60 0 92.5 20t54.5 41l52 47q22 17 41.5 17t19.5 -16q0 -9 -7 -15.5t-22 -17t-37 -28.5
l-127 -113l-86 -82q-475 -469 -594 -937q-37 -148 -37 -251.5t8.5 -165.5t22.5 -114q33 -130 89 -186z" />
    <glyph glyph-name="eight" unicode="8" horiz-adv-x="1310" 
d="M677 791q-92 162 -92 268q0 131 118 237q126 114 301 114q136 0 207 -68q62 -59 62 -139t-32.5 -146t-88.5 -122q-117 -118 -287 -165l3 -3l54 -85q102 -164 102 -289q0 -164 -148 -283q-143 -115 -321 -115q-176 0 -266 90q-82 82 -82 216q0 154 138 291
q130 128 332 199zM850 793q139 37 244 155q109 122 109 250q0 125 -103 169q-38 16 -86.5 16t-98.5 -17.5t-93 -52.5q-99 -82 -99 -205q0 -124 127 -315zM307 326q0 -73 20 -130t56 -96q72 -77 193 -77q114 0 206 88q98 95 98 226q0 73 -19 122q-32 83 -78 157l-91 149
q-171 -58 -278 -177q-107 -120 -107 -262z" />
    <glyph glyph-name="nine" unicode="9" horiz-adv-x="1361" 
d="M1141 830q-227 -261 -422 -261q-128 0 -203 76q-79 80 -63 211q14 139 99 272q124 193 330 259q66 21 142 21t137 -26t99 -76q114 -148 27 -462q-83 -299 -291 -536q-144 -166 -318 -252q-118 -58 -251 -58q-124 0 -205 60q-76 56 -76 127q2 37 24 61t49 24t39.5 -5.5
t19.5 -14.5q15 -17 15 -34q0 -21 -13.5 -41t-14 -41t14 -40t38.5 -34q53 -36 135 -36t183 57t192 162q188 215 313 587zM829.5 618.5q57.5 25.5 112.5 69t104 101t86 121.5q81 142 83 263q6 167 -97 195q-35 10 -85 10t-106.5 -30.5t-110.5 -80.5t-102 -115t-84 -134
q-142 -273 -41 -379q44 -46 113.5 -46t127 25.5z" />
    <glyph glyph-name="colon" unicode=":" horiz-adv-x="726" 
d="M106.5 477q-21.5 -9 -48 -9t-46.5 20.5t-20 47.5t9.5 46.5t25.5 35.5q36 34 77 34q79 0 79 -74q0 -42 -27.5 -67t-49 -34zM-50 185.5q19 -20.5 19 -47.5t-10.5 -47t-27.5 -35q-37 -34 -75 -34t-58 20.5t-20 47.5t9.5 46.5t25.5 35.5q36 34 77 34t60 -20.5z" />
    <glyph glyph-name="semicolon" unicode=";" horiz-adv-x="726" 
d="M106.5 477q-21.5 -9 -48 -9t-46.5 20.5t-20 47.5t9.5 46.5t25.5 35.5q36 34 77 34q79 0 79 -74q0 -42 -27.5 -67t-49 -34zM-94 206q64 0 64 -77q0 -119 -166 -248q-60 -46 -98.5 -58t-52.5 -12t-14 12q0 11 24 18t53.5 27.5t54.5 45.5q58 56 58 81q0 37 -7 59
q-12 35 -12 55t7 36t19 29q30 32 70 32z" />
    <glyph glyph-name="less" unicode="&#x3c;" horiz-adv-x="902" 
d="M699 752q6 -23 26 -50l-463 -210l391 -202l-23 -20l-20 -20l-465 244z" />
    <glyph glyph-name="equal" unicode="=" horiz-adv-x="1015" 
d="M919 660q-24 -31 -29 -57h-605q16 17 22 30t14 27h598zM172 401q9 10 35 56h597q-20 -31 -29 -56h-603z" />
    <glyph glyph-name="greater" unicode="&#x3e;" horiz-adv-x="943" 
d="M523 154q-6 23 -26 50l462 210l-390 202l23 20l20 20l465 -244z" />
    <glyph glyph-name="question" unicode="?" horiz-adv-x="872" 
d="M407 322q-10 -15 -24 -15t-14 15t12 31t45 57q102 125 142 170q101 111 166 175t106 112t66 91q49 80 49 156t-35.5 111t-79.5 35t-72 -8t-52 -21q-43 -24 -68 -62q-31 -47 -33 -94q-5 -90 -72 -90q-23 0 -37 16.5t-14 43.5t29.5 69t78.5 80q119 91 250 91q87 0 156 -50
q74 -54 74 -136q0 -72 -38 -126q-69 -98 -259 -249q-156 -122 -288 -276q-69 -80 -73.5 -95.5t-14.5 -30.5zM180.5 16q-17.5 18 -17.5 40.5t8 39t22 29.5q31 29 66 29q68 0 68 -63q0 -56 -65 -85q-18 -8 -41 -8t-40.5 18z" />
    <glyph glyph-name="at" unicode="@" horiz-adv-x="1439" 
d="M1115 193l1 -17q0 -104 -98 -214q-156 -172 -410 -232q-85 -20 -181.5 -20t-172 30t-124.5 78q-94 95 -94 236q0 165 114 340q188 285 522 384q115 34 218 34t166 -23t108 -62q92 -81 92 -196q0 -179 -141 -338zM1103 239q96 134 96 277q0 192 -167 254q-56 20 -152 20
t-201.5 -35.5t-194.5 -94.5t-160.5 -135.5t-121.5 -158.5q-103 -167 -103 -312q0 -131 83 -218q95 -99 260 -99q238 0 438 137q123 85 176 187q27 51 29 101q-168 -164 -347 -164q-57 0 -84.5 18.5t-27.5 39.5t2.5 32.5t11.5 27.5q18 33 70 94l-5 3q-100 -115 -179 -165
t-126 -50t-73 28.5t-26 78.5q0 118 95 224q178 205 381 205q42 0 65 -18t23 -41.5t-7 -43.5l40 45q18 20 33 39q16 -4 45 -4q53 0 75 2l-260 -311q-71 -85 -79.5 -109t-8.5 -34q0 -32 48 -32t89 13t83 37q88 51 158 134q-18 59 -74 87q-11 6 -11 15.5t12 9.5q18 0 50 -25
q31 -29 45 -59zM840 470q0 38 -49 38q-72 0 -209 -127q-48 -44 -102 -109q-107 -126 -107 -207q0 -43 35.5 -43t72 22.5t81.5 61.5q80 69 161 169l61 72q56 77 56 123z" />
    <glyph glyph-name="A" unicode="A" horiz-adv-x="1516" 
d="M750 199q-142 0 -264 38q-140 -116 -210 -161q-130 -81 -265 -81q-154 0 -199 89q-13 27 -13 53t9 42t22 25q27 19 63 19q50 0 50 -45q0 -20 -16.5 -34.5t-45 -14.5t-42.5 10v-7q0 -110 180 -110q125 0 283 110l149 117q-142 53 -227 150q-82 92 -88 203q-6 109 72 186
q82 81 222 81q195 0 328 -167q40 -51 68 -109q321 308 420 396l164 142q332 273 489 273q18 0 18 -6q0 -7 -16.5 -13t-36.5 -26t-58 -67l-98 -125l-677 -900q279 83 435 297q50 68 67 114q23 61 28 61q3 0 9.5 -8.5t5 -36t-14.5 -65t-33 -71.5q-33 -57 -109 -129
q-153 -149 -420 -204l-171 -226l-64 4q-32 2 -50.5 2t-31.5 -2l-28 -4l148 183q3 5 6 9.5t5 9.5q-32 -2 -63 -2zM840 562q41 -105 41 -180t-12 -118l371 449q367 427 455 520.5t130 132.5l-67 -28q-135 -59 -386 -276l-210 -190zM475 269l328 303q-83 189 -253 248
q-57 19 -111.5 19t-97 -19.5t-74.5 -51.5q-69 -69 -69 -164q0 -167 156 -275q52 -36 121 -60zM510 258q110 -31 246 -31q35 0 70 3q23 59 23 114q0 102 -33 195q-225 -212 -306 -281z" />
    <glyph glyph-name="B" unicode="B" horiz-adv-x="1599" 
d="M1088.5 692.5q29.5 5.5 79.5 5.5t104 -27q227 111 310 323q30 75 30 152t-42 131q-23 -13 -46 -29l-48 -34q-130 -98 -220 -194q-152 -161 -322.5 -390.5t-347 -380.5t-336.5 -217q-87 -34 -220 -34q-87 0 -150 42q-62 42 -62 102q0 63 62 80q16 4 32 4t32.5 -10.5
t16.5 -33t-16.5 -37t-45 -14.5t-42.5 10v-6q0 -49 48.5 -80t111.5 -31t102.5 9.5t86.5 36.5t105.5 76t138.5 128l185 194l247 270q351 398 666 565q-115 115 -380 115q-309 0 -610 -227q-145 -110 -240 -233q-96 -127 -96 -220q0 -85 84 -109q24 -7 67 -7t109.5 23t134 65
t131.5 100.5t116 129.5q115 153 138 320q6 32 15.5 32t9.5 -22q0 -184 -106 -346q-96 -146 -257 -236q-157 -88 -315 -88q-104 0 -143 78q-14 26 -14 85t39 142.5t107.5 161t162.5 145.5t203 119q235 109 490 109t402 -112q150 72 250 72q33 0 33 -10q0 -5 -18 -7.5
t-52 -10.5q-99 -21 -187 -67q94 -90 94 -222q0 -128 -120 -257q-111 -119 -276 -186q80 -71 80 -201q0 -111 -83 -215q-124 -156 -341 -209q-70 -17 -130 -17t-92 10.5t-51 26.5q-35 29 -35 68.5t21 80t57.5 80.5t86.5 77t107 65q127 63 246 63q21 0 21 -13t-41.5 -13
t-97 -15t-108.5 -41t-100 -60t-82 -71q-77 -80 -77 -148q0 -82 137 -82q96 0 202 72q170 114 232 318q20 68 20 125.5t-15 81.5q-103 -35 -173.5 -35t-94 15t-23.5 29t13.5 25.5t36.5 20.5t52.5 14.5zM1241 657q-31 18 -72.5 18t-62 -3t-36.5 -8q-33 -9 -33 -20
q0 -24 58 -24t146 37z" />
    <glyph glyph-name="C" unicode="C" horiz-adv-x="1350" 
d="M1468 1401q93 0 93 -74q0 -110 -170 -247q-162 -129 -398 -224q-248 -98 -457 -108q-309 -341 -309 -535q0 -154 146 -184q0 270 186 489q115 135 261 188q72 27 151.5 27t123.5 -38.5t44 -98.5t-25.5 -126.5t-71.5 -132.5t-111.5 -127.5t-145.5 -108.5
q-175 -103 -365 -103h-9q-4 0 -9 1q6 -174 59 -243q4 -5 4 -8v-5q0 -5 -9 -5q-38 0 -71 158q-10 48 -12 105q-147 20 -197 151q-16 43 -16 99q0 234 213 508q-168 38 -214 173q-14 42 -14 90t26 100.5t72.5 102t111 93.5t141.5 77q168 72 342 72q81 0 81 -17q0 -8 -13 -8
l-73 4q-211 0 -422 -142q-136 -91 -193 -205q-30 -59 -30 -105.5t13.5 -77t38.5 -56.5q54 -56 151 -78q210 260 509 436q312 183 568 183zM1537 1324q0 53 -78 53q-144 0 -413 -185q-262 -178 -485 -417q277 30 626 227q207 117 303 227q47 54 47 95zM402 25q7 -1 14 -1h15
q127 0 279 114q135 102 237 250q100 146 100 240q0 42 -22 60t-74.5 18t-115.5 -24t-124.5 -68t-117.5 -106t-99 -138q-92 -164 -92 -344v-1z" />
    <glyph glyph-name="D" unicode="D" horiz-adv-x="1733" 
d="M504 49q-163 -55 -358 -55q-134 0 -170 47q-10 13 -10 27.5t13.5 29.5t39.5 28q59 28 119 28t87 -3t59 -9q56 -12 112 -28.5t59 -16.5t7 -2q102 55 201.5 151.5t178.5 184.5l173 203l168 202l90 99q47 50 107.5 107t142.5 112q-134 206 -469 206q-187 0 -374 -104
q-169 -95 -280 -239q-109 -142 -109 -260q0 -72 49.5 -116t120.5 -44t137.5 24t136 65.5t137.5 97.5t122 120q119 141 128 269q3 23 11 23q12 0 12 -21q0 -143 -97 -285q-148 -219 -402 -296q-82 -25 -148 -25t-110 15t-78 43q-77 62 -77 144.5t29 156.5t82 141t127.5 124.5
t164.5 100.5q193 90 412 90q348 0 512 -206q228 144 409 152q15 0 15 -8t-5 -10.5t-28 -6.5q-176 -21 -357 -177q74 -123 74 -267t-33 -254t-91 -203.5t-138.5 -168.5t-175.5 -127q-200 -110 -419 -110q-136 0 -307 51zM551 67q127 -39 245 -39t214.5 27.5t184 78t162.5 123
t130 161.5q117 191 117 418q0 151 -49 258q-112 -104 -210 -245l-183 -257q-293 -400 -611 -525zM417 73q-148 38 -243 38t-137.5 -13t-42.5 -30q0 -42 169 -42q148 0 254 47z" />
    <glyph glyph-name="E" unicode="E" horiz-adv-x="1127" 
d="M343 -278.5q0 -6.5 -12 -6.5q-41 0 -67 123q-15 64 -17 134v29q-134 14 -217 87q-80 70 -82 174q-4 126 77 242q120 173 360 230q78 18 164 18h6q-27 37 -39 85q-157 34 -255.5 106.5t-141.5 169.5q-6 11 -6 24t9.5 13t19.5 -24q91 -204 369 -262q-1 5 -1 11v12
q-2 149 94 272q134 171 373 225q72 17 142 17q162 0 252 -57.5t90 -160.5q0 -77 -56 -144.5t-151 -117.5q-207 -108 -490 -108q-88 0 -164 10q10 -39 33 -75q98 -11 148.5 -39.5t51.5 -59.5q0 -32 -49 -32q-107 0 -200 99q-194 -21 -365 -176q-105 -97 -147 -204
q-21 -55 -19.5 -121t51 -119.5t145.5 -68.5q16 184 146 329q133 149 294 149q63 0 109.5 -41t46.5 -108t-41 -134.5t-113 -117.5q-155 -106 -378 -106l-36 1q-1 -8 -1 -15v-15q0 -102 34 -188q12 -32 22.5 -42.5t10.5 -17zM596 850q56 -8 140.5 -8t163.5 11.5t154.5 33.5
t142.5 54t117 73q110 90 110 199q0 71 -72 116q-75 47 -170.5 47t-163.5 -24t-130.5 -64t-115.5 -92t-92 -109q-84 -120 -84 -223v-14zM655 718q69 -78 141 -78q16 0 16 10t-12.5 20.5t-33.5 20.5q-49 23 -111 27zM278 24q20 -2 57 -2t93 18t109.5 47.5t101 68t83.5 80.5
q77 90 77 158q0 42 -31 64t-85 22t-122.5 -32.5t-128.5 -92.5q-135 -137 -154 -331z" />
    <glyph glyph-name="F" unicode="F" horiz-adv-x="1293" 
d="M398 961q0 -109 106 -109q135 0 284 128q87 75 120 135.5t36 82.5q4 33 10 33q10 0 10 -35.5t-18 -84t-49.5 -92.5t-73 -81.5t-89.5 -65.5q-101 -58 -188 -58t-132 35.5t-45 100t37.5 128.5t107.5 122q150 125 388 182q141 32 361 32q72 0 172 -12q193 -23 262.5 -23
t127.5 13t103 37q87 46 135 128q11 17 21 17t10 -6q0 -11 -9 -21q-161 -257 -514 -257q-85 0 -216 16q-254 31 -334 31t-155.5 -15.5t-144.5 -42.5t-128 -63.5t-103 -78.5q-92 -89 -92 -176zM-16 147q-17 -15 -43.5 -15t-43.5 10v-5q0 -48 58 -80q56 -31 121 -31t112.5 9
t98.5 33t106.5 66.5t116.5 109.5q129 140 274 384q3 6 5 8q-338 -75 -487 -210q-44 -39 -58 -64q-20 -34 -27 -34t-7 5q0 12 7 20q38 91 201 183q167 93 391 140q3 0 5 1q165 258 386 413q184 129 307 129q23 0 23 -7t-8 -8.5t-50.5 -14t-106.5 -53.5t-131 -102
q-136 -125 -263 -319q141 36 211 61q21 14 34 40q40 0 91.5 -6t60.5 -9q-116 -53 -212 -195q-31 -45 -42.5 -74t-15 -32t-8.5 -3q-12 0 -12 14q0 22 35 98.5t60 114.5q-40 -13 -103 -27l-128 -28q-95 -167 -213 -310t-219 -219q-187 -141 -421 -141q-90 0 -159 43
q-73 45 -73 103q0 62 61 79q17 4 33 4t33 -11t17 -33t-17 -37z" />
    <glyph glyph-name="G" unicode="G" horiz-adv-x="1133" 
d="M1200 961q24 0 24 -11q0 -9 -22.5 -19.5t-53.5 -37t-69 -71.5t-85 -112l-109 -162q-353 -551 -786 -551q-98 0 -170 42.5t-72 101.5q0 63 61 79q17 5 33 5t33 -10.5t17 -33t-17 -37t-44.5 -14.5t-42.5 9v-6q0 -75 123 -101q39 -9 93.5 -9t116.5 22t130 73
q137 105 317 344q67 85 105 129l128 145q-289 -207 -464 -207q-74 0 -100 19q-47 33 -47 97q0 18 5 53q-38 -3 -88 -3q-108 0 -194 48q-27 13 -27 22t7 9t24.5 -10t42 -19.5t51.5 -16.5q49 -13 102 -13t86 3q37 156 202 330q154 164 358 276q208 116 365 116q66 0 93.5 -21
t27.5 -72.5t-45.5 -119t-128.5 -138.5q-171 -148 -450 -277q-158 -70 -317 -100q-32 -62 -32 -87.5t4 -35t13 -17.5q21 -17 64.5 -17t98.5 16.5t125 53.5q147 77 361 243q115 93 153 93zM1330 1363q0 54 -78 54q-174 0 -453 -243q-178 -156 -306 -333q-39 -54 -66 -102
q138 33 290.5 111.5t260.5 154t186 145.5q166 147 166 213z" />
    <glyph glyph-name="H" unicode="H" horiz-adv-x="1586" 
d="M-203 135.5q-17 -14.5 -44.5 -14.5t-42.5 9v-6q0 -44 42.5 -72t100.5 -28q133 0 259 94q93 69 191 181l187 224q-29 -8 -56 -17l-51 -16q-282 -98 -374 -240q-5 -9 -11.5 -9t-5 5.5t2 9t9 21t35.5 44t61 51.5q110 80 212.5 117t202.5 66l119 157q148 178 197 231l81 86
q-176 -109 -284 -109q-51 0 -84.5 24.5t-33.5 62t6 61.5t22 50q31 51 110 113q51 40 55 51t4 16q0 30 -31.5 49t-103.5 19q-159 0 -278 -109q-16 -14 -26 -14t-10 7q0 10 18 28q124 109 300 109q84 0 129.5 -30.5t45.5 -83.5q0 -61 -25 -99q-43 -68 -129 -123
q-32 -20 -41 -30.5t-9 -21t4.5 -19t15.5 -16.5q26 -17 65.5 -17t80.5 12t87 35q99 50 179 121q229 199 274 228.5t65 39.5l30 14q8 4 17.5 4t9.5 -4.5t-4.5 -7t-12.5 -7.5t-13.5 -8t-13.5 -8l-50 -36q-95 -78 -185 -191l-157 -203l-141 -195l-110 -139l387 96l51 61
q219 257 489 457q264 194 389 194q45 0 67.5 -20.5t22.5 -52t-27.5 -78.5t-80 -101.5t-128.5 -113.5t-172 -117q-216 -130 -460 -209q-258 -313 -347 -506q-29 -62 -29 -104t19 -63.5t69.5 -21.5t111 32.5t116.5 92.5q124 133 184 332q9 30 24 30q8 0 11.5 -32.5t-13 -82.5
t-47.5 -103.5t-75.5 -106t-96.5 -94.5q-115 -93 -227 -93q-90 0 -120 83q-9 23 -9 58.5t12 91t41 121.5q64 141 200 315q-91 -26 -192 -50l-198 -49l-148 -171q-142 -156 -231.5 -225t-152.5 -105q-122 -69 -267 -69q-79 0 -135 39q-55 39 -55 95q0 62 61 78q17 5 32 5
q50 0 50 -45q0 -20 -17 -34.5zM1256 753q320 123 570 325q148 120 205 207q28 43 28 70q0 34 -43.5 34t-95.5 -25t-113.5 -68.5t-130 -104t-139.5 -131l-143 -148.5z" />
    <glyph glyph-name="I" unicode="I" horiz-adv-x="1110" 
d="M1207 857q30 86 30 147.5t11.5 61.5t11.5 -72.5t-30 -160t-81 -163t-120 -137t-147 -105.5q-166 -91 -326 -91h-23q-249 -243 -481 -315q-76 -24 -135.5 -24t-100.5 11.5t-70 30.5q-57 40 -63 102q-5 63 53 85q57 22 80 -13q19 -29 -1.5 -50.5t-38.5 -23.5q-34 -4 -52 5
v-6q5 -48 52 -81.5t118 -33.5t128 17t119 57q121 77 280 265q-133 62 -133 245q0 186 154 370q154 183 402 294q265 120 558 120l175 -14l102 7q37 0 37 -14q0 -17 -35.5 -19t-65 -1.5t-55.5 0.5q-29 -7 -50 -15l-44 -16q-297 -131 -653 -647q-122 -175 -253 -308h8
q142 0 298 91q159 93 260 240q51 75 81 161zM1509 1358q-52 8 -117 8t-152 -20.5t-177 -57t-178.5 -86.5t-169.5 -109t-150 -123.5t-120 -131.5q-109 -142 -109 -255q0 -154 103 -199q104 131 159 208q265 365 516 564q209 166 395 202z" />
    <glyph glyph-name="J" unicode="J" horiz-adv-x="1082" 
d="M751 226.5q8 4.5 14.5 2t6.5 -6.5q-2 -13 -33 -26q-78 -32 -107 -43l-58 -21q-30 -11 -69 -23l-209 -60q-460 -570 -742 -720q-132 -70 -251 -70q-45 0 -63 22q-29 34 -29 80.5t32.5 109.5t93 128t145.5 129t190 122q218 123 483 196l221 301q-61 33 -101 93t-40 154
t42.5 196.5t118.5 193.5t180.5 167.5t227.5 132.5q262 117 542 117l184 -14l102 7q38 0 38 -13q0 -22 -92 -22l-65 1q-173 -42 -365.5 -220.5t-391.5 -481.5l-234 -318q136 0 297 116q153 111 261 272q111 167 111 307q0 31 11 31t11 -64t-28.5 -148.5t-78.5 -163t-118 -147
t-146 -119.5q-167 -111 -331 -111h-10q-124 -164 -171 -221l120 32q139 37 216 67.5t85 35zM1463 1367q-52 8 -117 8t-151.5 -20.5t-176 -57.5t-178.5 -87.5t-170 -110t-150.5 -126.5t-120.5 -136q-109 -147 -109 -272q0 -132 104 -192l121 172q255 365 536 593
q230 187 412 229zM121 1q-171 -58 -389 -191q-326 -197 -449 -370q-40 -56 -40 -89t17.5 -50t45.5 -17q270 0 815 717z" />
    <glyph glyph-name="K" unicode="K" horiz-adv-x="1693" 
d="M985 1321q0 62 -109 62q-176 0 -321 -139q-82 -80 -115.5 -149t-39.5 -95q-10 -38 -16 -38q-11 0 -11 12v14q0 16 23 68t53 98t72 92t96 82q122 83 266 83q108 0 147 -61q12 -18 12 -54t-33.5 -91t-114.5 -106l-44 -29q-16 -10 -16 -26q0 -33 55 -33q200 0 488 244
q240 191 302 191q14 0 14 -8.5t-15.5 -13t-47 -21t-76 -50t-103.5 -89t-135 -139.5t-171 -201l-212 -273q-245 -326 -496 -499q-225 -154 -412 -154q-141 0 -185 82q-14 24 -14 49.5t9 41.5t23 25q26 19 51 19q60 0 60 -45q0 -20 -17 -34.5t-44.5 -14.5t-42.5 9v-6
q0 -44 42.5 -72t108 -28t134 26.5t150.5 88.5q175 131 389 421q80 108 188 218l189 184l163 153q-199 -132 -340 -132q-100 0 -100 81q0 96 149 203q47 32 47 54zM1518 521q12 0 12 -42.5t-22.5 -98t-60 -111t-87 -106.5t-103.5 -91q-118 -86 -214 -86q-136 0 -136 104
q0 74 44 147q83 137 252 303q50 47 66 116q4 17 4 28t-3 20q-60 -19 -111.5 -20.5t-81.5 15t-30 35t25.5 32.5t71.5 16q95 3 139 -41q107 53 273 242q195 212 404 325q190 104 334 104q75 0 112 -37.5t27 -93.5q-12 -69 -67 -93q-16 -7 -38.5 -7t-34.5 18.5t-8.5 39t23.5 37
t46 16.5t43 -15q11 49 -9 71q-39 41 -89 41t-92.5 -13t-94.5 -45q-87 -54 -275 -229q-308 -304 -534 -387q18 -36 18 -77.5t-10 -87.5t-39 -100q-63 -118 -219 -257q-93 -83 -93 -126q0 -26 20 -39.5t63.5 -13.5t84 15t84.5 44t88 70.5t84 94.5q86 116 120 252q8 31 14 31z
M1112 750.5q-16 -8.5 -16 -16t17 -16t48 -6.5q54 2 93 17q-38 36 -103 31q-23 -1 -39 -9.5z" />
    <glyph glyph-name="L" unicode="L" horiz-adv-x="1347" 
d="M286 67q-158 -69 -346 -69q-160 0 -207 52q-13 15 -13 34t16 38t46 32q60 28 175.5 28t313.5 -70q142 93 348 374q-204 6 -333 90q-126 83 -126 214t120 242q122 113 273 113q22 0 22 -12q0 -9 -55 -14.5t-112.5 -35.5t-95.5 -73q-77 -87 -77 -180t28.5 -149t81.5 -93
q104 -71 295 -73l136 197q248 370 456 532q203 157 421 157q116 0 154 -71q12 -23 12 -63t-26.5 -98.5t-74 -119.5t-112.5 -122t-142 -118t-163.5 -108t-176.5 -93q-189 -87 -355 -112q-220 -294 -437 -407q182 -65 435 -65q224 0 327 103q15 15 19 6q7 -16 -15 -38
q-137 -120 -321 -120t-491 92zM793 528q210 36 445 172q216 124 363 288q151 167 151 298q0 58 -64 84q-19 8 -41 8q-318 0 -621 -498l-120 -188q-57 -88 -113 -164zM-48 131q-204 0 -204 -50q0 -34 103 -53q33 -6 97 -6q162 0 278 63q-174 46 -274 46z" />
    <glyph glyph-name="M" unicode="M" horiz-adv-x="1750" 
d="M1140 67q0 -42 58 -42q87 0 207 71q39 23 69 52q5 -3 5 -13q0 -18 -5 -23q-96 -79 -232 -106q-36 -8 -79.5 -8t-73 27t-29.5 55t5.5 50t20.5 55q68 149 248 379l157 192l165 187l162 175l153 156l133 133q-30 -21 -64 -48l-75 -63l-219 -199l-359 -340
q-280 -266 -618 -661q-77 -89 -102 -89q-7 0 -14.5 9.5t-7.5 49t26.5 120t76 179.5t120 213.5t158.5 238.5q185 259 415 518l-79 -76l-126 -129l-178 -189l-233 -254q-432 -474 -732 -628q-118 -60 -212 -60t-141 35.5t-47 92.5q0 42 23 61q35 30 60 30q61 0 61 -46
q0 -20 -17 -35t-44.5 -15t-43.5 11l-1 -12q0 -44 37.5 -69.5t99 -25.5t120 18.5t130.5 61t160.5 111.5t196.5 169t239 234l289 306q257 281 438 442q131 116 154 116q27 0 27 -10q0 -6 -12 -17l-28 -24q-47 -42 -97 -112l-108 -157l-263 -406q-366 -595 -413 -693l167 191
l145 162l138 148l144 146l163 160l197 188q455 427 573 427q10 0 10 -8t-26 -25.5t-74 -59.5t-122 -123t-152 -177l-158 -203l-160 -217q-360 -506 -380 -542q-26 -47 -26 -65z" />
    <glyph glyph-name="N" unicode="N" horiz-adv-x="1432" 
d="M687 -8q0 11 6 16q48 37 87 142q15 43 33 100l42 138q119 388 373 821l-268 -331l-192 -223l-119 -133q-362 -396 -565 -490q-74 -34 -130.5 -34t-94.5 10.5t-63 29.5q-49 37 -49 95q0 40 23 57q34 27 60 27q61 0 61 -46q0 -20 -17 -35t-43.5 -15t-43.5 10v-6
q0 -44 38.5 -72t102.5 -28t129 28t152 93q187 138 449 432l277 318q341 408 384 472q18 22 26 22t8 -7t-4 -15l-14 -26q-37 -61 -56.5 -130.5t-30 -110t-24.5 -87.5l-32 -106q-71 -224 -172 -417l-174 -313l303 360l133 152l138 152l135 144q382 396 642 480
q88 29 183.5 29.5t149 -46t54.5 -131.5q2 -95 -96 -212q-102 -120 -256 -194q-36 -17 -51.5 -17t-15.5 7.5t38.5 23t99 56.5t109.5 92q109 117 109 227q0 79 -42.5 122.5t-123 43.5t-174.5 -35t-205 -112q-219 -151 -529 -490l-233 -261l-194 -228l-263 -313
q-39 -47 -54.5 -47t-15.5 11zM512 1150q-18 -21 -38 -21t-35 12.5t-15 31t12.5 32.5t33.5 14t38.5 -9.5t31.5 -27.5q30 -39 30 -98.5t-27 -109t-71 -84.5q-94 -75 -217 -75q-125 0 -206 69q-90 75 -90 207q0 142 125 237q126 96 325 96q119 0 180.5 -18.5t106.5 -37
t90 -40.5l102 -47q78 -32 127 -32q95 0 169 66q5 4 11.5 4t6.5 -7q0 -8 -14 -24q-59 -59 -178 -84q-32 -6 -59 -6t-64 6t-75 16q-77 22 -139.5 58t-107 56.5t-79.5 31.5q-58 19 -130 19t-138.5 -22.5t-117.5 -62.5q-109 -88 -109 -215q0 -107 71 -176q72 -70 189 -70
q111 0 195 65q93 70 93 177q0 40 -27 69z" />
    <glyph glyph-name="O" unicode="O" horiz-adv-x="1269" 
d="M1228 925q0 168 -170 168q-127 0 -265 -99q-217 -155 -295 -418q-26 -87 -26 -143.5t2 -79.5t8 -47q13 -58 25.5 -76t15 -23.5t-4.5 -9.5q-15 -6 -42 51q-34 74 -34 164.5t25 180.5t69 169t104 145t130 113q147 101 298 101q87 0 144 -53q65 -59 65 -161.5t-39 -206
t-107 -203.5t-160 -190.5t-198 -158.5q-231 -150 -450 -150q-193 0 -259 169q-23 57 -23 142t28.5 182t80 192t123 185t157.5 170t183.5 146.5t200.5 114.5q219 102 419 102q202 0 255 -127q16 -38 16 -70.5t-4 -56t-10 -46.5q-19 -65 -35.5 -81.5t-23 -16.5t-6.5 7
q0 8 10 21q24 32 32.5 83.5t8.5 83t-14.5 65.5t-45.5 59q-65 51 -170 51t-196 -32t-184 -88t-185 -132t-175.5 -163.5t-155 -182.5t-124.5 -189q-112 -201 -112 -349q0 -150 124 -198q41 -16 114 -16t174 40t200.5 108t190 158t159.5 190q152 218 152 406z" />
    <glyph glyph-name="P" unicode="P" horiz-adv-x="1276" 
d="M744 582q-435 -584 -758 -584q-157 0 -200 84q-12 24 -12 49.5t9 41.5t23 26q25 19 62 19q15 0 32.5 -11t17.5 -33t-17 -37t-43.5 -15t-43.5 10v-5q0 -45 42.5 -73t101 -28t97.5 8.5t80.5 32t89 65.5t106 108.5t131.5 161.5l167 224q-56 37 -56 88q0 43 39 74
q36 29 71.5 29t35.5 -10q0 -5 -12 -8q-47 -8 -70.5 -36.5t-23.5 -59.5t33 -53l14 19q164 221 270 329q171 176 334 288l41 27q-116 71 -357 71q-242 0 -470 -94q-208 -85 -339 -225q-129 -137 -125 -270q2 -75 48 -114q38 -32 93 -32t116.5 32t118.5 82.5t107.5 113
t88.5 124.5q82 132 91 206q3 34 12.5 34t10.5 -7.5t2 -44.5t-15 -103t-48.5 -131.5t-81 -125.5t-110.5 -106q-136 -101 -300 -101q-61 0 -109 46q-53 51 -55.5 127t35.5 153t106.5 145.5t162 126t201.5 98.5q228 88 464.5 88t386.5 -73q121 67 181 67q19 0 19.5 -8t-4 -12
t-29.5 -8q-59 -11 -131 -58q161 -95 161 -260q0 -122 -94 -237q-91 -110 -239 -179q-152 -70 -313 -70q-79 0 -146 14zM763 607q63 -13 119.5 -13t117 15t119 44.5t112.5 73.5t95 103q90 128 90 289q0 106 -77 170q-110 -80 -229 -221t-198 -253z" />
    <glyph glyph-name="Q" unicode="Q" horiz-adv-x="1412" 
d="M1610 -93q12 0 12 -12q0 -21 -85 -69q-25 -14 -59 -26q-85 -30 -162 -30t-147 8t-149 28q-158 40 -369 142l-196 91q-150 -38 -267.5 -38t-176.5 9t-97 24q-71 29 -71 70q0 32 61 60q64 29 151 29q196 0 459 -89q42 18 82 40l82 44q255 148 471 420q142 178 202 349
q30 86 30 164q0 119 -69 187.5t-216 68.5q-258 0 -535 -289q-177 -186 -241 -346q-20 -51 -20 -83t7.5 -59.5t26.5 -49.5q45 -50 137 -50q98 0 233 106q129 101 232 246q107 151 133 283q6 30 11 30q16 0 16 -31q0 -149 -99 -306q-95 -151 -239 -248q-151 -103 -292 -103
q-106 0 -166 64q-58 61 -58 143t26 154.5t80 147.5q116 165 325 294q140 87 327 113q56 8 114.5 8t118 -18t104.5 -57q97 -86 97 -253q0 -318 -252 -599q-242 -269 -597 -396q61 -25 136.5 -60.5t183 -81t190.5 -73.5q157 -53 239 -53q144 0 226 60l37 31q4 2 6.5 4t6.5 2z
M401 63q-231 102 -357 102q-71 0 -103 -15.5t-32 -36.5q0 -63 144 -81q44 -6 105 -6q122 0 243 37z" />
    <glyph glyph-name="R" unicode="R" horiz-adv-x="1506" 
d="M829 659.5q20 11.5 77 11.5t102 -25q138 58 248 208q109 149 105 272q-3 80 -63 137q-246 -166 -508 -547q-406 -568 -707 -682q-93 -36 -160.5 -36t-107.5 10.5t-67 29.5q-51 37 -51 97q0 62 61 79q17 4 33 4t32.5 -11t16.5 -33t-16.5 -37t-43.5 -15t-43 11v-6
q0 -45 42 -73t101.5 -28t99.5 9t83 33.5t91 68t108 112.5t136 167l173 232q214 300 484 504q144 109 206 140q-121 81 -357 81q-220 0 -430 -97q-191 -89 -310 -228q-118 -139 -114 -264q2 -73 56 -114q42 -32 101 -32t120.5 32t118.5 83.5t107.5 115t89.5 126.5
q81 131 90 208q3 34 13 34t11 -7.5t2 -45.5t-15 -105t-48.5 -133t-81 -126t-110.5 -106q-135 -102 -300 -102q-69 0 -126 46q-60 49 -62.5 126.5t34.5 155.5t102.5 147t154.5 127t190 100q213 87 433.5 87t361.5 -92q148 75 217 75q19 0 19.5 -8t-5.5 -12t-34 -9
q-62 -11 -161 -72q116 -94 122 -241q6 -128 -107 -245q-115 -120 -303 -175q29 -30 30.5 -71t-4.5 -74t-27 -73q-41 -78 -170 -207q-59 -49 -57 -98q0 -73 105 -73q122 0 253 129q133 133 198 325q9 30 14 30q18 0 18 -43.5t-22.5 -101.5t-60.5 -112t-88 -100.5t-105 -80.5
q-116 -74 -204.5 -74t-132.5 34.5t-46 89t13 101.5t40.5 87.5t57.5 75.5l62 67q71 58 80 103q2 13 2 27t-6 26q-46 -11 -90 -11t-66 11.5t-23.5 25t18.5 25zM967 632q-28 16 -74 16t-46 -8q0 -19 41 -19t79 11z" />
    <glyph glyph-name="S" unicode="S" horiz-adv-x="1162" 
d="M10 137q-17 -15 -43 -15t-43 10v-5q0 -43 50 -75q50 -30 122.5 -30t134 25t115.5 68.5t102.5 102.5t93.5 126t88 140l109 176q-243 8 -393 96q-157 92 -147 232q5 89 65 164.5t156 131.5q205 117 485 117q115 0 170 -27q15 -8 15 -13.5t-9.5 -5.5t-16 1.5t-26.5 5.5
q-69 16 -140 16t-147.5 -13.5t-146.5 -38.5t-130.5 -61t-105.5 -81q-96 -98 -102 -215q-7 -102 114 -183q139 -94 375 -101q347 548 635 675q94 41 169 41q148 0 142 -124q-6 -106 -115 -237q-181 -217 -472 -322q-101 -37 -209 -51l-115 -171q-269 -390 -518 -473
q-75 -25 -144 -25t-111.5 10.5t-72.5 29.5q-60 39 -60 97q0 62 62 79q16 4 32 4t32.5 -11t16.5 -33t-17 -37zM924 695q280 47 502 242q133 117 190 235q63 131 10 184q-20 20 -67.5 19t-112.5 -39t-136 -110q-135 -135 -315 -421z" />
    <glyph glyph-name="T" unicode="T" horiz-adv-x="1145" 
d="M979 1246q11 0 11 -40.5t-19.5 -95t-52.5 -104t-77 -92t-93 -73.5q-106 -66 -192 -66t-128.5 42t-42.5 102.5t32.5 118.5t90.5 114q131 123 315 185q141 47 366 47q143 0 276 -29q112 -20 189 -20t132.5 14.5t103.5 38.5q102 52 146 121q10 17 20 17t10 -12t-35.5 -55
t-94 -81t-130.5 -66q-152 -58 -318 -58q-104 0 -227 26q-191 39 -279.5 39t-151.5 -17.5t-123 -47t-113.5 -68.5t-93.5 -83q-87 -96 -87 -180q0 -78 70 -107q23 -9 58 -9t79.5 21.5t89.5 57t88 80t78 90.5q76 101 91 165q6 25 12 25zM-123.5 168q-16.5 -15 -43.5 -15t-44 10
v-6q0 -96 137 -123q42 -8 103.5 -8t141.5 27.5t159 82.5q168 117 307 336q44 69 100 140l123 151q156 180 312 311q135 113 172 113q14 0 14 -9q0 -10 -28 -28t-55.5 -38t-52 -43t-48.5 -51.5t-53 -68.5t-65 -95l-84 -128q-472 -728 -964 -728q-107 0 -180 44
q-79 48 -79 123q0 40 23 57q34 27 60 27q61 0 61 -46q0 -20 -16.5 -35z" />
    <glyph glyph-name="U" unicode="U" horiz-adv-x="1225" 
d="M112 -2q-95 0 -99 92q-7 158 269 473q98 111 220.5 227.5t189 186.5t104.5 121q68 90 65 153q-6 120 -201 120q-226 0 -439 -163q-126 -97 -177 -202q-25 -51 -23 -98.5t30 -73t69.5 -25.5t90.5 21.5t102 58t106.5 85.5t100.5 103q102 116 148 221q14 30 20.5 30t7.5 -18
q3 -48 -38 -137t-100.5 -161.5t-127.5 -124.5q-140 -108 -282 -108q-73 0 -113.5 31.5t-42.5 86.5t24.5 112.5t75 113.5t115.5 106.5t145 88.5q170 83 333 83q91 0 147 -37q242 -161 -448 -876q-228 -237 -265 -284.5t-50 -68.5q-42 -67 -5 -99q15 -13 55.5 -13t114.5 29.5
t164 89.5q210 139 390 363q19 25 54 67l439 518l139 159h145q-5 -7 -29 -36l-443 -514l-199.5 -218.5t-161 -201.5t-73.5 -189q4 -66 82 -66q91 0 221 100q37 28 65 57q12 -7 8 -20.5t-6 -15.5q-109 -96 -217 -133q-42 -14 -82.5 -14t-74.5 24.5t-37 82.5q-4 98 70 217
q-293 -250 -486 -308q-54 -16 -90 -16z" />
    <glyph glyph-name="V" unicode="V" horiz-adv-x="1048" 
d="M1632 1453q0 -166 -366 -485q31 -95 110 -124q22 -8 42.5 -8t31.5 4q18 7 28 7t10 -8t-14 -15q-25 -11 -72.5 -11t-95.5 35t-73 92q-420 -361 -1331 -946q-59 -37 -75.5 -37t-16.5 9t10.5 14t20 9t32.5 20t66 65t93 120t109 164l234 369l91 129q96 131 181 225
q-195 -139 -318 -139q-75 0 -105 53q-28 51 12 117q23 39 55 72l50 54q71 77 69.5 103.5t-11.5 39t-27 19.5q-31 15 -96 15q-124 0 -250 -104q-18 -16 -27 -16t-9 10q-1 15 24.5 34.5t58.5 37.5t69 31q79 28 135 28t89.5 -7t57.5 -21q117 -69 -13 -246q-21 -28 -45 -52
l-39 -41q-44 -47 -44 -66q0 -35 39.5 -35t85 12.5t108.5 45.5q140 76 328 251l26 23q68 57 84.5 57t16.5 -10q1 -8 -7 -12t-18 -11q-65 -42 -92.5 -81t-43.5 -67q-332 -613 -653 -942l-135 -132l172 118l196 142l211 158l214 166q288 234 398 332q-1 7 -1 13v13
q0 175 115 334q69 96 151 136q40 20 75 20q79 0 79 -81zM1252 1053l140 131q205 203 205 281q0 21 -14.5 32.5t-26.5 11.5q-51 0 -105 -37t-98 -99q-101 -142 -101 -309v-11z" />
    <glyph glyph-name="W" unicode="W" horiz-adv-x="1244" 
d="M1099.5 1436q24.5 0 24.5 -8.5t-8.5 -12.5t-19.5 -11l-27 -18q-17 -12 -40 -36q-55 -59 -80 -89q-73 -91 -117 -151l-223 -307q-254 -354 -525 -605l-175 -155l77 45q86 52 160 112l142 118l152 140l432 418q249 229 334 300q160 131 203 162q146 108 162.5 108t16.5 -14
q0 -9 -20 -19l-37 -20q-89 -45 -152 -141t-118 -191l-115 -197l-123 -202q-63 -100 -101 -152l-246 -320l235 243l216 213l324 309q361 342 593 425q84 30 172 30t147 -35t59 -104q0 -84 -76 -141q-71 -54 -177 -54q-59 0 -101 20q-76 38 -76 70t25 32q14 0 18.5 -6.5t8 -26
t18.5 -32.5t34 -21q35 -16 68 -16t68.5 11t65.5 33q70 50 70 129q0 58 -54 87q-44 23 -103.5 23t-105.5 -10t-100.5 -34.5t-118.5 -64.5t-142 -100q-161 -122 -304 -261l-358 -347l-172 -170l-213 -221q-148 -154 -265 -202q-29 -12 -41 -12q-19 0 -19 16q0 12 27 21
t45.5 17.5t35.5 21.5t34.5 34t38.5 53.5t49 80.5q151 264 203 347q118 181 149 224l372 464l-121 -92q-66 -51 -125 -108l-476 -465l-248 -230q-270 -244 -462 -332l-38 -17q-73 -35 -96 -35t-23 15q0 12 45 25q51 6 92 45q71 67 148 179l190 273l82 109q126 161 183 226
q136 151 210 225l358.5 353.5t54 28.5zM-567 881q-14 0 -14 16q0 54 57 143q61 94 170 168q176 120 367 120q136 0 312 -61l83 -29q100 -34 156 -34t92 7.5t76 22.5q90 33 141 75.5t58 42.5t7 -6q0 -9 -36 -41t-88.5 -66t-104.5 -55q-95 -37 -170.5 -37t-113 4t-75.5 11
q-63 13 -133.5 36t-98 30.5t-52.5 11.5q-49 9 -107.5 9t-121 -14.5t-121.5 -41.5q-173 -80 -243 -217q-19 -38 -19 -60q0 -35 -21 -35z" />
    <glyph glyph-name="X" unicode="X" horiz-adv-x="1586" 
d="M920 -2q-331 0 -212 384q29 92 70 166q-210 -256 -451 -410q-220 -140 -369 -140q-94 0 -158 44q-68 48 -66 123q2 41 24 58q35 26 61 26q61 0 59 -46q0 -20 -17 -35t-45 -15t-42 10v-6q-3 -96 115 -123q35 -8 81 -8t114 23.5t145 66t159 103t162 134.5q168 157 287 338
q127 243 183 432q51 172 -26 243q-47 44 -125.5 44t-149.5 -27.5t-138 -72t-127 -102.5t-105 -118q-98 -132 -100 -228q-4 -90 90 -90q131 0 279 148q156 156 255 399q8 16 15 16q13 0 14 -40t-22.5 -99.5t-65 -121t-97 -120t-119.5 -104.5q-140 -102 -261 -102t-119 114
q2 104 108 242q166 218 389 304q73 28 136 28t111.5 -13.5t82.5 -46.5q118 -114 39 -416q-24 -90 -64 -176q418 472 742 598q106 42 176 42q129 0 127 -82q-2 -31 -18 -46.5t-37 -15.5t-32.5 18.5t-10.5 43.5t29 45q-24 6 -33 6q-315 0 -814 -508l-90 -99q-20 -23 -39 -48
l-41 -55q-122 -202 -179 -409q-45 -162 28 -222q66 -56 204 -12q117 37 227 131q116 99 167 231q27 67 29 147.5t-31.5 121t-77.5 40.5t-75.5 -16.5t-56.5 -44.5q-53 -60 -55 -136q-2 -60 37 -87q18 -14 11 -26t-15.5 -12t-23.5 6t-33.5 35t-17.5 78.5t20.5 90.5t50.5 71
q68 66 145.5 66t119 -47.5t39.5 -126.5t-28.5 -148t-70.5 -130.5t-101 -114t-120 -90.5q-134 -81 -252 -81z" />
    <glyph glyph-name="Y" unicode="Y" horiz-adv-x="1195" 
d="M90 734q-118 0 -118 118q0 109 115 241q176 203 443 283q86 25 153 25t111.5 -8t78.5 -26q73 -39 73 -114q0 -87 -46 -162q-85 -139 -256 -296l-109 -111q-154 -161 -154 -239q0 -29 16 -50t44.5 -21t61.5 11t80.5 38.5t110 74.5t142.5 119q171 153 399 407
q148 167 272 216q33 13 51.5 13t18.5 -12q0 -9 -16 -12l-29 -10q-125 -49 -257.5 -214t-260 -405.5t-250 -392t-252.5 -256.5q-266 -215 -505 -215q-183 0 -249 101q-21 32 -21 63.5t8.5 49t21.5 30.5q27 25 60 25q15 0 32.5 -11t17.5 -33t-17 -37t-41.5 -15t-38.5 6
q-3 -11 -3 -29.5t18 -42.5t49 -42q69 -39 154 -39t168.5 36t175.5 108q197 154 386 430l155 226l151 206q-402 -418 -589 -418q-78 0 -99 68q-6 19 -6 52t25 94.5t68 130.5q86 137 195 248l156 161q91 95 101 120.5t10 39.5q0 109 -196 109q-148 0 -319 -90
q-157 -83 -267 -204q-112 -123 -112 -218q0 -85 91 -85q94 0 227 112q101 85 175 181q121 157 133 201q8 14 10 14q8 0 12 -32t-21 -89.5t-70 -117t-105 -115.5t-123 -100q-141 -96 -240 -96z" />
    <glyph glyph-name="Z" unicode="Z" horiz-adv-x="1623" 
d="M501 90q-165 -92 -324 -92q-110 0 -165 28t-54 57t18 48t49 33q72 33 184 33t278 -41q147 126 393 463q150 206 262 324q200 212 400 356q-139 -67 -234 -67t-156 14.5t-120 31.5q-260 76 -405 7q-131 -62 -198 -187q-71 -132 -8 -210q31 -39 77.5 -39t87.5 20.5t78 53.5
t68 74t54 83q48 84 55 144q2 15 11 15q3 0 10 -13t10 -46.5t-9 -80t-37 -87.5t-60 -75.5t-76 -58.5q-88 -53 -177 -53q-71 0 -113 51q-74 91 11 251q86 161 273 237q92 37 177.5 37t137.5 -7.5t96.5 -18.5t84 -24t79.5 -24q95 -26 151.5 -26t88 7.5t60.5 19.5q58 24 84 49
q34 32 50 32t16 -10.5t-14.5 -20.5t-21.5 -14l-14 -8l-46 -30.5t-78 -71.5t-119 -131q-135 -160 -274 -370q-284 -430 -571 -620l188 -53q182 -50 360 -28q179 21 253 120q37 49 37 120q0 80 -65 122q-23 15 -54 21q-2 -23 -19 -38t-39 -19t-42 3.5t-25 23t-1.5 25
t10.5 16.5q26 26 67 26t77.5 -13.5t63.5 -37.5q56 -51 56 -129.5t-34 -142t-92 -107.5q-121 -89 -307 -89q-110 0 -214 33t-167 57zM435 114q-147 49 -249 49q-125 0 -178 -40q-35 -27 -10 -57q37 -44 182 -44q130 0 255 92z" />
    <glyph glyph-name="bracketleft" unicode="[" horiz-adv-x="1412" 
d="M602 -179q-4 -5 -13 -27h-405l928 1350l170 257h393q-11 -14 -16 -27h-248l-155 -211l-250 -359l-471 -698l-180 -285h247z" />
    <glyph glyph-name="backslash" unicode="\" horiz-adv-x="869" 
d="M708 -106q-28 2 -40 2t-22 -2l-962 1484l38 -2q10 0 24 6z" />
    <glyph glyph-name="bracketright" unicode="]" horiz-adv-x="1412" 
d="M451 -203q11 14 16 27h247l154 211l252 359l470 698l181 285h-247q4 5 13 27h405l-928 -1350l-170 -257h-393z" />
    <glyph glyph-name="asciicircum" unicode="^" horiz-adv-x="1101" 
d="M356 950q-9 7 -17 12l298 422l298 -422q-17 -12 -32 -27l-266 373l-264 -373z" />
    <glyph glyph-name="underscore" unicode="_" horiz-adv-x="1106" 
d="M1151 -106v-43h-1465l-3 44z" />
    <glyph glyph-name="grave" unicode="`" horiz-adv-x="612" 
d="M49 1149q43 0 53 -63q16 -110 41 -150q44 -70 125 -116q12 -9 18 -12.5t6 -11.5t-10 -8t-21 6l-30 17q-93 56 -160 143q-65 84 -65 139.5t43 55.5z" />
    <glyph glyph-name="a" unicode="a" horiz-adv-x="899" 
d="M399 -2q-100 0 -100 62q0 51 58 128l63 80l-10 4q-168 -207 -317 -260q-41 -14 -71 -14q-123 0 -123 131q0 154 123 294q182 212 366 251q55 11 94 11t61.5 -5.5t39.5 -15.5q36 -23 36 -56.5t-12 -63.5l98 121q27 -8 50 -8q59 0 85 4l-337 -406q-120 -140 -120 -197
q0 -32 38 -32t87.5 23t98.5 59t95.5 80t86 86t69.5 78l48 54l21 -17l-51 -58q-288 -333 -477 -333zM122 358q-141 -171 -141 -280q0 -50 45 -50q146 0 421 323l84 101q60 91 60 132q0 70 -70 70q-95 0 -273 -162q-61 -56 -126 -134z" />
    <glyph glyph-name="b" unicode="b" horiz-adv-x="797" 
d="M473 256q-26 -34 -64 -71q-132 -149 -296 -185q-45 -10 -79.5 -10t-58.5 10.5t-40 27.5q-31 34 -31 86.5t17 106t49 116t78 134.5l101 157l93 132l118 150l133 157q332 380 547 484q57 28 102 28q73 0 73 -54.5t-27.5 -119.5t-79 -136.5t-126.5 -146t-170 -145.5
q-202 -151 -454 -250q-223 -273 -292 -384.5t-88 -160.5t-19 -82q0 -85 75 -85q162 0 300 145q47 48 84 114q51 63 66 187q3 25 3 31l-12 87q6 76 62 76q69 0 55 -119q-6 -53 -34 -125t-57 -117q-2 -7 -1.5 -14.5t0.5 -15.5q0 -50 56 -53q55 0 144 81q59 54 104 114l21 -17
q-17 -18 -46.5 -52t-66.5 -67q-90 -84 -161 -84t-78 70zM1181 1520q0 38 -39 38q-83 0 -274 -216l-120 -142l-357 -433q196 76 393 233q171 138 286 292q111 149 111 228z" />
    <glyph glyph-name="c" unicode="c" horiz-adv-x="665" 
d="M516 601q-2 58 -73 58q-145 0 -375 -302q-95 -126 -95 -228q0 -44 24 -67q42 -39 107.5 -39t139 27t136.5 68t115 89.5t90 91t60 72.5t26 35l22 -17l-27 -36q-188 -247 -420 -331q-78 -28 -147 -28t-108 14t-65 38q-50 49 -50 122q0 143 124 291q97 116 230 178
q108 50 210 48q90 -3 114 -61q24 -59 -26 -108q-33 -34 -64 -34q-72 0 -74 59q-1 28 21.5 46.5t44.5 20.5q32 2 60 -11v4z" />
    <glyph glyph-name="d" unicode="d" horiz-adv-x="872" 
d="M382 272q-245 -274 -390 -274q-127 0 -127 131q0 152 125 294q225 262 475 262q75 0 111 -46q11 -15 11 -28t-0.5 -16.5t-0.5 -8.5l496 712l210 297q37 -16 69 -16t58 3l-950 -1332q-58 -78 -87.5 -123.5t-29.5 -72t25 -26.5q97 0 220 90q113 82 247 246q25 32 35 42
l22 -17q-11 -11 -38.5 -44t-68 -76t-91 -91t-107.5 -88q-129 -92 -227.5 -92t-97.5 64.5t119 205.5zM92 356q-143 -174 -143 -278q0 -50 50 -50q89 0 248 145l82 79q71 70 116 134l89 127q23 46 23 79t-24 47.5t-50 14.5t-65.5 -17.5t-89.5 -54.5q-109 -78 -236 -226z" />
    <glyph glyph-name="e" unicode="e" horiz-adv-x="674" 
d="M249.5 20q-73.5 -26 -139.5 -26t-100.5 13.5t-56.5 37.5q-94 102 1 301q41 88 124 160.5t146 108.5q122 70 229 70q106 0 111 -66q7 -107 -260 -233q-98 -46 -247 -95q-59 -96 -59 -156.5t31.5 -86t92 -25.5t131 26t132 66t111.5 87t88.5 90t63 74.5t33.5 39.5l21 -17
q-13 -11 -39.5 -45t-67 -77.5t-93 -91.5t-116 -88.5t-137 -66.5zM80 326q302 106 389 211q29 35 29 68q0 56 -52 56q-92 0 -230 -161q-96 -112 -136 -174z" />
    <glyph glyph-name="f" unicode="f" horiz-adv-x="554" 
d="M-45 144q-28 -360 -167 -640q-90 -182 -202 -254q-57 -37 -107 -37t-77.5 27.5t-28.5 62t4.5 65.5t24 73.5t51 102t84.5 143.5l125 197l264 400q-30 47 -41 94t-6.5 77t21.5 50.5t41.5 20.5t40 -16t15.5 -36t-5.5 -34.5t-14.5 -27.5q-21 -32 -45 -44q4 -22 17 -49
l491 761q64 99 149.5 206t145.5 167q126 126 200 126q43 0 64 -25t23 -78.5t-38 -148t-110 -201t-163.5 -218t-198.5 -216.5q-222 -218 -430 -350l-71 -110q48 -41 125.5 -46t147.5 16.5t123 55.5q72 47 153 147l23 -16q-11 -10 -30 -33t-47.5 -50.5t-66 -56t-85.5 -50.5
q-107 -50 -233 -37q-72 8 -125 46zM118 398q289 197 570 547q206 256 269 443q39 116 5 154q-13 14 -30.5 14t-39.5 -13.5t-54 -48.5q-63 -70 -155 -214zM-78 94l-337 -516l-80 -132q-72 -125 -72 -166q0 -17 12.5 -29.5t37 -12.5t65 28t86 80t92 127.5t86.5 170.5
q88 212 110 450z" />
    <glyph glyph-name="g" unicode="g" horiz-adv-x="918" 
d="M204 -168q420 212 721 574l20 -17q-319 -386 -779 -603l-178 -213q-225 -256 -366 -321q-87 -39 -201 -39q-63 0 -91 43q-19 29 -1 70.5t49.5 75.5t84.5 73t132 84q162 92 436 208l403 501l-8 4q-183 -208 -328 -259q-43 -15 -74 -15q-121 0 -125 131q0 155 119 294
q215 262 468 262q66 0 104 -22q62 -35 28 -119l94 121q29 -8 53 -8q58 0 84 4zM602 594q-2 60 -90 60q-94 0 -268 -164q-59 -57 -127 -142q-137 -170 -135 -268q2 -29 13 -40.5t37.5 -11.5t68.5 16.5t96 55.5q125 89 264 251l78 95q63 92 63 148zM-4 -276
q-511 -224 -607 -354q-34 -47 -34 -90q0 -11 18.5 -25.5t51.5 -14.5t66 8.5t69 29t78 56t94.5 89t117.5 127.5z" />
    <glyph glyph-name="h" unicode="h" horiz-adv-x="907" 
d="M-114 19q-27 5 -60 5q-57 0 -94 -10l1107 1581q67 -10 139 0l-992 -1377l5 -11q76 88 141 156l119 120q102 99 165 140q95 62 180 62q89 0 112 -64q45 -124 -281 -474l-39 -43q-32 -36 -32 -55q0 -10 22 -16.5t62 -6.5t94 25.5t105 64.5t97 86t82.5 89t61.5 74t34 41
l22 -17q-10 -11 -36.5 -44t-65 -76.5t-87 -91.5t-103.5 -87q-126 -92 -229 -92q-82 0 -121 45q-12 14 -12 33t5.5 43.5t27.5 62.5q51 86 135 180.5t111 128.5t43 59q30 48 30 74q0 36 -47 36q-63 0 -145 -56q-199 -133 -464 -463z" />
    <glyph glyph-name="i" unicode="i" horiz-adv-x="453" 
d="M497 883.5q-18 -7.5 -41 -7.5t-39.5 17.5t-16.5 39.5t8 39t22 30q29 30 63.5 30t51 -18.5t16.5 -40.5t-8.5 -39t-23 -30t-32.5 -20.5zM-47 26q59 0 111.5 27t106 67.5t103.5 88.5l90 90q40 42 66 72.5t31 35.5l20 -18q-10 -10 -37.5 -42.5t-68.5 -76t-92 -91.5t-107 -88
q-129 -93 -226 -93q-62 0 -99 22.5t-37 51.5t6 52t22 55t44.5 75t74 103l110.5 139l154 182q12 -3 49 -3h47q26 0 42 2q-331 -395 -372.5 -449.5t-61.5 -85.5q-35 -53 -35 -84.5t59 -31.5z" />
    <glyph glyph-name="j" unicode="j" horiz-adv-x="382" 
d="M442 883.5q-18 -7.5 -40.5 -7.5t-39.5 17.5t-17 39.5t8 39t22 30q31 30 65 30t50 -18.5t16 -40.5t-8.5 -39t-23 -30t-32.5 -20.5zM171 677q10 -2 38 -2h60q44 0 58 2l-506 -653l-149 -184q257 124 396 232q107 83 185 171.5t137 162.5l20 -17q-182 -228 -346 -351
q-115 -85 -226 -143l-203 -100q-208 -250 -312 -345t-163.5 -135.5t-113.5 -62.5q-94 -39 -216 -39q-63 0 -84 43q-5 12 -5 38.5t34 74t118 105.5q170 118 584 290l385 486q238 313 273 364.5t36 62.5zM-557 -277q-367 -157 -515 -255q-154 -102 -154 -188q0 -11 13.5 -25.5
t47.5 -14.5t69 7t73.5 25.5t83.5 52t101 87t125 130.5z" />
    <glyph glyph-name="k" unicode="k" horiz-adv-x="861" 
d="M839 1595q66 -11 138 0l-823 -1145l-293 -431q-27 5 -45.5 5t-28.5 -1t-20.5 -2.5t-19.5 -3.5t-15 -3zM323 57q0 -31 49 -31t105 27.5t110.5 68.5t104 89.5t88.5 90.5q59 64 89 105l20 -18q-4 -4 -29.5 -34t-66 -73.5t-93 -93t-110.5 -92.5q-133 -98 -231 -98
q-100 0 -100 107q0 89 122 208q49 51 49 69q0 40 -59 60q-59 -33 -104 -33q-75 0 -75 31q0 18 28.5 32t70 14t79.5 -11q32 16 50 35q44 46 81 91t71 75q77 68 155 68q48 0 77.5 -25t28.5 -60t-22 -51t-46 -16t-43.5 17t-17.5 39q3 42 41 54q-15 12 -38.5 12t-46 -8.5
t-48.5 -29.5q-53 -41 -132 -142q-37 -42 -77 -72q95 -44 95 -130q0 -70 -64 -146q-27 -32 -58 -61q-53 -48 -53 -68z" />
    <glyph glyph-name="l" unicode="l" horiz-adv-x="456" 
d="M-97 59q0 -33 48 -33t102.5 25.5t108 64.5t103.5 85.5t91 88.5l69 74q28 32 38 42l20 -17q-11 -11 -40.5 -44t-72 -76t-95 -91t-109.5 -88q-133 -92 -233 -92q-42 0 -69.5 23t-27.5 49.5t2.5 42.5t10.5 36.5t23 48t40 66.5l153 226l773 1105q72 -10 139 0
q-954 -1326 -988 -1376.5l-50 -76t-24 -41.5q-12 -24 -12 -42z" />
    <glyph glyph-name="m" unicode="m" horiz-adv-x="1435" 
d="M35 19q-23 5 -58 5q-61 0 -94 -10l347 496q65 91 67 108q4 33 -21 33q-37 0 -184 -183l-64 -79q-8 -4 -16.5 4.5t-4.5 12.5q29 31 65.5 78.5t76.5 91.5q98 109 163 109q110 0 70 -113q-8 -24 -35 -62l-210 -292l5 -11q269 311 395 402q100 76 185 76q58 0 92 -32
q27 -27 25.5 -57t-4 -45.5t-7.5 -31.5q-12 -33 -42 -80q214 218 324 241q22 5 48.5 5t49 -9t36.5 -23q26 -26 25.5 -62.5t-14 -74.5t-45.5 -90q-67 -107 -226 -279q-66 -69 -69 -80.5t-3 -17.5l-7 -1q0 -24 57 -24t104.5 25.5t96.5 65t95.5 86.5l84.5 89l64 74q26 32 35 42
l21 -17q-10 -10 -37.5 -43.5t-67 -77.5t-88.5 -92t-101 -88q-121 -93 -203 -93q-87 0 -123 46q-11 14 -11 33t6.5 44t29.5 63q46 78 134 177t114.5 133t43.5 59q31 49 31 74q0 36 -51 36q-100 0 -346 -250q-105 -106 -234 -269l-93 -122q-23 5 -58 5q-57 0 -94 -10l163 200
q225 297 249 336q33 57 33 79q0 31 -49 31q-65 0 -152 -70q-183 -146 -431 -449z" />
    <glyph glyph-name="n" unicode="n" horiz-adv-x="1042" 
d="M36 19q-27 5 -60 5q-53 0 -93 -10l347 496q65 91 67 108q4 33 -21 33q-37 0 -184 -183l-64 -79q-8 -4 -16.5 4.5t-4.5 12.5q29 31 65.5 78.5t76.5 91.5q98 109 163 109q110 0 70 -113q-8 -24 -35 -62l-210 -292l5 -11q252 276 358 365q101 84 150.5 98.5t81 14.5t54 -9
t36.5 -23q26 -26 25.5 -62.5t-14 -74.5t-45.5 -90q-67 -107 -226 -279q-66 -69 -69 -80.5t-3 -17.5q0 -23 61.5 -23t115 25.5t105 64.5t98 85.5t83.5 89t62 74t34 41.5l21 -17q-10 -11 -36 -44t-64.5 -76t-87 -91t-102.5 -88q-126 -92 -228 -92q-90 0 -125 45q-11 14 -11 33
t5.5 43.5t26.5 62.5q47 81 133.5 178t113.5 131t43 59q30 48 30 74q0 36 -48 36q-99 0 -327 -224q-115 -112 -264 -295z" />
    <glyph glyph-name="o" unicode="o" horiz-adv-x="734" 
d="M450 161q-37 0 -54 30q-119 -135 -257 -179q-46 -14 -89.5 -14t-74.5 10t-51 28q-81 70 -16 241q25 67 64.5 125t89 107.5t106.5 88.5q129 87 252 87q53 0 91.5 -27.5t41.5 -79t-6 -96.5t-27 -90q-36 -92 -102 -174q7 -29 38.5 -29t60 14.5t57 36t56 48l50.5 50.5l38 42
q16 19 23 26l22 -17q-13 -12 -33 -34t-45 -47l-53 -52q-103 -95 -182 -95zM35 36q16 -8 45 -8q65 0 167 73q78 56 139 129v4q0 85 64 128q17 12 32 17q48 102 45 167q-6 103 -76 103q-118 0 -331 -266q-137 -172 -129 -268q0 -55 44 -79z" />
    <glyph glyph-name="p" unicode="p" horiz-adv-x="858" 
d="M367 -2q-116 0 -116 99q0 150 329 391q114 83 126 120q3 11 3 21.5t-10.5 20.5t-44.5 10q-157 0 -487 -307q-154 -148 -214 -214l-106 -120l-93 -128l-204 -305l-152 -240q-26 -40 -30 -47q-29 -8 -64.5 -8t-45 0.5t-20.5 1.5q-19 2 -37 7l511 694l324 456l394 527
q54 -6 81 -6q50 0 70 7l-322 -394l-238 -318l7 -8q311 299 459 376q76 40 113.5 45.5t67.5 5.5q95 0 95 -83q0 -164 -301 -375q-135 -97 -154 -133q-6 -12 -6 -23q0 -45 71 -45q172 0 439 318l53 62l22 -17l-52 -60q-279 -331 -468 -331z" />
    <glyph glyph-name="q" unicode="q" horiz-adv-x="876" 
d="M-277 -787q-67 0 -67 72q0 175 326 569q107 128 247 272q-86 -68 -157.5 -98t-112.5 -30q-122 0 -122 129q0 148 122 287q179 207 363 244q55 12 109 12q123 0 123 -99q0 -36 -11 -69q40 49 65 83l50 65q16 -7 44 -7q62 0 88 2q-265 -329 -321 -394l-119 -136
q7 -18 9 -46q5 -20 26.5 -32.5t55 -12.5t79.5 25.5t93.5 65t92.5 86.5l82 89l94 116l22 -17l-34 -44q-187 -241 -338 -321q-50 -26 -100 -26t-81 33q-70 -317 -271 -571q-122 -155 -244 -216q-61 -31 -113 -31zM59 347q-140 -171 -140 -270q0 -49 45 -49q124 0 308 168
q67 60 113 115q81 96 97 118q47 64 47 151q0 43 -47 57q-14 4 -32.5 4t-59 -17.5t-92.5 -53.5q-121 -82 -239 -223zM-312 -732q0 -33 35.5 -33t89 33.5t113.5 91.5t122.5 137t117.5 171q123 202 163 389q4 22 0 34l-271 -317q-277 -339 -323.5 -413.5t-46.5 -92.5z" />
    <glyph glyph-name="r" unicode="r" horiz-adv-x="684" 
d="M212.5 32q39.5 0 87 24t97 61t97.5 82l87 87q40 41 69 74l41 46l20 -17q-19 -17 -51 -53l-72 -80q-244 -258 -420 -258q-57 0 -91.5 28t-34.5 75q0 149 434 440q-212 35 -293 71q-66 -136 -203 -277q-32 -33 -39.5 -36t-9.5 -4.5t-3 5.5t0 10.5t4 7.5l87 102
q93 116 137 206q-36 23 -41 49t0.5 48.5t17.5 40.5q26 39 60 39q63 0 63 -46q0 -23 -9 -39l-18 -31q-18 -23 -18 -53q0 -18 76.5 -34t108.5 -22q70 -13 111 -15q28 -1 28 -15q0 -9 -32.5 -35t-71.5 -63t-76 -77.5t-70 -82.5t-58 -81q-54 -84 -54 -130.5t39.5 -46.5z" />
    <glyph glyph-name="s" unicode="s" horiz-adv-x="596" 
d="M308 184q12 -2 30.5 -2t44.5 14t53.5 36t54.5 48.5t49.5 51l39.5 44.5l23 30l22 -17q-12 -12 -31 -33l-42 -48q-139 -150 -220 -150h-17q-8 0 -16 2q-84 -183 -357 -183q-119 0 -173 57q-23 25 -23 64t18.5 66.5t43.5 45.5q51 37 91.5 37t40.5 -38q-3 -26 -44 -39
q-13 -4 -25.5 -4t-24 8.5t-18.5 12.5q-6 -6 -15.5 -14t-18.5 -19q-22 -27 -22 -55.5t19 -45.5t45 -26q39 -14 81.5 -14t88 18t89.5 60q121 115 131 341q6 152 37 238q1 3 1 9l-236 -290q-20 -24 -29.5 -31l-9.5 -7q-12 -1 -16 6q-2 5 9 19q258 308 290 350q16 78 52 78
q17 0 28.5 -9t11.5 -23q-1 -19 -30.5 -53.5t-36 -44t-8.5 -16t-2 -12.5v-12q-1 -27 5 -64l25 -166q22 -136 -9 -220z" />
    <glyph glyph-name="t" unicode="t" horiz-adv-x="433" 
d="M-100 58q0 -30 48 -31t96.5 21t96.5 56t93 76.5t84 84.5t70 79l52 62l22 -17l-52 -60q-279 -331 -469 -331q-55 0 -82.5 22t-27.5 48t2.5 43t10.5 37.5t23.5 48.5t41.5 68l156 225l258 363h-79q-30 0 -30 14.5t38 14.5h91l185 260q70 -11 139 0l-193 -260h258
q28 0 28 -14.5t-25 -14.5h-283l-414 -563q-107 -151 -122.5 -186t-15.5 -46z" />
    <glyph glyph-name="u" unicode="u" horiz-adv-x="887" 
d="M-81 59q0 -36 48 -36q67 0 144 51q166 111 346 332l227 273q48 -6 87 -6t65 3l-98 -113l-354 -431q-35 -43 -35 -70q0 -36 48 -36t99.5 25.5t103 64.5t100.5 85.5t89 88.5l105 116l20 -17l-39 -44q-29 -33 -71 -76l-93 -91q-191 -180 -317 -180q-41 0 -67.5 22.5
t-28.5 60.5q-2 73 51 165q-230 -248 -390 -248q-90 0 -115 64q-7 18 -8 46t13.5 67t43.5 84.5t71 98.5l180 218q42 52 89 103q39 -6 63 -6h34q43 0 55 3q-117 -128 -164 -185l-199 -239q-105 -122 -103 -193z" />
    <glyph glyph-name="v" unicode="v" horiz-adv-x="796" 
d="M249 679q48 -6 89 -6t68 3q-89 -80 -133 -130l-134 -148q-16 -18 -42 -44l-113 -120q-107 -117 -107 -157t15 -46.5t55.5 -6.5t103.5 23.5t128 61.5q118 69 211.5 151.5t126.5 124.5t50 81q28 64 28 159q0 37 23 60.5t56 23.5q56 0 56 -55q0 -114 -199 -307l-27 -25
q-62 -84 -32 -118q11 -11 41.5 -11t73.5 25t84.5 59.5t76.5 70.5l55 58l21 -17q-205 -221 -322 -221q-49 0 -61.5 29t9.5 77q-217 -182 -404 -250q-69 -26 -126 -26t-85 22.5t-28 55t7 59t28 63.5q38 68 120.5 171t146.5 169z" />
    <glyph glyph-name="w" unicode="w" horiz-adv-x="1162" 
d="M48 288q-180 -196 -180 -242q0 -20 22.5 -20t50.5 8t65 26q78 39 170 106q160 118 262 235l27 33v-1q96 113 235 246q48 -6 76 -6q56 0 77 3l-356 -380l-105 -118q-81 -97 -81 -129q0 -23 29.5 -23t87 22.5t124.5 61.5q198 114 352 300q64 76 74 124.5t10 88t19 68
t51 28.5q66 0 66 -65q0 -108 -199 -307q-17 -17 -38 -36l-44 -38q-32 -80 40 -80q101 0 285 213l22 -17l-63 -65q-152 -156 -253 -156q-40 0 -57 20.5t-9 55.5q-204 -159 -382 -224q-59 -22 -101 -22q-63 0 -63 65q0 78 68 190l-64 -55q-241 -200 -378 -200q-65 0 -65 64
q0 146 253 430q81 91 185 187q39 -6 63 -6h35q40 0 55 3l-254 -266z" />
    <glyph glyph-name="x" unicode="x" horiz-adv-x="905" 
d="M-108 -2q-85 0 -85 53q0 17 18 32t37 15q26 0 43 -12q27 -20 59.5 -20t84.5 26.5t105 75.5q107 99 196 267q67 97 67 158t-47 61q-58 0 -108 -36q-89 -66 -234 -229q-8 -2 -15.5 5t-5.5 12q160 178 219 219t91 50.5t76.5 9.5t77.5 -36t33 -86t-18 -111q114 155 253 214
q46 19 81 19t53 -7t29 -18q20 -19 20 -48.5t-19 -44t-45.5 -14.5t-45 22t-20.5 60q-5 1 -10 1h-7q-63 0 -163 -90q-99 -90 -179 -228l-34 -64q-50 -109 -50 -172q0 -56 58.5 -56t114 27.5t110 68.5t104 89.5t88.5 90.5q59 64 89 105l21 -18q-4 -4 -29.5 -34t-66.5 -73.5
t-93.5 -93t-110.5 -92.5q-134 -98 -232 -98t-132 81q-12 29 -12 70.5t24 118.5q-139 -192 -310 -254q-46 -16 -80 -16z" />
    <glyph glyph-name="y" unicode="y" horiz-adv-x="909" 
d="M-91 70q0 -46 59 -46t130.5 30.5t140.5 79.5q133 93 245 232l211 243l54 67q39 -7 57 -7q51 0 77 4l-348 -429l-177 -237l-152 -198q258 124 396 247q90 80 169 176l144 174l21 -17l-126 -149q-112 -132 -187 -197t-137 -107q-118 -78 -315 -171q-186 -233 -280.5 -324
t-149.5 -129.5t-107 -60.5q-88 -38 -209 -38q-61 0 -81 43q-6 12 -6 38t33.5 72.5t114.5 103.5q162 114 560 282l407 516l-11 4q-95 -102 -194 -162q-185 -112 -296 -112q-56 0 -84 22.5t-28 55t6 59t24 63.5q37 71 141 217q46 57 111 123l139 141l47 -5q16 -1 49.5 -1
t60.5 3q-89 -80 -133 -130l-71 -80q-221 -245 -249 -286q-56 -80 -56 -110zM11 -291q-503 -215 -605 -342q-36 -45 -36 -87q0 -11 13.5 -25.5t57.5 -14.5t97.5 19.5t119.5 70.5q121 96 353 379z" />
    <glyph glyph-name="z" unicode="z" horiz-adv-x="697" 
d="M76 8q94 -10 115 -91q221 134 411 365l101 124l21 -17l-109 -133q-126 -149 -228.5 -231.5t-190.5 -133.5q3 -17 3 -60t-32.5 -116t-88 -144t-127.5 -136t-151 -114q-173 -108 -310 -108q-47 0 -67 24.5t-20 67t49.5 106t139.5 135.5q168 135 504 323q3 21 3 52.5
t-15.5 51.5t-33.5 20h-2q-31 -17 -59 -30.5t-47 -25t-25 -16t-9 -7.5q-6 -6 -12 -6t-17 6.5t-11 10.5q0 13 48 34q90 39 140 101q43 53 87 132l85 153q38 69 85 132q-109 20 -163 94q-94 -173 -194 -255q-18 -15 -24.5 -15t-6.5 5l82 100q67 79 91 124l35 67
q-22 44 -22 79.5t7 56t20 35.5q27 35 60 35q62 0 62 -39q0 -24 -11.5 -38t-24.5 -26q-37 -34 -37 -61t9.5 -47.5t27.5 -39.5q41 -42 103 -57q87 110 173.5 161.5t145.5 51.5q104 0 104 -58q0 -51 -88 -106q-94 -60 -212 -71q-113 -279 -282 -405q-47 -35 -92 -60zM458 493
q103 14 182 65q76 48 76 93q0 15 -15.5 25.5t-41 10.5t-50.5 -10.5t-51 -34.5q-59 -51 -100 -149zM90 -161l-260 -156q-250 -156 -346 -275q-51 -62 -51 -118q0 -20 12.5 -36t47.5 -16t90 26t116.5 70.5t124 103.5t116.5 126q120 149 150 275z" />
    <glyph glyph-name="braceleft" unicode="{" horiz-adv-x="1412" 
d="M673 656q39 -35 39 -82q0 -70 -71 -214l-54 -115q-74 -163 -74 -273q0 -97 50 -140q9 -6 9 -17t-9 -11q-20 0 -33 19q-59 70 -77 114q-30 74 -30 128.5t8.5 90.5t22 72t31.5 73l82 175q41 92 41 122q0 51 -37 69q-14 5 -14 15t26.5 10t47.5 5t41 19q34 23 100 121
l124 178q113 156 174.5 215.5t101.5 89t76 47t74 29.5q76 23 146 23q20 0 20 -9t-7 -10.5t-36.5 -4.5t-60 -9.5t-54.5 -17.5q-84 -37 -146 -125q-15 -22 -33 -51l-125 -200q-49 -75 -122 -169q-45 -55 -107 -101t-124 -66z" />
    <glyph glyph-name="bar" unicode="|" horiz-adv-x="909" 
d="M1263 1583q4 -4 19 -4q26 0 45 3l-1325 -2005q-8 2 -20 2h-20q-7 0 -22 -2z" />
    <glyph glyph-name="braceright" unicode="}" horiz-adv-x="1412" 
d="M653.5 -191q-37.5 -6 -64.5 -6t-27 9t7 10.5t36.5 4.5t60 9.5t54.5 17.5q84 37 146 125q15 22 33 51l125 200q128 197 228 270q63 46 125 66q-39 33 -39 80.5t18 96t50 115.5l57 119q74 163 74 273q0 97 -50 140q-9 6 -9 17t9 11q20 0 41 -27t41.5 -57.5t32.5 -61.5
q25 -61 25 -115.5t-8.5 -90.5t-22 -72t-31.5 -73l-82 -175q-41 -91 -41 -122q0 -51 37 -69q14 -5 14 -15t-26.5 -10t-47.5 -5t-41 -19q-31 -22 -99 -120l-125 -179q-113 -156 -174.5 -215.5t-101.5 -89.5t-76 -47t-73.5 -28.5t-75 -17.5z" />
    <glyph glyph-name="asciitilde" unicode="~" horiz-adv-x="1387" 
d="M807 331q110 0 175 144l45 -14q-45 -122 -151 -165q-33 -13 -62 -13t-51 3t-47 11q-48 16 -103 49l-79 48q-73 44 -112 44t-64 -10.5t-46 -28.5q-44 -36 -69 -99l-45 19q46 115 144 155q33 14 62 14t50 -4.5t44.5 -15t53.5 -27.5l69 -41q92 -56 128.5 -62.5t57.5 -6.5z
" />
    <glyph glyph-name="nonbreakingspace" unicode="&#xa0;" horiz-adv-x="725" 
 />
    <glyph glyph-name="exclamdown" unicode="&#xa1;" horiz-adv-x="807" 
d="M886 983q-18 -8 -43 -8t-41 17t-16 40.5t8.5 40.5t23.5 29q33 29 64.5 29t48.5 -18t17 -40.5t-8 -39t-22 -29.5t-32 -21zM182 -150q-43 7 -77 5.5t-42.5 -1.5h-18.5q-21 -2 -36 -4q87 97 158 184q166 214 229 304l327 460q11 16 21.5 16t10.5 -8q0 -16 -24 -60l-162 -280
l-284 -463q-38 -60 -61 -93z" />
    <glyph glyph-name="cent" unicode="&#xa2;" horiz-adv-x="943" 
d="M187 22q-16 2 -23 2q-9 0 -15 -2l248 343q-86 40 -86 133q0 133 112 269q198 232 388 240q25 0 45 -7l273 379q7 -3 17 -3q13 0 21 2l-282 -390q49 -30 59 -87q0 -81 -44 -99q-12 -5 -25.5 -5t-26 13t-12.5 31.5t13.5 35t29.5 16.5t26 -2q5 17 5 31q0 30 -39 47
l-420 -582q19 -11 43 -11q89 0 183 90q33 31 52 59t22.5 31.5t8.5 3.5q11 0 11 -8q0 -10 -24 -46t-59 -67t-71 -51q-72 -40 -119 -40t-71 7zM840 978q-10 2 -28.5 2t-60 -28t-87 -73t-90.5 -101.5t-81 -113.5q-81 -128 -81 -194q0 -38 16 -61z" />
    <glyph glyph-name="sterling" unicode="&#xa3;" horiz-adv-x="1720" 
d="M514 85q-164 -87 -351 -87q-84 0 -121 22q-61 38 -61 76q0 41 59 72q66 36 172 36q98 0 168 -19t133 -41q123 106 315 382h-187q5 4 26 29h181l95 139q36 54 73 104l72 95q-221 12 -349 80q-121 65 -121 164q0 133 187 234q123 64 231 64q22 0 22 -8t-48.5 -13.5
t-110 -27.5t-109.5 -56q-108 -75 -108 -177q0 -98 105 -161q111 -67 319 -77q199 243 407 375q187 119 338 119q74 0 110 -26.5t36 -74.5t-26 -98t-74 -95t-117 -84t-155 -69q-178 -62 -402 -70l-125 -196l-97 -141h372q-9 -11 -12 -29h-381q-205 -277 -405 -405
q273 -102 503 -102q129 0 191 19q104 31 189 101q10 0 10 -8q0 -13 -13.5 -29t-50.5 -43.5t-88 -51.5q-119 -57 -243 -57q-256 0 -555 134zM1238 915q298 14 498 133q91 54 141 122t50 140q0 49 -46 69q-16 7 -64.5 7t-126 -33.5t-154.5 -94.5q-155 -124 -298 -343zM17 98
q0 -44 92 -64q33 -7 96 -7q147 0 261 80q-118 53 -177 57.5t-121.5 4.5t-106.5 -21t-44 -50z" />
    <glyph glyph-name="currency" unicode="&#xa4;" horiz-adv-x="1108" 
d="M590 138q-95 -58 -190.5 -58t-148.5 53l-166 -125q-2 8 -10 13t-13 10l170 125q-26 38 -26 85.5t14 88t39 76.5q53 77 130 125l-77 118q10 4 14.5 9t12.5 11l77 -123q88 47 175.5 47t139.5 -50l173 130q2 -8 10 -14t13 -11l-177 -130q23 -37 23 -81t-11.5 -83t-32.5 -75
q-42 -72 -115 -124l81 -121q-1 -1 -27 -19zM286.5 367q-27.5 -54 -27.5 -117t39 -100.5t102 -37.5t121.5 24.5t104.5 65.5q102 93 102 208q0 72 -40.5 111t-105 39t-122 -26.5t-102 -69.5t-72 -97z" />
    <glyph glyph-name="yen" unicode="&#xa5;" horiz-adv-x="1418" 
d="M135 263q42 0 42 -43q0 -16 -16 -31.5t-47 -18.5q-1 -4 -1 -8v-6q0 -92 131 -126q42 -11 91.5 -11t99.5 14.5t103 46.5q116 69 220 205h-204q21 16 24 27h200l28 42q15 21 29 44h-224q21 18 25 28h217q74 116 155 217l152 186q-226 -224 -372 -267q-47 -14 -83.5 -14
t-61 9.5t-40.5 26.5q-32 32 -32 75.5t11 78.5t30 68q36 60 109 131.5t124 130t80 100.5q51 74 51 111.5t-26.5 56.5t-68.5 19t-101.5 -33.5t-119.5 -91.5q-140 -137 -202 -308q-8 -12 -18 -12t-10 9q0 11 22 63t75.5 129t114.5 137q136 131 244 131q64 0 102.5 -31.5
t38.5 -79t-11.5 -94.5t-37.5 -100q-58 -117 -174 -222l-102 -96q-72 -70 -78.5 -91t-6.5 -38.5t20 -36.5t53 -19t62 5.5t66.5 22t85.5 47t108 80.5q124 101 240.5 226.5t167 169.5t92.5 74q82 57 127 57q17 0 17 -12q0 -9 -14 -12l-30 -10q-154 -58 -313 -293
q-104 -154 -172 -280q-85 -158 -126 -220h211q-10 -13 -10 -28h-220l-33 -44q-16 -22 -33 -42h240q-7 -8 -13 -27h-250q-253 -287 -562 -287q-115 0 -189 52q-75 53 -75 134q0 35 20 57t48 22z" />
    <glyph glyph-name="brokenbar" unicode="&#xa6;" horiz-adv-x="909" 
d="M1263 1583q4 -4 19 -4q26 0 45 3l-516 -778h-65zM2 -423q-8 2 -20 2h-20q-7 0 -22 -2l533 811h64z" />
    <glyph glyph-name="section" unicode="&#xa7;" horiz-adv-x="1272" 
d="M125 -15q-12 -19 -12.5 -49.5t12 -56t35.5 -44.5q50 -41 116.5 -41t117 17.5t88.5 50.5q79 68 83 185q0 71 -51 173q-133 256 -130 352q4 123 89 206q81 78 208 97q-68 205 85 379q113 130 290 130q87 0 145 -48q81 -68 47 -164q-17 -47 -43.5 -64t-46.5 -17t-33.5 11.5
t-12.5 33t17.5 37t38.5 15.5t37 -21q13 21 14.5 51t-10.5 56t-33 46q-47 42 -107 42q-96 0 -164 -38q-136 -75 -140 -218q-2 -65 51 -174l37 -76q94 -176 92 -257.5t-25.5 -133.5t-63.5 -91q-81 -79 -208 -96q45 -135 -10 -270q-59 -142 -201 -207q-70 -32 -133.5 -32
t-102 14t-67.5 38q-63 52 -61 121q0 45 21 72q38 46 77 46q20 0 33 -11.5t13 -32.5t-16 -35.5t-39 -14.5t-37 19zM639 301q124 20 167 123q49 117 -64 324q-33 59 -52 105q-121 -22 -166 -128q-49 -115 65 -319q33 -60 50 -105z" />
    <glyph glyph-name="dieresis" unicode="&#xa8;" horiz-adv-x="754" 
d="M278.5 883.5q-18.5 -7.5 -41 -7.5t-39.5 17.5t-17 39.5t8 39t22 30q31 30 65 30t50.5 -18.5t16.5 -40.5t-9 -39t-23 -30t-32.5 -20.5zM-21 883.5q-18 -7.5 -40 -7.5t-39 17.5t-17 39.5t8 39t21 30q30 30 64.5 30t50 -18.5t15.5 -40.5t-8.5 -39t-22.5 -30t-32 -20.5z" />
    <glyph glyph-name="copyright" unicode="&#xa9;" horiz-adv-x="1270" 
d="M97 204q0 66 22.5 141t64.5 145.5t102.5 132t137.5 107.5q164 99 359 99q138 0 238 -72q112 -81 112 -218q0 -129 -62 -248q-51 -97 -109 -141q-75 -104 -205 -176q-147 -81 -304 -81q-171 0 -267 91q-89 84 -89 220zM1009 247q80 99 80 281q0 135 -102 208
q-88 62 -205.5 62t-200.5 -24.5t-151.5 -67.5t-122.5 -100t-91 -122q-76 -134 -76 -272q0 -185 168 -258q59 -26 140.5 -26t149.5 16.5t126 44.5q115 56 187 142q-2 0 -4 4t2 8t6 9l34 31l19 35q15 33 27 37t14 -8zM830 487q-31 0 -31 25q0 45 -17.5 66.5t-67.5 21.5
t-102.5 -25t-94.5 -68q-94 -96 -100 -225q-4 -79 33 -120t88 -41q103 0 197 90q11 11 17 11t9.5 -4.5t3.5 -10.5t-19 -24t-46.5 -36t-57.5 -31q-63 -28 -111.5 -28t-85.5 12t-65 36q-63 52 -59 132.5t40 145t93 111.5q120 99 279 99q66 0 95 -22q46 -36 46 -60t-13 -39.5
t-31 -15.5z" />
    <glyph glyph-name="ordfeminine" unicode="&#xaa;" horiz-adv-x="1221" 
d="M906 1074q-175 -205 -289 -205q-49 0 -76 25.5t-27 74.5q0 99 103 219q169 196 360 196q38 0 61 -16.5t23 -40.5t-7 -45l40 47q18 20 33 39q24 -6 44 -6q49 0 66 3l-252 -303q-89 -105 -89 -145q0 -19 22 -19q59 0 139 69q16 15 24 15t8 -9t-30 -37t-78.5 -47.5
t-86.5 -19.5q-72 0 -72 51q0 41 91 150zM702 1135q-109 -130 -109 -201q0 -39 27 -39q109 0 307 238l81 97q28 54 28 88t-42 34q-71 0 -199 -117q-45 -41 -93 -100z" />
    <glyph glyph-name="guillemotleft" unicode="&#xab;" horiz-adv-x="1581" 
d="M1006 570q38 29 64 55.5t36 26.5t10 -8q0 -12 -18 -33l-95 -109l-65 -68q-35 -35 -73 -68q21 -54 37 -99l26 -79q7 -27 7 -34q0 -13 -7 -13q-14 0 -24 19.5t-28 48.5q-76 116 -95 139q-29 36 -29 44q0 12 31.5 29.5t69.5 41t77 51.5zM506 320q-17 26 -32.5 44.5
t-15.5 27.5q0 12 31 29l69 41q39 24 78 52l76 56q38 29 60 50q31 32 40.5 32t9.5 -8q0 -12 -18 -33l-94 -109q-72 -78 -139 -135q21 -54 37 -99l26 -80q6 -24 6 -35.5t-10 -11.5t-20 19.5t-28 48.5z" />
    <glyph glyph-name="logicalnot" unicode="&#xac;" horiz-adv-x="1031" 
d="M172 462q35 46 38 56h673l-176 -305q-12 4 -27 4q-25 0 -37 -3l143 248h-614z" />
    <glyph glyph-name="uni00AD" unicode="&#xad;" horiz-adv-x="1261" 
 />
    <glyph glyph-name="registered" unicode="&#xae;" horiz-adv-x="1270" 
d="M621 491q-87 0 -154 25t-111 67q-88 84 -88 215q0 146 87 291q141 235 407 313q90 26 172 26t144.5 -18t112.5 -54q113 -81 113 -218q0 -127 -62 -248q-49 -95 -109 -140q-76 -104 -205 -177q-146 -82 -307 -82zM1179 845q80 105 80 281q0 137 -102 208q-89 62 -205.5 62
t-199.5 -24.5t-152 -67t-123 -99.5t-91 -122q-76 -134 -76 -272q0 -114 70 -191q85 -92 245 -92q212 0 375 124q48 36 82 77q-13 4 4 21l35 33q5 8 19 38t26 33.5t13 -9.5zM966 1150q0 91 -110 91h-10q-4 0 -9 -1l-294 -551h-100l290 546q-12 -2 -24.5 -3.5t-24.5 -3.5
q-23 -4 -36 -9q3 8 5 18t4 17q412 63 412 -99q0 -82 -101 -143q-85 -53 -194 -69q21 -6 30 -23.5t15.5 -35.5t24.5 -59q46 -100 83 -100q18 0 35.5 5.5t20.5 9.5q2 -6 -1.5 -14.5t3.5 -14.5q-19 -19 -64.5 -27.5t-67 -8.5t-40 14.5t-30.5 38.5q-17 34 -28 85.5t-14.5 66
t-6.5 24.5q-6 16 -14 28q-10 14 -10 24t5 14t34.5 12t68.5 20t72 32q76 44 76 116z" />
    <glyph glyph-name="macron" unicode="&#xaf;" horiz-adv-x="870" 
d="M-138 788q47 30 73 54h471q-41 -26 -61 -54h-483z" />
    <glyph glyph-name="degree" unicode="&#xb0;" horiz-adv-x="1064" 
d="M694.5 1078.5q-29.5 -11.5 -63.5 -11.5t-63 11.5t-50 31.5q-45 44 -45 93.5t13 79.5t36 53q48 48 120 48q68 0 112 -45q42 -44 42 -96t-13.5 -81.5t-36 -50.5t-52 -32.5zM589 1112.5q22 -8.5 46.5 -8.5t46 8t38.5 24q35 34 35 88.5t-33 88.5t-72.5 34t-62 -10.5
t-38.5 -27.5q-34 -36 -34 -75t9.5 -60.5t26 -37t38.5 -24z" />
    <glyph glyph-name="plusminus" unicode="&#xb1;" horiz-adv-x="1206" 
d="M424 423q-20 4 -30 4q-19 0 -35 -4l180 293h-272q31 35 41 55h265l170 277q20 -4 29 -4q14 0 40 4l-172 -277h276q-14 -14 -22 -26l-18 -29h-270zM172 130l24 27q10 10 18 25h579l-17 -26q-8 -12 -11 -26h-593z" />
    <glyph glyph-name="twosuperior" unicode="&#xb2;" horiz-adv-x="1183" 
d="M386 647q120 62 219 62q86 0 146 -42q56 -35 87 -35t55.5 10.5t43.5 27.5q42 38 46 68.5t13 30.5q14 0 14 -26.5t-20 -61t-52 -63.5q-74 -67 -154 -67q-66 0 -116 41q-77 63 -152 63q-97 0 -204 -91q-17 -13 -27 -13t-10 13t17 35.5t58 54.5q91 72 230.5 144.5t211 120
t120.5 99.5q99 108 99 246q0 54 -26 86t-66.5 32t-79.5 -19.5t-77.5 -51t-73.5 -71.5t-62 -80q-58 -90 -58 -144.5t49 -54.5q93 0 196 136q12 12 20.5 12t8.5 -10.5t-23.5 -41t-61.5 -61.5q-77 -61 -143 -61q-82 0 -102 69q-5 17 -5 43t16.5 68.5t45.5 84t68.5 80t84.5 67.5
q99 63 195 63q137 0 179 -106q13 -32 13 -81t-30.5 -107.5t-87.5 -113.5q-112 -109 -326 -204l-105 -48q-113 -53 -174 -103z" />
    <glyph glyph-name="threesuperior" unicode="&#xb3;" horiz-adv-x="1065" 
d="M353 660q0 -15 -4 -29q54 -54 142 -54t148.5 24t102.5 64q88 82 88 201q0 66 -56 96q-17 10 -39 10t-41 -5.5t-36.5 -15.5t-34.5 -24l-36 -30q-10 -11 -25 -3q-11 8 -1 21.5t23 25t31 22.5t41 23l55 26q241 110 241 250q0 53 -30.5 87t-81.5 34t-96.5 -23t-83.5 -59
q-87 -82 -87 -169q0 -44 44 -44q76 0 125 96q15 29 20 51.5t7.5 25.5t10 3t7.5 -25t-13.5 -58.5t-37.5 -59.5q-54 -59 -124 -59q-38 0 -65 23.5t-27 68t28 89.5t74 82q104 85 215.5 85t162 -42t50.5 -109.5t-65.5 -136t-203.5 -123.5q63 -11 95 -43q58 -60 58 -119.5
t-36 -111.5t-96 -91q-130 -83 -298 -83q-94 0 -164 41q-65 37 -65 77q0 15 10.5 27.5t29.5 12.5q38 0 38 -49z" />
    <glyph glyph-name="acute" unicode="&#xb4;" horiz-adv-x="612" 
d="M-103 820q85 50 126 117q25 42 39 149q9 63 52.5 63t43.5 -55q0 -57 -64 -140q-78 -101 -190 -160q-12 -6 -22 -6t-10 8t6 11.5t19 12.5z" />
    <glyph glyph-name="mu" unicode="&#xb5;" horiz-adv-x="1028" 
d="M511 51q0 -25 41 -25q67 0 158 62q31 21 61 51q5 -3 5 -13q0 -18 -5 -23q-118 -105 -237 -105q-33 0 -51.5 20t-18.5 56q0 76 54 175q-203 -179 -350 -235q-44 -16 -83 -16t-63 24l-255 -370q-137 -215 -150 -237q-48 -8 -75 -8t-37 0.5t-21 2.5l-22 2q-10 2 -16 4
l778 1012l190 242q21 -7 62 -7h52q40 0 55 3l-123 -130q-251 -280 -297 -336q-81 -97 -81 -135.5t27 -38.5q48 0 191 94q192 126 315 270l39 48l-1 -2q44 51 99 108l125 126q56 -7 80 -7q32 0 74 3l-225 -240l-219 -248q-65 -76 -70.5 -98t-5.5 -29z" />
    <glyph glyph-name="mu" unicode="&#x3bc;" horiz-adv-x="1028" 
d="M511 51q0 -25 41 -25q67 0 158 62q31 21 61 51q5 -3 5 -13q0 -18 -5 -23q-118 -105 -237 -105q-33 0 -51.5 20t-18.5 56q0 76 54 175q-203 -179 -350 -235q-44 -16 -83 -16t-63 24l-255 -370q-137 -215 -150 -237q-48 -8 -75 -8t-37 0.5t-21 2.5l-22 2q-10 2 -16 4
l778 1012l190 242q21 -7 62 -7h52q40 0 55 3l-123 -130q-251 -280 -297 -336q-81 -97 -81 -135.5t27 -38.5q48 0 191 94q192 126 315 270l39 48l-1 -2q44 51 99 108l125 126q56 -7 80 -7q32 0 74 3l-225 -240l-219 -248q-65 -76 -70.5 -98t-5.5 -29z" />
    <glyph glyph-name="paragraph" unicode="&#xb6;" horiz-adv-x="1748" 
d="M591 -69q-171 -151 -303 -151q-157 0 -205 89q-42 78 9 123q48 43 94 18q18 -11 20 -32t-13 -37.5t-33 -18.5q-36 -4 -54 6q0 -85 102 -113q33 -9 76 -9.5t108 33t155 111.5q201 176 461 530q-55 -23 -108.5 -23t-93.5 13t-69 36q-58 46 -70.5 119t16 146.5t86.5 140.5
t140 125t177 101q206 91 402 91q101 0 191 -19q166 191 285 210q31 5 68 5t63 -22.5t31 -51.5t-8 -45t-33 -16t-34.5 15.5t-17.5 33.5q-6 37 22 50q-18 10 -39.5 10t-42.5 -10.5t-47 -36.5q-53 -50 -139 -171q16 -6 30.5 -10t23 -8.5t13 -8.5t6 -7t2.5 -4q1 -17 -12 -17
t-23 7t-30 15l-26 10l-175 -258l-251 -384q-216 -332 -400 -484q-148 -122 -272 -122q-48 0 -82 21zM1504 1205l-32 1q-145 0 -318 -104q-170 -101 -274 -244q-112 -156 -89 -289q15 -86 104 -86q73 0 145 40q109 152 141 201l173 266zM1662 1190q-52 10 -118 14l-456 -666
l-167 -234q-170 -225 -307 -352q22 -16 52 -16t57.5 11.5t66 42t89 85t116 140t147.5 206.5l183 285q187 305 337 484z" />
    <glyph glyph-name="periodcentered" unicode="&#xb7;" horiz-adv-x="726" 
d="M96.5 380q-21.5 -9 -48 -9t-46.5 20.5t-20 47.5t9.5 46.5t25.5 34.5q36 35 77 35q79 0 79 -74q0 -42 -27.5 -67t-49 -34z" />
    <glyph glyph-name="cedilla" unicode="&#xb8;" horiz-adv-x="614" 
d="M60 -169q0 44 -68 44q-22 0 -43 -7l98 150l28 -8l-50 -75q17 5 47 5t55 -23.5t25 -50.5t-8 -46.5t-22 -36.5q-54 -68 -173 -121q-49 -21 -68 -21t-19 14q0 9 21 17q87 28 132 66t45 93z" />
    <glyph glyph-name="onesuperior" unicode="&#xb9;" horiz-adv-x="1118" 
d="M1030.5 1354.5q-31.5 -43.5 -79 -121.5t-103.5 -181q-163 -308 -242 -477q-5 0 -14 1t-20 2h-20q-10 1 -22 1q-44 0 -65 -7l402 602q-116 -120 -193 -184q-117 -95 -134 -95q-26 0 -26 16t14 22l22 11q10 4 27.5 14.5t55 39t79.5 64.5l84 78q136 130 219 251q23 31 35 31
t12 -12t-31.5 -55.5z" />
    <glyph glyph-name="ordmasculine" unicode="&#xba;" horiz-adv-x="1085" 
d="M622 869q-50 0 -79 28.5t-29 62.5t7.5 62t20.5 56q66 148 212 241q100 64 173 64q126 0 126 -86q0 -128 -117 -263q-147 -165 -314 -165zM969 1347q-81 0 -260 -204q-97 -110 -97 -199q0 -43 43 -43q107 0 225 117q85 83 127 182q20 46 20 92q0 55 -58 55z" />
    <glyph glyph-name="guillemotright" unicode="&#xbb;" horiz-adv-x="1709" 
d="M1012 427q-68 175 -68 200.5t8 25.5q12 0 19 -18q12 -22 31 -51l75 -112q18 -25 33 -43t15 -27q0 -14 -31.5 -30.5t-69.5 -40t-77 -51.5q-87 -61 -121 -95q-45 -44 -54.5 -44t-9.5 9q0 10 18 32q60 71 92 106l67 70q35 36 73 69zM718 426q-68 175 -68 201t8 26
q12 0 22 -20t28 -49q75 -114 99.5 -144t24.5 -40.5t-31.5 -27.5t-69.5 -40.5t-77 -51.5q-87 -61 -121 -95q-45 -44 -54.5 -44t-9.5 9q0 10 17 32l93 106l67 70q34 35 72 68z" />
    <glyph glyph-name="onequarter" unicode="&#xbc;" horiz-adv-x="2441" 
d="M676 22q-10 2 -22 2q-21 0 -49 -2l965 1351q15 -5 28 -5q31 0 40 3zM924.5 1174q-31.5 -44 -79 -122t-103.5 -181q-163 -308 -242 -477q-5 0 -14 1t-20 1l-20 2h-22q-44 0 -65 -7l402 602q-116 -120 -193 -183q-117 -96 -134 -96q-26 0 -26 16t14 22l22 10
q10 5 27.5 15.5t55 39t79.5 65.5l84 77q136 130 219 251q23 31 35 31t12 -11.5t-31.5 -55.5zM1468 382q-126 -108 -206 -108q-37 0 -53.5 17.5t-16.5 39.5t12 40t34 32q50 32 103 32t103 -12q43 42 93 97l99 112q101 119 170 225q27 3 52 5l74 6q12 1 25 1t13 -6t-5 -8.5
t-22 -12.5q-46 -29 -97 -84q-187 -197 -239 -247l-108 -103l125 -38q15 -5 30 -9l31 -8q180 198 321 282q16 10 27.5 10t11.5 -7q0 -11 -20.5 -24.5t-50.5 -41.5t-64 -64q-101 -112 -149 -172q67 -13 111 -13q93 0 148 33q22 10 28 13t11 3q10 0 10 -6q0 -14 -26 -30
q-67 -43 -187 -43q-53 0 -120 12q-115 -146 -202 -286q-17 2 -36 3l-30 2h-18q-24 0 -42 -5q179 225 249 303l-56 16q-29 9 -61 20zM1417 397q-46 12 -68 12t-42 -8.5t-37 -21.5q-38 -30 -38 -55t28 -25q39 0 121 67z" />
    <glyph glyph-name="onehalf" unicode="&#xbd;" horiz-adv-x="2440" 
d="M676 22q-10 2 -22 2q-21 0 -49 -2l965 1351q15 -5 28 -5q31 0 40 3zM924.5 1174q-31.5 -44 -79 -122t-103.5 -181q-163 -308 -242 -477q-5 0 -14 1t-20 1l-20 2h-22q-44 0 -65 -7l402 602q-116 -120 -193 -183q-117 -96 -134 -96q-26 0 -26 16t14 22l22 10
q10 5 27.5 15.5t55 39t79.5 65.5l84 77q136 130 219 251q23 31 35 31t12 -11.5t-31.5 -55.5zM1315 151q117 62 217 62q85 0 147 -42q53 -36 85 -36t56.5 10.5t43.5 27.5q42 36 46 68.5t16 32.5t12 -27t-20 -62t-52 -64q-74 -67 -154 -67q-64 0 -115 41q-81 65 -153 65
q-96 0 -204 -92q-16 -14 -27 -14t-11 13q0 50 184 164q67 42 164.5 92.5t169 98t120.5 100.5q99 107 99 245q0 54 -27 86t-67 32t-78.5 -19.5t-77 -51t-73.5 -71.5t-62 -81q-58 -89 -58 -141q0 -57 49 -57q92 0 196 137q11 12 19.5 12t8.5 -10.5t-23.5 -42t-68.5 -68.5
q-69 -53 -136 -53q-55 0 -84 36q-22 27 -22 64.5t16.5 80t45.5 84t68.5 79.5t84.5 67q99 63 195 63q137 0 179 -106q12 -32 12 -81t-30.5 -107.5t-87.5 -114.5q-113 -109 -327 -203q-168 -74 -211.5 -103.5t-64.5 -46.5z" />
    <glyph glyph-name="threequarters" unicode="&#xbe;" horiz-adv-x="2469" 
d="M676 22q-10 2 -22 2q-21 0 -49 -2l965 1351q15 -5 28 -5q31 0 40 3zM257 479q0 -15 -4 -29q54 -54 142 -54t148.5 24t102.5 64q88 82 88 201q0 66 -56 97q-17 9 -39 9t-41 -5.5t-36.5 -15.5t-34.5 -24l-36 -30q-10 -11 -25 -3q-11 8 -1 21.5t23 25t31 22.5t41 22l55 27
q241 110 241 250q0 53 -30.5 87t-81.5 34t-96.5 -23t-83.5 -59q-87 -82 -87 -169q0 -44 44 -44q76 0 125 95q15 30 20 52.5t7.5 25.5t10 3t7.5 -25t-13.5 -58.5t-37.5 -59.5q-54 -59 -124 -59q-38 0 -65 23.5t-27 68t28 89.5t74 82q104 85 215.5 85t162 -42t50.5 -109.5
t-65.5 -136t-203.5 -123.5q63 -11 95 -43q58 -60 58 -119.5t-36 -111.5t-96 -90q-130 -84 -298 -84q-94 0 -164 40q-65 38 -65 78q0 15 10.5 27.5t29.5 12.5q38 0 38 -49zM1455 382q-126 -108 -207 -108q-36 0 -51.5 17.5t-15.5 39.5t11.5 40t32.5 32q48 32 102 32t104 -12
q152 149 286 327q44 58 75 107q28 3 52 5l76 6q12 1 24 1t12 -6q0 -7 -22 -19q-51 -31 -102 -86q-185 -195 -237 -246l-99 -95l-10 -9l56 -16l70 -22q14 -5 29 -9l31 -8q180 198 321 282q16 10 28 10t12 -8.5t-20.5 -22.5t-50.5 -42t-65 -64.5l-73 -79.5l-76 -92
q67 -13 111 -13q94 0 147 33l29 13q7 3 10 3q12 0 12 -6q0 -13 -16 -24q-79 -49 -198 -49q-53 0 -120 12q-115 -146 -202 -286q-14 2 -34 3l-31 2h-18q-23 0 -43 -5q179 225 249 303l-57 16q-29 9 -61 20zM1404 397q-44 12 -66.5 12t-42.5 -8.5t-37 -21.5q-39 -30 -39 -54
q0 -26 27 -26q40 0 122 67z" />
    <glyph glyph-name="questiondown" unicode="&#xbf;" horiz-adv-x="1212" 
d="M1034.5 990q-16.5 17 -16.5 40.5t9 40.5t23 29q34 29 65.5 29t49 -18t17.5 -40.5t-8 -39t-22 -29.5q-31 -29 -66 -29t-51.5 17zM938 805q10 15 24 15t14 -15t-12 -31l-45 -58l-139 -166q-104 -113 -169 -177.5t-106.5 -112.5t-66.5 -90q-48 -80 -48 -156.5t35.5 -111.5
t79.5 -35t72 8t51 21q92 51 101 150q1 11 2.5 32t20.5 42.5t46 21.5t41 -16.5t14 -43.5t-29.5 -69t-79.5 -80q-118 -91 -249 -91q-87 0 -156 50q-74 54 -74 136q0 72 38 126q69 98 259 249q156 122 288 276q69 80 73.5 95.5t14.5 30.5z" />
    <glyph glyph-name="Agrave" unicode="&#xc0;" horiz-adv-x="1516" 
d="M1938 1471q0 -12 -10 -12q-12 0 -54 23.5t-80.5 54t-67.5 61.5q-64 68 -64 119t43 51t55 -71q13 -65 37 -100q41 -61 116 -102l19 -15q6 -4 6 -9zM750 199q-142 0 -264 38q-140 -116 -210 -161q-130 -81 -265 -81q-154 0 -199 89q-13 27 -13 53t9 42t22 25q27 19 63 19
q50 0 50 -45q0 -20 -16.5 -34.5t-45 -14.5t-42.5 10v-7q0 -110 180 -110q125 0 283 110l149 117q-142 53 -227 150q-82 92 -88 203q-6 109 72 186q82 81 222 81q195 0 328 -167q40 -51 68 -109q321 308 420 396l164 142q332 273 489 273q18 0 18 -6q0 -7 -16.5 -13
t-36.5 -26t-58 -67l-98 -125l-677 -900q279 83 435 297q50 68 67 114q23 61 28 61q3 0 9.5 -8.5t5 -36t-14.5 -65t-33 -71.5q-33 -57 -109 -129q-153 -149 -420 -204l-171 -226l-64 4q-32 2 -50.5 2t-31.5 -2l-28 -4l148 183q3 5 6 9.5t5 9.5q-32 -2 -63 -2zM840 562
q41 -105 41 -180t-12 -118l371 449q367 427 455 520.5t130 132.5l-67 -28q-135 -59 -386 -276l-210 -190zM475 269l328 303q-83 189 -253 248q-57 19 -111.5 19t-97 -19.5t-74.5 -51.5q-69 -69 -69 -164q0 -167 156 -275q52 -36 121 -60zM510 258q110 -31 246 -31q35 0 70 3
q23 59 23 114q0 102 -33 195q-225 -212 -306 -281z" />
    <glyph glyph-name="Aacute" unicode="&#xc1;" horiz-adv-x="1516" 
d="M1913.5 1459q-12.5 0 -12.5 12q0 5 6.5 9.5l26.5 17.5q94 59 128 138q10 21 18 61q9 71 53 71t44 -55q0 -45 -64 -115q-59 -64 -123 -101.5t-76.5 -37.5zM750 199q-142 0 -264 38q-140 -116 -210 -161q-130 -81 -265 -81q-154 0 -199 89q-13 27 -13 53t9 42t22 25
q27 19 63 19q50 0 50 -45q0 -20 -16.5 -34.5t-45 -14.5t-42.5 10v-7q0 -110 180 -110q125 0 283 110l149 117q-142 53 -227 150q-82 92 -88 203q-6 109 72 186q82 81 222 81q195 0 328 -167q40 -51 68 -109q321 308 420 396l164 142q332 273 489 273q18 0 18 -6
q0 -7 -16.5 -13t-36.5 -26t-58 -67l-98 -125l-677 -900q279 83 435 297q50 68 67 114q23 61 28 61q3 0 9.5 -8.5t5 -36t-14.5 -65t-33 -71.5q-33 -57 -109 -129q-153 -149 -420 -204l-171 -226l-64 4q-32 2 -50.5 2t-31.5 -2l-28 -4l148 183q3 5 6 9.5t5 9.5q-32 -2 -63 -2z
M840 562q41 -105 41 -180t-12 -118l371 449q367 427 455 520.5t130 132.5l-67 -28q-135 -59 -386 -276l-210 -190zM475 269l328 303q-83 189 -253 248q-57 19 -111.5 19t-97 -19.5t-74.5 -51.5q-69 -69 -69 -164q0 -167 156 -275q52 -36 121 -60zM510 258q110 -31 246 -31
q35 0 70 3q23 59 23 114q0 102 -33 195q-225 -212 -306 -281z" />
    <glyph glyph-name="Acircumflex" unicode="&#xc2;" horiz-adv-x="1516" 
d="M1821 1528l-98 -65q-40 -25 -50 -25t-10 4q0 13 61 58l127 100q67 54 136 119q44 49 59 49q8 0 8 -7q0 -13 -7 -30q-24 -58 -24 -122q0 -111 43 -150q5 -4 5 -8t-4.5 -9.5t-12.5 -5.5q-34 0 -74 72q-23 41 -27 69l-6 42q-67 -52 -126 -91zM750 199q-142 0 -264 38
q-140 -116 -210 -161q-130 -81 -265 -81q-154 0 -199 89q-13 27 -13 53t9 42t22 25q27 19 63 19q50 0 50 -45q0 -20 -16.5 -34.5t-45 -14.5t-42.5 10v-7q0 -110 180 -110q125 0 283 110l149 117q-142 53 -227 150q-82 92 -88 203q-6 109 72 186q82 81 222 81q195 0 328 -167
q40 -51 68 -109q321 308 420 396l164 142q332 273 489 273q18 0 18 -6q0 -7 -16.5 -13t-36.5 -26t-58 -67l-98 -125l-677 -900q279 83 435 297q50 68 67 114q23 61 28 61q3 0 9.5 -8.5t5 -36t-14.5 -65t-33 -71.5q-33 -57 -109 -129q-153 -149 -420 -204l-171 -226l-64 4
q-32 2 -50.5 2t-31.5 -2l-28 -4l148 183q3 5 6 9.5t5 9.5q-32 -2 -63 -2zM840 562q41 -105 41 -180t-12 -118l371 449q367 427 455 520.5t130 132.5l-67 -28q-135 -59 -386 -276l-210 -190zM475 269l328 303q-83 189 -253 248q-57 19 -111.5 19t-97 -19.5t-74.5 -51.5
q-69 -69 -69 -164q0 -167 156 -275q52 -36 121 -60zM510 258q110 -31 246 -31q35 0 70 3q23 59 23 114q0 102 -33 195q-225 -212 -306 -281z" />
    <glyph glyph-name="Atilde" unicode="&#xc3;" horiz-adv-x="1516" 
d="M1736 1492q-10 0 -10 14q0 39 40 81q70 73 123 73q44 0 91 -33q75 -52 117 -52q61 0 92 76q10 18 17 18q14 0 14 -14q0 -35 -40 -79q-69 -76 -125 -76q-43 0 -95 35t-71.5 43t-39.5 8q-64 0 -94 -78q-9 -16 -19 -16zM750 199q-142 0 -264 38q-140 -116 -210 -161
q-130 -81 -265 -81q-154 0 -199 89q-13 27 -13 53t9 42t22 25q27 19 63 19q50 0 50 -45q0 -20 -16.5 -34.5t-45 -14.5t-42.5 10v-7q0 -110 180 -110q125 0 283 110l149 117q-142 53 -227 150q-82 92 -88 203q-6 109 72 186q82 81 222 81q195 0 328 -167q40 -51 68 -109
q321 308 420 396l164 142q332 273 489 273q18 0 18 -6q0 -7 -16.5 -13t-36.5 -26t-58 -67l-98 -125l-677 -900q279 83 435 297q50 68 67 114q23 61 28 61q3 0 9.5 -8.5t5 -36t-14.5 -65t-33 -71.5q-33 -57 -109 -129q-153 -149 -420 -204l-171 -226l-64 4q-32 2 -50.5 2
t-31.5 -2l-28 -4l148 183q3 5 6 9.5t5 9.5q-32 -2 -63 -2zM840 562q41 -105 41 -180t-12 -118l371 449q367 427 455 520.5t130 132.5l-67 -28q-135 -59 -386 -276l-210 -190zM475 269l328 303q-83 189 -253 248q-57 19 -111.5 19t-97 -19.5t-74.5 -51.5q-69 -69 -69 -164
q0 -167 156 -275q52 -36 121 -60zM510 258q110 -31 246 -31q35 0 70 3q23 59 23 114q0 102 -33 195q-225 -212 -306 -281z" />
    <glyph glyph-name="Adieresis" unicode="&#xc4;" horiz-adv-x="1516" 
d="M2011.5 1486.5q-16.5 18.5 -16.5 40.5t8 38.5t21 29.5q31 29 65 29t51 -17.5t17 -40t-9 -39.5t-23 -30q-31 -29 -64 -29t-49.5 18.5zM1712.5 1486.5q-16.5 18.5 -16.5 40.5t8 38.5t22 29.5q30 29 64 29t50 -17.5t16 -40t-8.5 -39.5t-22.5 -30q-31 -29 -63.5 -29t-49 18.5
zM750 199q-142 0 -264 38q-140 -116 -210 -161q-130 -81 -265 -81q-154 0 -199 89q-13 27 -13 53t9 42t22 25q27 19 63 19q50 0 50 -45q0 -20 -16.5 -34.5t-45 -14.5t-42.5 10v-7q0 -110 180 -110q125 0 283 110l149 117q-142 53 -227 150q-82 92 -88 203q-6 109 72 186
q82 81 222 81q195 0 328 -167q40 -51 68 -109q321 308 420 396l164 142q332 273 489 273q18 0 18 -6q0 -7 -16.5 -13t-36.5 -26t-58 -67l-98 -125l-677 -900q279 83 435 297q50 68 67 114q23 61 28 61q3 0 9.5 -8.5t5 -36t-14.5 -65t-33 -71.5q-33 -57 -109 -129
q-153 -149 -420 -204l-171 -226l-64 4q-32 2 -50.5 2t-31.5 -2l-28 -4l148 183q3 5 6 9.5t5 9.5q-32 -2 -63 -2zM840 562q41 -105 41 -180t-12 -118l371 449q367 427 455 520.5t130 132.5l-67 -28q-135 -59 -386 -276l-210 -190zM475 269l328 303q-83 189 -253 248
q-57 19 -111.5 19t-97 -19.5t-74.5 -51.5q-69 -69 -69 -164q0 -167 156 -275q52 -36 121 -60zM510 258q110 -31 246 -31q35 0 70 3q23 59 23 114q0 102 -33 195q-225 -212 -306 -281z" />
    <glyph glyph-name="Aring" unicode="&#xc5;" horiz-adv-x="1516" 
d="M2092 1729q39 0 59 -21.5t20 -55t-22.5 -68.5t-56.5 -63q-79 -64 -161 -64t-82 73.5t83 136t160 62.5zM2073 1701q-59 0 -114 -55q-53 -53 -53 -107.5t45 -54.5q58 0 109 53q53 55 53 109.5t-40 54.5zM750 199q-142 0 -264 38q-140 -116 -210 -161q-130 -81 -265 -81
q-154 0 -199 89q-13 27 -13 53t9 42t22 25q27 19 63 19q50 0 50 -45q0 -20 -16.5 -34.5t-45 -14.5t-42.5 10v-7q0 -110 180 -110q125 0 283 110l149 117q-142 53 -227 150q-82 92 -88 203q-6 109 72 186q82 81 222 81q195 0 328 -167q40 -51 68 -109q321 308 420 396
l164 142q332 273 489 273q18 0 18 -6q0 -7 -16.5 -13t-36.5 -26t-58 -67l-98 -125l-677 -900q279 83 435 297q50 68 67 114q23 61 28 61q3 0 9.5 -8.5t5 -36t-14.5 -65t-33 -71.5q-33 -57 -109 -129q-153 -149 -420 -204l-171 -226l-64 4q-32 2 -50.5 2t-31.5 -2l-28 -4
l148 183q3 5 6 9.5t5 9.5q-32 -2 -63 -2zM840 562q41 -105 41 -180t-12 -118l371 449q367 427 455 520.5t130 132.5l-67 -28q-135 -59 -386 -276l-210 -190zM475 269l328 303q-83 189 -253 248q-57 19 -111.5 19t-97 -19.5t-74.5 -51.5q-69 -69 -69 -164q0 -167 156 -275
q52 -36 121 -60zM510 258q110 -31 246 -31q35 0 70 3q23 59 23 114q0 102 -33 195q-225 -212 -306 -281z" />
    <glyph glyph-name="AE" unicode="&#xc6;" horiz-adv-x="2095" 
d="M734 132q-171 0 -316 49q-84 -68 -149 -108q-123 -78 -258 -78q-105 0 -171 59q-60 54 -60 118q0 30 18.5 50t45.5 20t44 -16t17 -37t-14.5 -34t-29.5 -13q-23 0 -33 5q17 -81 119 -111q34 -10 88 -10q115 0 267 106l40 30q21 15 41 32q-219 88 -283 258q-21 53 -21 101
t17 90t50 77q74 77 195 77q197 0 337 -167q43 -50 73 -108q399 382 497 468l162 141q332 273 489 273q18 0 18 -6q0 -7 -15.5 -12.5t-32.5 -19.5t-46 -45l-73 -82l-106 -128l-146 -184l-193 -250q140 72 294 72q30 0 56 -2q-11 39 -11 93.5t27 119.5t73 126t108.5 114
t133.5 92q152 86 295 86q161 0 199 -94q10 -27 10 -65t-19.5 -90.5t-54.5 -102.5t-84 -95t-107 -79q-127 -73 -260 -73q-56 0 -86 26.5t-30 62.5t17 74.5t47.5 77.5t73.5 75.5t95 64.5q114 62 230 62q23 0 23 -12.5t-42 -12.5t-93.5 -15.5t-98.5 -41.5t-87.5 -60t-69.5 -70
q-63 -76 -63 -139.5t87 -63.5q139 0 308 141q102 84 149 186q23 50 23 101t-36 83t-110 32q-173 0 -366 -189q-138 -135 -193 -278q-26 -68 -26 -123v-20q78 -14 116 -40.5t38 -56.5t-49 -30q-106 0 -154 101h-7q-112 0 -253 -90q-129 -82 -223 -198q-96 -119 -96 -200.5
t47.5 -133.5t138.5 -68q24 158 121 290q140 191 329 191q69 0 102 -33.5t33 -98.5t-42 -135t-113 -125q-157 -122 -361 -122q-24 0 -46 2q-3 -24 -3 -74.5t21.5 -103t44.5 -71t23 -23.5q0 -11 -13 -11q-8 0 -34.5 24t-47.5 75.5t-21 107.5t3 80q-117 18 -188 91
q-68 72 -68 166q0 24 3 48l-231 -303q-93 6 -108 6t-28 -2l-27 -4zM766 491q48 -109 48 -216q0 -27 -4 -53l388 456q379 430 477 532l140 145l-62 -23q-32 -12 -85 -43.5t-127.5 -88.5t-168.5 -138l-210 -190zM420 223q190 164 308 276q-57 117 -162 191q-104 73 -214 73
q-149 0 -190 -128q-13 -39 -13 -89t19 -98t54 -90q72 -85 198 -135zM1722 709q19 -67 95 -67q13 0 13 13t-28.5 29.5t-79.5 24.5zM1303 21q11 -2 22 -2h40.5t83.5 21t107.5 54.5t102 76t85.5 85.5q82 93 82 139t-21.5 62.5t-66.5 16.5t-94 -21t-100 -60q-116 -89 -182 -215
q-42 -81 -59 -157zM760 163q1 0 11 27t10 82q0 105 -39 197q-213 -197 -288 -259q135 -47 306 -47z" />
    <glyph glyph-name="Ccedilla" unicode="&#xc7;" horiz-adv-x="1350" 
d="M474 -169q0 44 -68 44q-22 0 -43 -7l85 131q-8 -1 -14 -1h-14q-177 0 -240 143q-20 47 -20 110q0 234 213 508q-168 38 -214 173q-14 42 -14 90t26 100.5t72.5 102t111 93.5t141.5 77q168 72 342 72q81 0 81 -17q0 -8 -13 -8l-73 4q-211 0 -422 -142q-136 -91 -193 -205
q-30 -59 -30 -105.5t13.5 -77t38.5 -56.5q54 -56 151 -78q210 260 509 436q312 183 561 183q100 0 100 -74q0 -110 -170 -247q-162 -129 -398 -224q-248 -98 -457 -108q-309 -341 -309 -535q0 -95 56 -142t135.5 -47t151.5 31.5t140.5 83t129.5 117t107 132.5
q100 146 100 240q0 42 -22 60t-79 18t-131.5 -33t-144.5 -91q-153 -128 -224 -320q-2 -6 -6 -6t-8 4q-9 9 -1 28q73 192 221 317q150 128 314 128q85 0 129 -38.5t44 -97t-23 -121t-65 -125.5t-101 -122t-132 -107q-158 -104 -335 -121l-44 -66q17 5 47 5t54.5 -23.5
t24.5 -50.5t-8 -46.5t-21 -36.5q-55 -69 -173 -121q-49 -21 -68 -21t-19 14q0 9 20 17q88 28 133 66t45 93zM1537 1324q0 53 -78 53q-144 0 -413 -185q-262 -178 -485 -417q277 30 626 227q207 117 303 227q47 54 47 95z" />
    <glyph glyph-name="Egrave" unicode="&#xc8;" horiz-adv-x="1127" 
d="M1376 1471q0 -12 -10 -12q-12 0 -54 23.5t-80.5 54t-67.5 61.5q-64 68 -64 119t43 51t55 -71q13 -65 37 -100q41 -61 116 -102l19 -15q6 -4 6 -9zM343 -278.5q0 -6.5 -12 -6.5q-41 0 -67 123q-15 64 -17 134v29q-134 14 -217 87q-80 70 -82 174q-4 126 77 242
q120 173 360 230q78 18 164 18h6q-27 37 -39 85q-157 34 -255.5 106.5t-141.5 169.5q-6 11 -6 24t9.5 13t19.5 -24q91 -204 369 -262q-1 5 -1 11v12q-2 149 94 272q134 171 373 225q72 17 142 17q162 0 252 -57.5t90 -160.5q0 -77 -56 -144.5t-151 -117.5
q-207 -108 -490 -108q-88 0 -164 10q10 -39 33 -75q98 -11 148.5 -39.5t51.5 -59.5q0 -32 -49 -32q-107 0 -200 99q-194 -21 -365 -176q-105 -97 -147 -204q-21 -55 -19.5 -121t51 -119.5t145.5 -68.5q16 184 146 329q133 149 294 149q63 0 109.5 -41t46.5 -108t-41 -134.5
t-113 -117.5q-155 -106 -378 -106l-36 1q-1 -8 -1 -15v-15q0 -102 34 -188q12 -32 22.5 -42.5t10.5 -17zM596 850q56 -8 140.5 -8t163.5 11.5t154.5 33.5t142.5 54t117 73q110 90 110 199q0 71 -72 116q-75 47 -170.5 47t-163.5 -24t-130.5 -64t-115.5 -92t-92 -109
q-84 -120 -84 -223v-14zM655 718q69 -78 141 -78q16 0 16 10t-12.5 20.5t-33.5 20.5q-49 23 -111 27zM278 24q20 -2 57 -2t93 18t109.5 47.5t101 68t83.5 80.5q77 90 77 158q0 42 -31 64t-85 22t-122.5 -32.5t-128.5 -92.5q-135 -137 -154 -331z" />
    <glyph glyph-name="Eacute" unicode="&#xc9;" horiz-adv-x="1127" 
d="M1518 1697q9 71 53 71t44 -55q0 -45 -64 -115q-61 -66 -124 -102.5t-75.5 -36.5t-12.5 12q0 5 6.5 9.5l26.5 17.5q94 59 128 138q10 21 18 61zM343 -278.5q0 -6.5 -12 -6.5q-41 0 -67 123q-15 64 -17 134v29q-134 14 -217 87q-80 70 -82 174q-4 126 77 242
q120 173 360 230q78 18 164 18h6q-27 37 -39 85q-157 34 -255.5 106.5t-141.5 169.5q-6 11 -6 24t9.5 13t19.5 -24q91 -204 369 -262q-1 5 -1 11v12q-2 149 94 272q134 171 373 225q72 17 142 17q162 0 252 -57.5t90 -160.5q0 -77 -56 -144.5t-151 -117.5
q-207 -108 -490 -108q-88 0 -164 10q10 -39 33 -75q98 -11 148.5 -39.5t51.5 -59.5q0 -32 -49 -32q-107 0 -200 99q-194 -21 -365 -176q-105 -97 -147 -204q-21 -55 -19.5 -121t51 -119.5t145.5 -68.5q16 184 146 329q133 149 294 149q63 0 109.5 -41t46.5 -108t-41 -134.5
t-113 -117.5q-155 -106 -378 -106l-36 1q-1 -8 -1 -15v-15q0 -102 34 -188q12 -32 22.5 -42.5t10.5 -17zM596 850q56 -8 140.5 -8t163.5 11.5t154.5 33.5t142.5 54t117 73q110 90 110 199q0 71 -72 116q-75 47 -170.5 47t-163.5 -24t-130.5 -64t-115.5 -92t-92 -109
q-84 -120 -84 -223v-14zM655 718q69 -78 141 -78q16 0 16 10t-12.5 20.5t-33.5 20.5q-49 23 -111 27zM278 24q20 -2 57 -2t93 18t109.5 47.5t101 68t83.5 80.5q77 90 77 158q0 42 -31 64t-85 22t-122.5 -32.5t-128.5 -92.5q-135 -137 -154 -331z" />
    <glyph glyph-name="Ecircumflex" unicode="&#xca;" horiz-adv-x="1127" 
d="M1259 1528l-98 -65q-40 -25 -50 -25t-10 4q0 13 61 58l127 100q67 54 136 119q44 49 59 49q8 0 8 -7q0 -13 -7 -30q-24 -58 -24 -122q0 -111 43 -150q5 -4 5 -8t-4.5 -9.5t-12.5 -5.5q-34 0 -74 72q-23 41 -27 69l-6 42q-67 -52 -126 -91zM343 -278.5q0 -6.5 -12 -6.5
q-41 0 -67 123q-15 64 -17 134v29q-134 14 -217 87q-80 70 -82 174q-4 126 77 242q120 173 360 230q78 18 164 18h6q-27 37 -39 85q-157 34 -255.5 106.5t-141.5 169.5q-6 11 -6 24t9.5 13t19.5 -24q91 -204 369 -262q-1 5 -1 11v12q-2 149 94 272q134 171 373 225
q72 17 142 17q162 0 252 -57.5t90 -160.5q0 -77 -56 -144.5t-151 -117.5q-207 -108 -490 -108q-88 0 -164 10q10 -39 33 -75q98 -11 148.5 -39.5t51.5 -59.5q0 -32 -49 -32q-107 0 -200 99q-194 -21 -365 -176q-105 -97 -147 -204q-21 -55 -19.5 -121t51 -119.5t145.5 -68.5
q16 184 146 329q133 149 294 149q63 0 109.5 -41t46.5 -108t-41 -134.5t-113 -117.5q-155 -106 -378 -106l-36 1q-1 -8 -1 -15v-15q0 -102 34 -188q12 -32 22.5 -42.5t10.5 -17zM596 850q56 -8 140.5 -8t163.5 11.5t154.5 33.5t142.5 54t117 73q110 90 110 199q0 71 -72 116
q-75 47 -170.5 47t-163.5 -24t-130.5 -64t-115.5 -92t-92 -109q-84 -120 -84 -223v-14zM655 718q69 -78 141 -78q16 0 16 10t-12.5 20.5t-33.5 20.5q-49 23 -111 27zM278 24q20 -2 57 -2t93 18t109.5 47.5t101 68t83.5 80.5q77 90 77 158q0 42 -31 64t-85 22t-122.5 -32.5
t-128.5 -92.5q-135 -137 -154 -331z" />
    <glyph glyph-name="Edieresis" unicode="&#xcb;" horiz-adv-x="1127" 
d="M1530.5 1476q-18.5 -8 -41.5 -8t-39.5 18.5t-16.5 40.5t8 38.5t21 29.5q31 29 65 29t51 -17.5t17 -40t-9 -39.5t-23 -30t-32.5 -21zM1231 1476q-18 -8 -41 -8t-39.5 18.5t-16.5 40.5t8 38.5t22 29.5q30 29 64 29t50 -17.5t16 -40t-8.5 -39.5t-22.5 -30t-32 -21z
M343 -278.5q0 -6.5 -12 -6.5q-41 0 -67 123q-15 64 -17 134v29q-134 14 -217 87q-80 70 -82 174q-4 126 77 242q120 173 360 230q78 18 164 18h6q-27 37 -39 85q-157 34 -255.5 106.5t-141.5 169.5q-6 11 -6 24t9.5 13t19.5 -24q91 -204 369 -262q-1 5 -1 11v12
q-2 149 94 272q134 171 373 225q72 17 142 17q162 0 252 -57.5t90 -160.5q0 -77 -56 -144.5t-151 -117.5q-207 -108 -490 -108q-88 0 -164 10q10 -39 33 -75q98 -11 148.5 -39.5t51.5 -59.5q0 -32 -49 -32q-107 0 -200 99q-194 -21 -365 -176q-105 -97 -147 -204
q-21 -55 -19.5 -121t51 -119.5t145.5 -68.5q16 184 146 329q133 149 294 149q63 0 109.5 -41t46.5 -108t-41 -134.5t-113 -117.5q-155 -106 -378 -106l-36 1q-1 -8 -1 -15v-15q0 -102 34 -188q12 -32 22.5 -42.5t10.5 -17zM596 850q56 -8 140.5 -8t163.5 11.5t154.5 33.5
t142.5 54t117 73q110 90 110 199q0 71 -72 116q-75 47 -170.5 47t-163.5 -24t-130.5 -64t-115.5 -92t-92 -109q-84 -120 -84 -223v-14zM655 718q69 -78 141 -78q16 0 16 10t-12.5 20.5t-33.5 20.5q-49 23 -111 27zM278 24q20 -2 57 -2t93 18t109.5 47.5t101 68t83.5 80.5
q77 90 77 158q0 42 -31 64t-85 22t-122.5 -32.5t-128.5 -92.5q-135 -137 -154 -331z" />
    <glyph glyph-name="Igrave" unicode="&#xcc;" horiz-adv-x="1110" 
d="M1530 1471q0 -12 -10 -12q-12 0 -54 23.5t-80.5 54t-67.5 61.5q-64 68 -64 119t43 51t55 -71q13 -65 37 -100q41 -61 116 -102l19 -15q6 -4 6 -9zM1207 857q30 86 30 147.5t11.5 61.5t11.5 -72.5t-30 -160t-81 -163t-120 -137t-147 -105.5q-166 -91 -326 -91h-23
q-249 -243 -481 -315q-76 -24 -135.5 -24t-100.5 11.5t-70 30.5q-57 40 -63 102q-5 63 53 85q57 22 80 -13q19 -29 -1.5 -50.5t-38.5 -23.5q-34 -4 -52 5v-6q5 -48 52 -81.5t118 -33.5t128 17t119 57q121 77 280 265q-133 62 -133 245q0 186 154 370q154 183 402 294
q265 120 558 120l175 -14l102 7q37 0 37 -14q0 -17 -35.5 -19t-65 -1.5t-55.5 0.5q-29 -7 -50 -15l-44 -16q-297 -131 -653 -647q-122 -175 -253 -308h8q142 0 298 91q159 93 260 240q51 75 81 161zM1509 1358q-52 8 -117 8t-152 -20.5t-177 -57t-178.5 -86.5t-169.5 -109
t-150 -123.5t-120 -131.5q-109 -142 -109 -255q0 -154 103 -199q104 131 159 208q265 365 516 564q209 166 395 202z" />
    <glyph glyph-name="Iacute" unicode="&#xcd;" horiz-adv-x="1110" 
d="M1672 1697q9 71 53 71t44 -55q0 -45 -64 -115q-61 -66 -124 -102.5t-75.5 -36.5t-12.5 12q0 5 6.5 9.5l26.5 17.5q94 59 128 138q10 21 18 61zM1207 857q30 86 30 147.5t11.5 61.5t11.5 -72.5t-30 -160t-81 -163t-120 -137t-147 -105.5q-166 -91 -326 -91h-23
q-249 -243 -481 -315q-76 -24 -135.5 -24t-100.5 11.5t-70 30.5q-57 40 -63 102q-5 63 53 85q57 22 80 -13q19 -29 -1.5 -50.5t-38.5 -23.5q-34 -4 -52 5v-6q5 -48 52 -81.5t118 -33.5t128 17t119 57q121 77 280 265q-133 62 -133 245q0 186 154 370q154 183 402 294
q265 120 558 120l175 -14l102 7q37 0 37 -14q0 -17 -35.5 -19t-65 -1.5t-55.5 0.5q-29 -7 -50 -15l-44 -16q-297 -131 -653 -647q-122 -175 -253 -308h8q142 0 298 91q159 93 260 240q51 75 81 161zM1509 1358q-52 8 -117 8t-152 -20.5t-177 -57t-178.5 -86.5t-169.5 -109
t-150 -123.5t-120 -131.5q-109 -142 -109 -255q0 -154 103 -199q104 131 159 208q265 365 516 564q209 166 395 202z" />
    <glyph glyph-name="Icircumflex" unicode="&#xce;" horiz-adv-x="1110" 
d="M1413 1528l-98 -65q-40 -25 -50 -25t-10 4q0 13 61 58l127 100q67 54 136 119q44 49 59 49q8 0 8 -7q0 -13 -7 -30q-24 -58 -24 -122q0 -111 43 -150q5 -4 5 -8t-4.5 -9.5t-12.5 -5.5q-34 0 -74 72q-23 41 -27 69l-6 42q-67 -52 -126 -91zM1207 857q30 86 30 147.5
t11.5 61.5t11.5 -72.5t-30 -160t-81 -163t-120 -137t-147 -105.5q-166 -91 -326 -91h-23q-249 -243 -481 -315q-76 -24 -135.5 -24t-100.5 11.5t-70 30.5q-57 40 -63 102q-5 63 53 85q57 22 80 -13q19 -29 -1.5 -50.5t-38.5 -23.5q-34 -4 -52 5v-6q5 -48 52 -81.5t118 -33.5
t128 17t119 57q121 77 280 265q-133 62 -133 245q0 186 154 370q154 183 402 294q265 120 558 120l175 -14l102 7q37 0 37 -14q0 -17 -35.5 -19t-65 -1.5t-55.5 0.5q-29 -7 -50 -15l-44 -16q-297 -131 -653 -647q-122 -175 -253 -308h8q142 0 298 91q159 93 260 240
q51 75 81 161zM1509 1358q-52 8 -117 8t-152 -20.5t-177 -57t-178.5 -86.5t-169.5 -109t-150 -123.5t-120 -131.5q-109 -142 -109 -255q0 -154 103 -199q104 131 159 208q265 365 516 564q209 166 395 202z" />
    <glyph glyph-name="Idieresis" unicode="&#xcf;" horiz-adv-x="1110" 
d="M1603.5 1486.5q-16.5 18.5 -16.5 40.5t8 38.5t21 29.5q31 29 65 29t51 -17.5t17 -40t-9 -39.5t-23 -30q-31 -29 -64 -29t-49.5 18.5zM1385 1476q-18 -8 -41 -8t-39.5 18.5t-16.5 40.5t8 38.5t22 29.5q30 29 64 29t50 -17.5t16 -40t-8.5 -39.5t-22.5 -30t-32 -21z
M1207 857q30 86 30 147.5t11.5 61.5t11.5 -72.5t-30 -160t-81 -163t-120 -137t-147 -105.5q-166 -91 -326 -91h-23q-249 -243 -481 -315q-76 -24 -135.5 -24t-100.5 11.5t-70 30.5q-57 40 -63 102q-5 63 53 85q57 22 80 -13q19 -29 -1.5 -50.5t-38.5 -23.5q-34 -4 -52 5v-6
q5 -48 52 -81.5t118 -33.5t128 17t119 57q121 77 280 265q-133 62 -133 245q0 186 154 370q154 183 402 294q265 120 558 120l175 -14l102 7q37 0 37 -14q0 -17 -35.5 -19t-65 -1.5t-55.5 0.5q-29 -7 -50 -15l-44 -16q-297 -131 -653 -647q-122 -175 -253 -308h8
q142 0 298 91q159 93 260 240q51 75 81 161zM1509 1358q-52 8 -117 8t-152 -20.5t-177 -57t-178.5 -86.5t-169.5 -109t-150 -123.5t-120 -131.5q-109 -142 -109 -255q0 -154 103 -199q104 131 159 208q265 365 516 564q209 166 395 202z" />
    <glyph glyph-name="Eth" unicode="&#xd0;" horiz-adv-x="1707" 
d="M503 49q-169 -55 -357 -55q-134 0 -170 47q-10 13 -10 27.5t13.5 29.5t39.5 28q59 28 119 28t87 -3t59 -9q56 -12 112 -28.5t59 -16.5t7 -2q123 68 288 237l122 134h-118q22 17 28 34h120l281 336l90 99q47 50 107.5 107t142.5 112q-134 206 -469 206q-187 0 -374 -104
q-169 -95 -280 -239q-109 -142 -109 -260q0 -72 49.5 -116t120.5 -44t137.5 24t136 65.5t137.5 97.5t122 120q119 141 128 269q3 23 11 23q12 0 12 -21q0 -143 -97 -285q-148 -219 -402 -296q-82 -25 -148 -25t-110 15t-78 43q-77 62 -77 144.5t29 156.5t82 141t127.5 124.5
t164.5 100.5q193 90 412 90q348 0 512 -206q228 144 409 152q15 0 15 -8t-5 -10.5t-28 -6.5q-176 -21 -357 -177q74 -123 74 -267t-33 -254t-91 -203.5t-138.5 -168.5t-175.5 -127q-200 -110 -419 -110q-137 0 -308 51zM1343 500q-7 -7 -16 -34h-265q-119 -143 -207 -214
q-159 -128 -304 -185q127 -39 245 -39t214.5 27.5t184 78t162.5 123t130 161.5q117 191 117 418q0 151 -49 258q-112 -104 -197 -227l-145 -205q-60 -84 -123 -162h253zM417 73q-148 38 -243 38t-137.5 -13t-42.5 -30q0 -42 169 -42q148 0 254 47z" />
    <glyph glyph-name="Ntilde" unicode="&#xd1;" horiz-adv-x="1432" 
d="M1534 1492q-10 0 -10 14q0 39 40 81q70 73 123 73q44 0 91 -33q75 -52 117 -52q61 0 92 76q10 18 17 18q14 0 14 -14q0 -35 -40 -79q-69 -76 -125 -76q-43 0 -95 35t-71.5 43t-39.5 8q-64 0 -94 -78q-9 -16 -19 -16zM687 -8q0 11 6 16q48 37 87 142q15 43 33 100l42 138
q119 388 373 821l-268 -331l-192 -223l-119 -133q-362 -396 -565 -490q-74 -34 -130.5 -34t-94.5 10.5t-63 29.5q-49 37 -49 95q0 40 23 57q34 27 60 27q61 0 61 -46q0 -20 -17 -35t-43.5 -15t-43.5 10v-6q0 -44 38.5 -72t102.5 -28t129 28t152 93q187 138 449 432l277 318
q341 408 384 472q18 22 26 22t8 -7t-4 -15l-14 -26q-37 -61 -56.5 -130.5t-30 -110t-24.5 -87.5l-32 -106q-71 -224 -172 -417l-174 -313l303 360l133 152l138 152l135 144q382 396 642 480q88 29 183.5 29.5t149 -46t54.5 -131.5q2 -95 -96 -212q-102 -120 -256 -194
q-36 -17 -51.5 -17t-15.5 7.5t38.5 23t99 56.5t109.5 92q109 117 109 227q0 79 -42.5 122.5t-123 43.5t-174.5 -35t-205 -112q-219 -151 -529 -490l-233 -261l-194 -228l-263 -313q-39 -47 -54.5 -47t-15.5 11zM512 1150q-18 -21 -38 -21t-35 12.5t-15 31t12.5 32.5t33.5 14
t38.5 -9.5t31.5 -27.5q30 -39 30 -98.5t-27 -109t-71 -84.5q-94 -75 -217 -75q-125 0 -206 69q-90 75 -90 207q0 142 125 237q126 96 325 96q119 0 180.5 -18.5t106.5 -37t90 -40.5l102 -47q78 -32 127 -32q95 0 169 66q5 4 11.5 4t6.5 -7q0 -8 -14 -24q-59 -59 -178 -84
q-32 -6 -59 -6t-64 6t-75 16q-77 22 -139.5 58t-107 56.5t-79.5 31.5q-58 19 -130 19t-138.5 -22.5t-117.5 -62.5q-109 -88 -109 -215q0 -107 71 -176q72 -70 189 -70q111 0 195 65q93 70 93 177q0 40 -27 69z" />
    <glyph glyph-name="Ograve" unicode="&#xd2;" horiz-adv-x="1269" 
d="M1181 1471q0 -12 -10 -12q-12 0 -54 23.5t-80.5 54t-68.5 61.5q-63 68 -63 119t43 51t55 -71q13 -65 37 -100q41 -61 116 -102l19 -15q6 -4 6 -9zM1228 925q0 168 -170 168q-127 0 -265 -99q-217 -155 -295 -418q-26 -87 -26 -143.5t2 -79.5t8 -47q13 -58 25.5 -76
t15 -23.5t-4.5 -9.5q-15 -6 -42 51q-34 74 -34 164.5t25 180.5t69 169t104 145t130 113q147 101 298 101q87 0 144 -53q65 -59 65 -161.5t-39 -206t-107 -203.5t-160 -190.5t-198 -158.5q-231 -150 -450 -150q-193 0 -259 169q-23 57 -23 142t28.5 182t80 192t123 185
t157.5 170t183.5 146.5t200.5 114.5q219 102 419 102q202 0 255 -127q16 -38 16 -70.5t-4 -56t-10 -46.5q-19 -65 -35.5 -81.5t-23 -16.5t-6.5 7q0 8 10 21q24 32 32.5 83.5t8.5 83t-14.5 65.5t-45.5 59q-65 51 -170 51t-196 -32t-184 -88t-185 -132t-175.5 -163.5
t-155 -182.5t-124.5 -189q-112 -201 -112 -349q0 -150 124 -198q41 -16 114 -16t174 40t200.5 108t190 158t159.5 190q152 218 152 406z" />
    <glyph glyph-name="Oacute" unicode="&#xd3;" horiz-adv-x="1269" 
d="M1323 1697q9 71 53 71t44 -55q0 -45 -64 -115q-61 -66 -124 -102.5t-75.5 -36.5t-12.5 12q0 5 6.5 9.5t27.5 17.5q93 59 128 138q9 21 17 61zM1228 925q0 168 -170 168q-127 0 -265 -99q-217 -155 -295 -418q-26 -87 -26 -143.5t2 -79.5t8 -47q13 -58 25.5 -76t15 -23.5
t-4.5 -9.5q-15 -6 -42 51q-34 74 -34 164.5t25 180.5t69 169t104 145t130 113q147 101 298 101q87 0 144 -53q65 -59 65 -161.5t-39 -206t-107 -203.5t-160 -190.5t-198 -158.5q-231 -150 -450 -150q-193 0 -259 169q-23 57 -23 142t28.5 182t80 192t123 185t157.5 170
t183.5 146.5t200.5 114.5q219 102 419 102q202 0 255 -127q16 -38 16 -70.5t-4 -56t-10 -46.5q-19 -65 -35.5 -81.5t-23 -16.5t-6.5 7q0 8 10 21q24 32 32.5 83.5t8.5 83t-14.5 65.5t-45.5 59q-65 51 -170 51t-196 -32t-184 -88t-185 -132t-175.5 -163.5t-155 -182.5
t-124.5 -189q-112 -201 -112 -349q0 -150 124 -198q41 -16 114 -16t174 40t200.5 108t190 158t159.5 190q152 218 152 406z" />
    <glyph glyph-name="Ocircumflex" unicode="&#xd4;" horiz-adv-x="1269" 
d="M1064 1528l-98 -65q-40 -25 -50 -25t-10 4q0 13 60 58l128 100q67 54 136 119q44 49 59 49q8 0 8 -7q0 -13 -7 -30q-24 -58 -24 -122q0 -111 44 -150q4 -4 4 -8t-4.5 -9.5t-12.5 -5.5q-34 0 -74 72q-23 41 -27 69l-6 42q-67 -52 -126 -91zM1228 925q0 168 -170 168
q-127 0 -265 -99q-217 -155 -295 -418q-26 -87 -26 -143.5t2 -79.5t8 -47q13 -58 25.5 -76t15 -23.5t-4.5 -9.5q-15 -6 -42 51q-34 74 -34 164.5t25 180.5t69 169t104 145t130 113q147 101 298 101q87 0 144 -53q65 -59 65 -161.5t-39 -206t-107 -203.5t-160 -190.5
t-198 -158.5q-231 -150 -450 -150q-193 0 -259 169q-23 57 -23 142t28.5 182t80 192t123 185t157.5 170t183.5 146.5t200.5 114.5q219 102 419 102q202 0 255 -127q16 -38 16 -70.5t-4 -56t-10 -46.5q-19 -65 -35.5 -81.5t-23 -16.5t-6.5 7q0 8 10 21q24 32 32.5 83.5
t8.5 83t-14.5 65.5t-45.5 59q-65 51 -170 51t-196 -32t-184 -88t-185 -132t-175.5 -163.5t-155 -182.5t-124.5 -189q-112 -201 -112 -349q0 -150 124 -198q41 -16 114 -16t174 40t200.5 108t190 158t159.5 190q152 218 152 406z" />
    <glyph glyph-name="Otilde" unicode="&#xd5;" horiz-adv-x="1269" 
d="M979 1492q-10 0 -10 14q0 39 40 81q70 73 123 73q44 0 91 -33q75 -52 117 -52q61 0 92 76q10 18 17 18q14 0 14 -14q0 -35 -41 -79q-68 -76 -124 -76q-43 0 -95 35t-71.5 43t-39.5 8q-64 0 -94 -78q-9 -16 -19 -16zM1228 925q0 168 -170 168q-127 0 -265 -99
q-217 -155 -295 -418q-26 -87 -26 -143.5t2 -79.5t8 -47q13 -58 25.5 -76t15 -23.5t-4.5 -9.5q-15 -6 -42 51q-34 74 -34 164.5t25 180.5t69 169t104 145t130 113q147 101 298 101q87 0 144 -53q65 -59 65 -161.5t-39 -206t-107 -203.5t-160 -190.5t-198 -158.5
q-231 -150 -450 -150q-193 0 -259 169q-23 57 -23 142t28.5 182t80 192t123 185t157.5 170t183.5 146.5t200.5 114.5q219 102 419 102q202 0 255 -127q16 -38 16 -70.5t-4 -56t-10 -46.5q-19 -65 -35.5 -81.5t-23 -16.5t-6.5 7q0 8 10 21q24 32 32.5 83.5t8.5 83t-14.5 65.5
t-45.5 59q-65 51 -170 51t-196 -32t-184 -88t-185 -132t-175.5 -163.5t-155 -182.5t-124.5 -189q-112 -201 -112 -349q0 -150 124 -198q41 -16 114 -16t174 40t200.5 108t190 158t159.5 190q152 218 152 406z" />
    <glyph glyph-name="Odieresis" unicode="&#xd6;" horiz-adv-x="1269" 
d="M1335.5 1476q-18.5 -8 -41.5 -8t-39.5 18.5t-16.5 40.5t8 38.5t22 29.5q30 29 64 29t51 -17.5t17 -40t-9 -39.5t-23 -30t-32.5 -21zM1036 1476q-18 -8 -41 -8t-39.5 18.5t-16.5 40.5t8 38.5t21 29.5q31 29 65 29t50 -17.5t16 -40t-8.5 -39.5t-22.5 -30t-32 -21zM1228 925
q0 168 -170 168q-127 0 -265 -99q-217 -155 -295 -418q-26 -87 -26 -143.5t2 -79.5t8 -47q13 -58 25.5 -76t15 -23.5t-4.5 -9.5q-15 -6 -42 51q-34 74 -34 164.5t25 180.5t69 169t104 145t130 113q147 101 298 101q87 0 144 -53q65 -59 65 -161.5t-39 -206t-107 -203.5
t-160 -190.5t-198 -158.5q-231 -150 -450 -150q-193 0 -259 169q-23 57 -23 142t28.5 182t80 192t123 185t157.5 170t183.5 146.5t200.5 114.5q219 102 419 102q202 0 255 -127q16 -38 16 -70.5t-4 -56t-10 -46.5q-19 -65 -35.5 -81.5t-23 -16.5t-6.5 7q0 8 10 21
q24 32 32.5 83.5t8.5 83t-14.5 65.5t-45.5 59q-65 51 -170 51t-196 -32t-184 -88t-185 -132t-175.5 -163.5t-155 -182.5t-124.5 -189q-112 -201 -112 -349q0 -150 124 -198q41 -16 114 -16t174 40t200.5 108t190 158t159.5 190q152 218 152 406z" />
    <glyph glyph-name="multiply" unicode="&#xd7;" horiz-adv-x="915" 
d="M169 272q0 31 -17 52l297 201l-89 191q26 13 44 36l92 -195l302 205q7 -38 17 -52l-297 -201l98 -206q-21 -8 -48 -31l-97 205z" />
    <glyph glyph-name="Oslash" unicode="&#xd8;" horiz-adv-x="1269" 
d="M162 -177q-6 1 -15 1h-23q-11 0 -13 -1l136 183q-145 33 -191 180q-15 50 -15 128.5t28.5 175t80 191t123 184.5t157.5 170.5t183.5 147.5t200.5 115q218 103 419 103q26 0 52 -3l142 191q7 -3 24.5 -3t27.5 2l-148 -198q85 -20 129 -73.5t44 -126.5q0 -54 -18.5 -94.5
t-26.5 -51.5q-19 -24 -26.5 -24t-7.5 11q0 4 8 14t15.5 25.5t13.5 34.5q14 44 14 96.5t-39 99.5t-125 64l-187 -251q106 -27 140 -132q12 -36 12 -107t-39 -174.5t-107 -203.5t-160 -190.5t-198 -158.5q-231 -150 -450 -150h-15q-7 0 -15 1zM1265 1371q-22 2 -73 2
t-142 -32.5t-184 -88.5t-185 -132t-175.5 -163.5t-155 -182.5t-124.5 -190q-112 -202 -112 -347q0 -78 37.5 -133.5t113.5 -73.5l792 1063q-111 0 -245 -83q-128 -80 -226 -212q-104 -138 -133 -291q-6 -21 -21 -21q-11 0 -1.5 50.5t43 126.5t81.5 144t108 126t127 99
q143 89 278 89h10zM335 23q175 0 391 148q206 141 350 348q152 218 152 406q0 139 -122 163l-794 -1065h23z" />
    <glyph glyph-name="Ugrave" unicode="&#xd9;" horiz-adv-x="1225" 
d="M1336 1471q0 -12 -10 -12q-12 0 -54 23.5t-80.5 54t-67.5 61.5q-64 68 -64 119t43 51t55 -71q13 -65 37 -100q41 -61 116 -102l19 -15q6 -4 6 -9zM112 -2q-95 0 -99 92q-7 158 269 473q98 111 220.5 227.5t189 186.5t104.5 121q68 90 65 153q-6 120 -201 120
q-226 0 -439 -163q-126 -97 -177 -202q-25 -51 -23 -98.5t30 -73t69.5 -25.5t90.5 21.5t102 58t106.5 85.5t100.5 103q102 116 148 221q14 30 20.5 30t7.5 -18q3 -48 -38 -137t-100.5 -161.5t-127.5 -124.5q-140 -108 -282 -108q-73 0 -113.5 31.5t-42.5 86.5t24.5 112.5
t75 113.5t115.5 106.5t145 88.5q170 83 333 83q91 0 147 -37q242 -161 -448 -876q-228 -237 -265 -284.5t-50 -68.5q-42 -67 -5 -99q15 -13 55.5 -13t114.5 29.5t164 89.5q210 139 390 363q19 25 54 67l439 518l139 159h145q-5 -7 -29 -36l-443 -514l-199.5 -218.5
t-161 -201.5t-73.5 -189q4 -66 82 -66q91 0 221 100q37 28 65 57q12 -7 8 -20.5t-6 -15.5q-109 -96 -217 -133q-42 -14 -82.5 -14t-74.5 24.5t-37 82.5q-4 98 70 217q-293 -250 -486 -308q-54 -16 -90 -16z" />
    <glyph glyph-name="Uacute" unicode="&#xda;" horiz-adv-x="1225" 
d="M1478 1697q9 71 53 71t44 -55q0 -45 -64 -115q-61 -66 -124 -102.5t-75.5 -36.5t-12.5 12q0 5 6.5 9.5l26.5 17.5q94 59 128 138q10 21 18 61zM112 -2q-95 0 -99 92q-7 158 269 473q98 111 220.5 227.5t189 186.5t104.5 121q68 90 65 153q-6 120 -201 120
q-226 0 -439 -163q-126 -97 -177 -202q-25 -51 -23 -98.5t30 -73t69.5 -25.5t90.5 21.5t102 58t106.5 85.5t100.5 103q102 116 148 221q14 30 20.5 30t7.5 -18q3 -48 -38 -137t-100.5 -161.5t-127.5 -124.5q-140 -108 -282 -108q-73 0 -113.5 31.5t-42.5 86.5t24.5 112.5
t75 113.5t115.5 106.5t145 88.5q170 83 333 83q91 0 147 -37q242 -161 -448 -876q-228 -237 -265 -284.5t-50 -68.5q-42 -67 -5 -99q15 -13 55.5 -13t114.5 29.5t164 89.5q210 139 390 363q19 25 54 67l439 518l139 159h145q-5 -7 -29 -36l-443 -514l-199.5 -218.5
t-161 -201.5t-73.5 -189q4 -66 82 -66q91 0 221 100q37 28 65 57q12 -7 8 -20.5t-6 -15.5q-109 -96 -217 -133q-42 -14 -82.5 -14t-74.5 24.5t-37 82.5q-4 98 70 217q-293 -250 -486 -308q-54 -16 -90 -16z" />
    <glyph glyph-name="Ucircumflex" unicode="&#xdb;" horiz-adv-x="1225" 
d="M1219 1528l-98 -65q-40 -25 -50 -25t-10 4q0 13 61 58l127 100q67 54 136 119q44 49 59 49q8 0 8 -7q0 -13 -7 -30q-24 -58 -24 -122q0 -111 43 -150q5 -4 5 -8t-4.5 -9.5t-12.5 -5.5q-34 0 -74 72q-23 41 -27 69l-6 42q-67 -52 -126 -91zM112 -2q-95 0 -99 92
q-7 158 269 473q98 111 220.5 227.5t189 186.5t104.5 121q68 90 65 153q-6 120 -201 120q-226 0 -439 -163q-126 -97 -177 -202q-25 -51 -23 -98.5t30 -73t69.5 -25.5t90.5 21.5t102 58t106.5 85.5t100.5 103q102 116 148 221q14 30 20.5 30t7.5 -18q3 -48 -38 -137
t-100.5 -161.5t-127.5 -124.5q-140 -108 -282 -108q-73 0 -113.5 31.5t-42.5 86.5t24.5 112.5t75 113.5t115.5 106.5t145 88.5q170 83 333 83q91 0 147 -37q242 -161 -448 -876q-228 -237 -265 -284.5t-50 -68.5q-42 -67 -5 -99q15 -13 55.5 -13t114.5 29.5t164 89.5
q210 139 390 363q19 25 54 67l439 518l139 159h145q-5 -7 -29 -36l-443 -514l-199.5 -218.5t-161 -201.5t-73.5 -189q4 -66 82 -66q91 0 221 100q37 28 65 57q12 -7 8 -20.5t-6 -15.5q-109 -96 -217 -133q-42 -14 -82.5 -14t-74.5 24.5t-37 82.5q-4 98 70 217
q-293 -250 -486 -308q-54 -16 -90 -16z" />
    <glyph glyph-name="Udieresis" unicode="&#xdc;" horiz-adv-x="1225" 
d="M1490.5 1476q-18.5 -8 -41.5 -8t-39.5 18.5t-16.5 40.5t8 38.5t21 29.5q31 29 65 29t51 -17.5t17 -40t-9 -39.5t-23 -30t-32.5 -21zM1191 1476q-18 -8 -41 -8t-39.5 18.5t-16.5 40.5t8 38.5t22 29.5q30 29 64 29t50 -17.5t16 -40t-8.5 -39.5t-22.5 -30t-32 -21zM112 -2
q-95 0 -99 92q-7 158 269 473q98 111 220.5 227.5t189 186.5t104.5 121q68 90 65 153q-6 120 -201 120q-226 0 -439 -163q-126 -97 -177 -202q-25 -51 -23 -98.5t30 -73t69.5 -25.5t90.5 21.5t102 58t106.5 85.5t100.5 103q102 116 148 221q14 30 20.5 30t7.5 -18
q3 -48 -38 -137t-100.5 -161.5t-127.5 -124.5q-140 -108 -282 -108q-73 0 -113.5 31.5t-42.5 86.5t24.5 112.5t75 113.5t115.5 106.5t145 88.5q170 83 333 83q91 0 147 -37q242 -161 -448 -876q-228 -237 -265 -284.5t-50 -68.5q-42 -67 -5 -99q15 -13 55.5 -13t114.5 29.5
t164 89.5q210 139 390 363q19 25 54 67l439 518l139 159h145q-5 -7 -29 -36l-443 -514l-199.5 -218.5t-161 -201.5t-73.5 -189q4 -66 82 -66q91 0 221 100q37 28 65 57q12 -7 8 -20.5t-6 -15.5q-109 -96 -217 -133q-42 -14 -82.5 -14t-74.5 24.5t-37 82.5q-4 98 70 217
q-293 -250 -486 -308q-54 -16 -90 -16z" />
    <glyph glyph-name="Yacute" unicode="&#xdd;" horiz-adv-x="1195" 
d="M1504 1697q9 71 53 71t44 -55q0 -45 -64 -115q-61 -66 -124 -102.5t-75.5 -36.5t-12.5 12q0 5 6.5 9.5l26.5 17.5q94 59 128 138q10 21 18 61zM90 734q-118 0 -118 118q0 109 115 241q176 203 443 283q86 25 153 25t111.5 -8t78.5 -26q73 -39 73 -114q0 -87 -46 -162
q-85 -139 -256 -296l-109 -111q-154 -161 -154 -239q0 -29 16 -50t44.5 -21t61.5 11t80.5 38.5t110 74.5t142.5 119q171 153 399 407q148 167 272 216q33 13 51.5 13t18.5 -12q0 -9 -16 -12l-29 -10q-125 -49 -257.5 -214t-260 -405.5t-250 -392t-252.5 -256.5
q-266 -215 -505 -215q-183 0 -249 101q-21 32 -21 63.5t8.5 49t21.5 30.5q27 25 60 25q15 0 32.5 -11t17.5 -33t-17 -37t-41.5 -15t-38.5 6q-3 -11 -3 -29.5t18 -42.5t49 -42q69 -39 154 -39t168.5 36t175.5 108q197 154 386 430l155 226l151 206q-402 -418 -589 -418
q-78 0 -99 68q-6 19 -6 52t25 94.5t68 130.5q86 137 195 248l156 161q91 95 101 120.5t10 39.5q0 109 -196 109q-148 0 -319 -90q-157 -83 -267 -204q-112 -123 -112 -218q0 -85 91 -85q94 0 227 112q101 85 175 181q121 157 133 201q8 14 10 14q8 0 12 -32t-21 -89.5
t-70 -117t-105 -115.5t-123 -100q-141 -96 -240 -96z" />
    <glyph glyph-name="Thorn" unicode="&#xde;" horiz-adv-x="1377" 
d="M1080 469q21 0 21 -13.5t-42 -13.5t-97 -16t-107 -42.5t-98.5 -61t-80.5 -72.5q-76 -82 -76 -142q0 -53 61 -74q23 -8 67.5 -8t107.5 23.5t125 65t119 97.5t101 121q96 142 96 278q0 91 -68 123q-23 10 -65 10t-111 -24t-146 -68q-167 -94 -313 -236
q-655 -879 -1012 -1107q-150 -96 -278 -96q-44 0 -63 22.5t-19 67.5t44 120t150 165q234 200 720 410l260 342q276 351 387 480q-106 -20 -206.5 -20t-177.5 19t-131 55q-110 74 -110 203q0 111 104 203q152 133 431 174q88 13 174 13t86 -17q0 -8 -13 -8l-72 4
q-209 0 -434 -128q-140 -79 -202 -182q-31 -51 -31 -100t29.5 -87t79.5 -65q108 -59 261 -59q114 0 248 37q368 427 534 500q50 22 85.5 22t54.5 -17.5t19 -42.5q0 -131 -176 -268q-171 -133 -415 -204l-91 -117l-151 -204q278 242 506 242q105 0 157 -71q41 -57 41 -135.5
t-25 -149t-70 -133t-106 -115t-133 -90.5q-153 -81 -313 -81q-75 0 -116 36q-32 28 -32 66t20.5 78t56.5 80.5t84.5 78.5t105.5 67q125 65 245 65zM1460 1335q0 27 -31.5 27t-77 -30.5t-105.5 -87.5q-121 -115 -297 -332q209 83 357 202q154 125 154 221zM-767 -717
q0 -45 52 -45q218 0 586 448l216 275q-385 -215 -518 -311t-197 -154.5t-101.5 -113t-37.5 -99.5z" />
    <glyph glyph-name="germandbls" unicode="&#xdf;" horiz-adv-x="1012" 
d="M487 32q-81 -34 -149.5 -34t-102.5 9.5t-59 28.5q-53 39 -57 105q-6 95 63 132q18 10 41 10q47 0 49 -39q3 -39 -42 -54q-12 -4 -31 -4t-37 9q-17 -25 -15 -53.5t16 -49.5t35 -36q46 -32 111.5 -32t124.5 37.5t98 122.5q84 183 52 564q-6 72 21 111q38 54 141 129
q225 183 304 288q78 101 72 195q-2 42 -24.5 60t-66 18t-93.5 -42t-112 -113.5t-133 -167.5l-146 -202l-432 -642q-64 -94 -151 -210l-178 -244q-272 -382 -292 -422q-6 -1 -11.5 -2.5t-14.5 -2.5q-25 -3 -41.5 -3t-27 0.5t-21.5 1.5q-26 4 -38 8l155 202l149 200l305 427
l367 531q336 478 528 629q104 82 188 82t130 -35t49 -86t-13 -96.5t-54 -93.5q-74 -93 -209.5 -183.5t-186 -130t-76.5 -69.5q-39 -47 -37 -85q3 -60 24 -116q37 -100 43.5 -213.5t-4.5 -171.5t-33 -103q-41 -83 -120 -134q185 25 391 246q33 36 54 62l29 36l22 -17
q-9 -10 -33.5 -40.5t-62 -70t-87 -83t-108.5 -79.5q-136 -84 -263 -84z" />
    <glyph glyph-name="agrave" unicode="&#xe0;" horiz-adv-x="899" 
d="M512 1222q43 0 53 -64q16 -109 41 -149q44 -70 125 -116q12 -9 18 -12.5t6 -11.5t-10 -8t-21 6l-30 17q-93 56 -160 143q-65 85 -65 140t43 55zM399 -2q-100 0 -100 62q0 51 58 128l63 80l-10 4q-168 -207 -317 -260q-41 -14 -71 -14q-123 0 -123 131q0 154 123 294
q182 212 366 251q55 11 94 11t61.5 -5.5t39.5 -15.5q36 -23 36 -56.5t-12 -63.5l98 121q27 -8 50 -8q59 0 85 4l-337 -406q-120 -140 -120 -197q0 -32 38 -32t87.5 23t98.5 59t95.5 80t86 86t69.5 78l48 54l21 -17l-51 -58q-288 -333 -477 -333zM122 358
q-141 -171 -141 -280q0 -50 45 -50q146 0 421 323l84 101q60 91 60 132q0 70 -70 70q-95 0 -273 -162q-61 -56 -126 -134z" />
    <glyph glyph-name="aacute" unicode="&#xe1;" horiz-adv-x="899" 
d="M725 893q85 50 126 117q25 42 39 148q9 64 52.5 64t43.5 -55q0 -57 -64 -140q-78 -101 -190 -160q-12 -6 -22 -6t-10 8t6 11.5t19 12.5zM399 -2q-100 0 -100 62q0 51 58 128l63 80l-10 4q-168 -207 -317 -260q-41 -14 -71 -14q-123 0 -123 131q0 154 123 294
q182 212 366 251q55 11 94 11t61.5 -5.5t39.5 -15.5q36 -23 36 -56.5t-12 -63.5l98 121q27 -8 50 -8q59 0 85 4l-337 -406q-120 -140 -120 -197q0 -32 38 -32t87.5 23t98.5 59t95.5 80t86 86t69.5 78l48 54l21 -17l-51 -58q-288 -333 -477 -333zM122 358
q-141 -171 -141 -280q0 -50 45 -50q146 0 421 323l84 101q60 91 60 132q0 70 -70 70q-95 0 -273 -162q-61 -56 -126 -134z" />
    <glyph glyph-name="acircumflex" unicode="&#xe2;" horiz-adv-x="899" 
d="M912 873q0 -12 -16 -12q-33 0 -69 69q-12 23 -21 48q-12 38 -17 93q-74 -69 -132 -113l-108 -79q-28 -18 -38 -18q-6 0 -6 3.5t1 6t5.5 7t13.5 12.5q221 196 277 255t67 68t19 9t8 -7q0 -6 -7 -26q-23 -66 -23 -134q0 -119 33 -160q13 -17 13 -22zM399 -2q-100 0 -100 62
q0 51 58 128l63 80l-10 4q-168 -207 -317 -260q-41 -14 -71 -14q-123 0 -123 131q0 154 123 294q182 212 366 251q55 11 94 11t61.5 -5.5t39.5 -15.5q36 -23 36 -56.5t-12 -63.5l98 121q27 -8 50 -8q59 0 85 4l-337 -406q-120 -140 -120 -197q0 -32 38 -32t87.5 23t98.5 59
t95.5 80t86 86t69.5 78l48 54l21 -17l-51 -58q-288 -333 -477 -333zM122 358q-141 -171 -141 -280q0 -50 45 -50q146 0 421 323l84 101q60 91 60 132q0 70 -70 70q-95 0 -273 -162q-61 -56 -126 -134z" />
    <glyph glyph-name="atilde" unicode="&#xe3;" horiz-adv-x="899" 
d="M518 902q-8 -17 -22 -17q-8 0 -8 14q0 37 40 80q70 74 123 74q42 0 91 -33q75 -52 111 -52q67 0 99 76q10 17 20 17t10 -14q0 -36 -40 -80q-67 -74 -125 -74q-34 0 -62 16.5l-56 34.5q-53 34 -88 34q-63 0 -93 -76zM399 -2q-100 0 -100 62q0 51 58 128l63 80l-10 4
q-168 -207 -317 -260q-41 -14 -71 -14q-123 0 -123 131q0 154 123 294q182 212 366 251q55 11 94 11t61.5 -5.5t39.5 -15.5q36 -23 36 -56.5t-12 -63.5l98 121q27 -8 50 -8q59 0 85 4l-337 -406q-120 -140 -120 -197q0 -32 38 -32t87.5 23t98.5 59t95.5 80t86 86t69.5 78
l48 54l21 -17l-51 -58q-288 -333 -477 -333zM122 358q-141 -171 -141 -280q0 -50 45 -50q146 0 421 323l84 101q60 91 60 132q0 70 -70 70q-95 0 -273 -162q-61 -56 -126 -134z" />
    <glyph glyph-name="adieresis" unicode="&#xe4;" horiz-adv-x="899" 
d="M915.5 956.5q-18.5 -7.5 -41 -7.5t-39.5 17.5t-17 39.5t8 39t22 31q31 29 65 29t50.5 -18.5t16.5 -40.5t-9 -39t-23 -30t-32.5 -20.5zM616 956.5q-18 -7.5 -40 -7.5t-39 17.5t-17 39.5t8 39t22 31q29 29 63.5 29t50 -18.5t15.5 -40.5t-8.5 -39t-22.5 -30t-32 -20.5z
M399 -2q-100 0 -100 62q0 51 58 128l63 80l-10 4q-168 -207 -317 -260q-41 -14 -71 -14q-123 0 -123 131q0 154 123 294q182 212 366 251q55 11 94 11t61.5 -5.5t39.5 -15.5q36 -23 36 -56.5t-12 -63.5l98 121q27 -8 50 -8q59 0 85 4l-337 -406q-120 -140 -120 -197
q0 -32 38 -32t87.5 23t98.5 59t95.5 80t86 86t69.5 78l48 54l21 -17l-51 -58q-288 -333 -477 -333zM122 358q-141 -171 -141 -280q0 -50 45 -50q146 0 421 323l84 101q60 91 60 132q0 70 -70 70q-95 0 -273 -162q-61 -56 -126 -134z" />
    <glyph glyph-name="aring" unicode="&#xe5;" horiz-adv-x="899" 
d="M822 1132q39 0 60 -21.5t21 -55t-22.5 -68.5t-57.5 -63q-79 -63 -161 -63t-82 73.5t82.5 135.5t159.5 62zM805 1104q-59 0 -114 -55q-54 -54 -54 -108t46 -54q55 0 108.5 53.5t53.5 108.5t-40 55zM399 -2q-100 0 -100 62q0 51 58 128l63 80l-10 4q-168 -207 -317 -260
q-41 -14 -71 -14q-123 0 -123 131q0 154 123 294q182 212 366 251q55 11 94 11t61.5 -5.5t39.5 -15.5q36 -23 36 -56.5t-12 -63.5l98 121q27 -8 50 -8q59 0 85 4l-337 -406q-120 -140 -120 -197q0 -32 38 -32t87.5 23t98.5 59t95.5 80t86 86t69.5 78l48 54l21 -17l-51 -58
q-288 -333 -477 -333zM122 358q-141 -171 -141 -280q0 -50 45 -50q146 0 421 323l84 101q60 91 60 132q0 70 -70 70q-95 0 -273 -162q-61 -56 -126 -134z" />
    <glyph glyph-name="ae" unicode="&#xe6;" horiz-adv-x="1254" 
d="M130 -2q-123 0 -123 131q0 154 123 294q225 262 482 262q53 0 84 -22t31 -60q0 -10 -2 -20q46 67 57 82q29 -8 46 -8q42 0 68 4l-75 -107q166 131 319 131q61 0 85.5 -20t26.5 -47.5t-21 -64t-81 -78.5q-132 -95 -406 -184q-59 -96 -59 -169q0 -45 23 -66
q39 -33 100.5 -33t132 26t132 66t111.5 87t88.5 90t63 74.5t33.5 39.5l22 -17q-13 -11 -39.5 -45t-67 -77.5t-93 -91.5t-115.5 -89q-146 -92 -295 -92q-136 0 -173 107q-36 106 38 255q-123 -147 -271 -251q-153 -107 -245 -107zM1187 605q0 56 -60.5 56t-138 -72.5
t-181.5 -208.5l-40 -53q302 103 391 210q29 35 29 68zM699 594q0 60 -61 60q-96 0 -278 -164q-62 -57 -132 -141q-139 -165 -139 -269q0 -52 46 -52q144 0 410 313q38 45 65 81l51 67q38 67 38 105z" />
    <glyph glyph-name="ccedilla" unicode="&#xe7;" horiz-adv-x="665" 
d="M85 -169q0 44 -68 44q-22 0 -43 -7l83 127q-133 8 -170 113q-11 31 -11 81.5t30.5 122.5t89 141.5t118 113t116.5 70.5q108 50 210 48q90 -3 114 -61q24 -59 -26 -108q-33 -34 -64 -34q-72 0 -74 59q-1 28 21.5 46.5t44.5 20.5q32 2 60 -11v4q-2 58 -73 58
q-145 0 -375 -302q-95 -126 -95 -228q0 -44 24 -67q42 -39 107.5 -39t139 27t136.5 68t115 89.5t90 91t60 72.5t26 35l22 -17l-27 -35q-183 -244 -416 -330q-77 -29 -161 -30l-39 -59q17 5 47 5t55 -23.5t25 -50.5t-8 -46.5t-21 -36.5q-55 -68 -174 -121q-49 -21 -68 -21
t-19 14q0 9 21 17q87 28 132 66t45 93z" />
    <glyph glyph-name="egrave" unicode="&#xe8;" horiz-adv-x="674" 
d="M382 1222q43 0 53 -64q16 -109 41 -149q44 -70 125 -116q12 -9 18 -12.5t6 -11.5t-10 -8t-21 6l-30 17q-93 56 -160 143q-65 85 -65 140t43 55zM249.5 20q-73.5 -26 -139.5 -26t-100.5 13.5t-56.5 37.5q-94 102 1 301q41 88 124 160.5t146 108.5q122 70 229 70
q106 0 111 -66q7 -107 -260 -233q-98 -46 -247 -95q-59 -96 -59 -156.5t31.5 -86t92 -25.5t131 26t132 66t111.5 87t88.5 90t63 74.5t33.5 39.5l21 -17q-13 -11 -39.5 -45t-67 -77.5t-93 -91.5t-116 -88.5t-137 -66.5zM80 326q302 106 389 211q29 35 29 68q0 56 -52 56
q-92 0 -230 -161q-96 -112 -136 -174z" />
    <glyph glyph-name="eacute" unicode="&#xe9;" horiz-adv-x="674" 
d="M595 893q85 50 126 117q25 42 39 148q9 64 52.5 64t43.5 -55q0 -57 -64 -140q-78 -101 -190 -160q-12 -6 -22 -6t-10 8t6 11.5t19 12.5zM249.5 20q-73.5 -26 -139.5 -26t-100.5 13.5t-56.5 37.5q-94 102 1 301q41 88 124 160.5t146 108.5q122 70 229 70q106 0 111 -66
q7 -107 -260 -233q-98 -46 -247 -95q-59 -96 -59 -156.5t31.5 -86t92 -25.5t131 26t132 66t111.5 87t88.5 90t63 74.5t33.5 39.5l21 -17q-13 -11 -39.5 -45t-67 -77.5t-93 -91.5t-116 -88.5t-137 -66.5zM80 326q302 106 389 211q29 35 29 68q0 56 -52 56q-92 0 -230 -161
q-96 -112 -136 -174z" />
    <glyph glyph-name="ecircumflex" unicode="&#xea;" horiz-adv-x="674" 
d="M782 873q0 -12 -16 -12q-33 0 -69 69q-12 23 -21 48q-12 38 -17 93q-74 -69 -132 -113l-108 -79q-28 -18 -38 -18q-6 0 -6 3.5t1 6t5.5 7t13.5 12.5q221 196 277 255t67 68t19 9t8 -7q0 -6 -7 -26q-23 -66 -23 -134q0 -119 33 -160q13 -17 13 -22zM249.5 20
q-73.5 -26 -139.5 -26t-100.5 13.5t-56.5 37.5q-94 102 1 301q41 88 124 160.5t146 108.5q122 70 229 70q106 0 111 -66q7 -107 -260 -233q-98 -46 -247 -95q-59 -96 -59 -156.5t31.5 -86t92 -25.5t131 26t132 66t111.5 87t88.5 90t63 74.5t33.5 39.5l21 -17
q-13 -11 -39.5 -45t-67 -77.5t-93 -91.5t-116 -88.5t-137 -66.5zM80 326q302 106 389 211q29 35 29 68q0 56 -52 56q-92 0 -230 -161q-96 -112 -136 -174z" />
    <glyph glyph-name="edieresis" unicode="&#xeb;" horiz-adv-x="674" 
d="M785.5 956.5q-18.5 -7.5 -41 -7.5t-39.5 17.5t-17 39.5t8 39t22 31q31 29 65 29t50.5 -18.5t16.5 -40.5t-9 -39t-23 -30t-32.5 -20.5zM486 956.5q-18 -7.5 -40 -7.5t-39 17.5t-17 39.5t8 39t22 31q29 29 63.5 29t50 -18.5t15.5 -40.5t-8.5 -39t-22.5 -30t-32 -20.5z
M249.5 20q-73.5 -26 -139.5 -26t-100.5 13.5t-56.5 37.5q-94 102 1 301q41 88 124 160.5t146 108.5q122 70 229 70q106 0 111 -66q7 -107 -260 -233q-98 -46 -247 -95q-59 -96 -59 -156.5t31.5 -86t92 -25.5t131 26t132 66t111.5 87t88.5 90t63 74.5t33.5 39.5l21 -17
q-13 -11 -39.5 -45t-67 -77.5t-93 -91.5t-116 -88.5t-137 -66.5zM80 326q302 106 389 211q29 35 29 68q0 56 -52 56q-92 0 -230 -161q-96 -112 -136 -174z" />
    <glyph glyph-name="igrave" unicode="&#xec;" horiz-adv-x="453" 
d="M250 1222q43 0 53 -64q16 -109 41 -149q44 -70 125 -116q12 -9 18 -12.5t6 -11.5t-10 -8t-21 6l-30 17q-93 56 -160 143q-65 85 -65 140t43 55zM-47 26q59 0 111.5 27t106 67.5t103.5 88.5l90 90q40 42 66 72.5t31 35.5l20 -18q-10 -10 -37.5 -42.5t-68.5 -76t-92 -91.5
t-107 -88q-129 -93 -226 -93q-62 0 -99 22.5t-37 51.5t6 52t22 55t44.5 75t74 103l110.5 139l154 182q12 -3 49 -3h47q26 0 42 2q-331 -395 -372.5 -449.5t-61.5 -85.5q-35 -53 -35 -84.5t59 -31.5z" />
    <glyph glyph-name="iacute" unicode="&#xed;" horiz-adv-x="453" 
d="M464 893q85 50 126 117q25 42 40 148q8 64 51.5 64t43.5 -55q0 -57 -64 -140q-78 -101 -191 -160q-11 -6 -21 -6t-10 8t6 11.5t19 12.5zM-47 26q59 0 111.5 27t106 67.5t103.5 88.5l90 90q40 42 66 72.5t31 35.5l20 -18q-10 -10 -37.5 -42.5t-68.5 -76t-92 -91.5
t-107 -88q-129 -93 -226 -93q-62 0 -99 22.5t-37 51.5t6 52t22 55t44.5 75t74 103l110.5 139l154 182q12 -3 49 -3h47q26 0 42 2q-331 -395 -372.5 -449.5t-61.5 -85.5q-35 -53 -35 -84.5t59 -31.5z" />
    <glyph glyph-name="icircumflex" unicode="&#xee;" horiz-adv-x="453" 
d="M651 873q0 -12 -16 -12q-33 0 -69 69q-12 23 -20 48q-13 38 -18 93q-74 -69 -132 -113l-108 -79q-28 -18 -38 -18q-6 0 -6 3.5t1 6t5.5 7t13.5 12.5q221 196 277 255t67 68t19 9t8 -7q0 -6 -7 -26q-23 -66 -23 -134q0 -119 33 -160q13 -17 13 -22zM-47 26q59 0 111.5 27
t106 67.5t103.5 88.5l90 90q40 42 66 72.5t31 35.5l20 -18q-10 -10 -37.5 -42.5t-68.5 -76t-92 -91.5t-107 -88q-129 -93 -226 -93q-62 0 -99 22.5t-37 51.5t6 52t22 55t44.5 75t74 103l110.5 139l154 182q12 -3 49 -3h47q26 0 42 2q-331 -395 -372.5 -449.5t-61.5 -85.5
q-35 -53 -35 -84.5t59 -31.5z" />
    <glyph glyph-name="idieresis" unicode="&#xef;" horiz-adv-x="453" 
d="M653.5 956.5q-18.5 -7.5 -41 -7.5t-39.5 17.5t-17 39.5t8 39t22 31q31 29 65 29t50.5 -18.5t16.5 -40.5t-9 -39t-23 -30t-32.5 -20.5zM354 956.5q-18 -7.5 -40 -7.5t-39 17.5t-17 39.5t8 39t22 31q29 29 63.5 29t50 -18.5t15.5 -40.5t-8.5 -39t-22.5 -30t-32 -20.5z
M-47 26q59 0 111.5 27t106 67.5t103.5 88.5l90 90q40 42 66 72.5t31 35.5l20 -18q-10 -10 -37.5 -42.5t-68.5 -76t-92 -91.5t-107 -88q-129 -93 -226 -93q-62 0 -99 22.5t-37 51.5t6 52t22 55t44.5 75t74 103l110.5 139l154 182q12 -3 49 -3h47q26 0 42 2
q-331 -395 -372.5 -449.5t-61.5 -85.5q-35 -53 -35 -84.5t59 -31.5z" />
    <glyph glyph-name="eth" unicode="&#xf0;" horiz-adv-x="907" 
d="M399 147q-168 -149 -333 -149q-113 0 -145 94q-10 29 -10 69t15 91t42.5 101.5t65.5 98.5t84 90q157 143 331 143q115 0 141 -92q136 239 180 440l-209 -80q0 15 -4 30l220 85q10 58 11 128.5t-14 111.5q-18 52 -18 64t9.5 12t13.5 -3.5t20 -36.5q42 -88 42 -234v-18
l216 84q-1 -14 3 -31l-221 -85q-13 -207 -123 -451q-110 -242 -254 -400q-47 -86 -47 -139q0 -46 57 -46q114 0 341 260l101 122l21 -17q-10 -11 -36.5 -44t-64.5 -76l-84 -91q-172 -180 -281 -180q-86 0 -86 73q0 39 16 76zM569 556q-10 88 -99 88q-63 0 -121 -46
q-105 -83 -214 -222q-115 -140 -135 -221q-7 -28 -7 -59.5t19 -50.5t53 -19t67.5 10.5t69.5 37.5q103 77 277 339q48 72 90 143z" />
    <glyph glyph-name="ntilde" unicode="&#xf1;" horiz-adv-x="1042" 
d="M547 829q-9 -17 -22 -17q-8 0 -8 14q0 37 41 80q69 74 122 74q42 0 91 -34q75 -51 111 -51q67 0 99 76q10 17 20 17t10 -14q0 -36 -40 -80q-67 -74 -125 -74q-34 0 -62 16.5l-56 34.5q-53 34 -88 34q-63 0 -93 -76zM36 19q-27 5 -60 5q-53 0 -93 -10l347 496
q65 91 67 108q4 33 -21 33q-37 0 -184 -183l-64 -79q-8 -4 -16.5 4.5t-4.5 12.5q29 31 65.5 78.5t76.5 91.5q98 109 163 109q110 0 70 -113q-8 -24 -35 -62l-210 -292l5 -11q252 276 358 365q101 84 150.5 98.5t81 14.5t54 -9t36.5 -23q26 -26 25.5 -62.5t-14 -74.5
t-45.5 -90q-67 -107 -226 -279q-66 -69 -69 -80.5t-3 -17.5q0 -23 61.5 -23t115 25.5t105 64.5t98 85.5t83.5 89t62 74t34 41.5l21 -17q-10 -11 -36 -44t-64.5 -76t-87 -91t-102.5 -88q-126 -92 -228 -92q-90 0 -125 45q-11 14 -11 33t5.5 43.5t26.5 62.5q47 81 133.5 178
t113.5 131t43 59q30 48 30 74q0 36 -48 36q-99 0 -327 -224q-115 -112 -264 -295z" />
    <glyph glyph-name="ograve" unicode="&#xf2;" horiz-adv-x="734" 
d="M374 1219q43 0 53 -63q16 -110 41 -150q44 -70 125 -116q12 -9 18 -12.5t6 -11.5t-10 -8t-21 6l-30 17q-93 56 -160 143q-65 84 -65 139.5t43 55.5zM450 161q-37 0 -54 30q-119 -135 -257 -179q-46 -14 -89.5 -14t-74.5 10t-51 28q-81 70 -16 241q25 67 64.5 125
t89 107.5t106.5 88.5q129 87 252 87q53 0 91.5 -27.5t41.5 -79t-6 -96.5t-27 -90q-36 -92 -102 -174q7 -29 38.5 -29t60 14.5t57 36t56 48l50.5 50.5l38 42q16 19 23 26l22 -17q-13 -12 -33 -34t-45 -47l-53 -52q-103 -95 -182 -95zM35 36q16 -8 45 -8q65 0 167 73
q78 56 139 129v4q0 85 64 128q17 12 32 17q48 102 45 167q-6 103 -76 103q-118 0 -331 -266q-137 -172 -129 -268q0 -55 44 -79z" />
    <glyph glyph-name="oacute" unicode="&#xf3;" horiz-adv-x="734" 
d="M588 890q85 50 126 117q25 42 40 149q8 63 51.5 63t43.5 -55q0 -57 -64 -140q-78 -101 -191 -160q-11 -6 -21 -6t-10 8t6 11.5t19 12.5zM450 161q-37 0 -54 30q-119 -135 -257 -179q-46 -14 -89.5 -14t-74.5 10t-51 28q-81 70 -16 241q25 67 64.5 125t89 107.5
t106.5 88.5q129 87 252 87q53 0 91.5 -27.5t41.5 -79t-6 -96.5t-27 -90q-36 -92 -102 -174q7 -29 38.5 -29t60 14.5t57 36t56 48l50.5 50.5l38 42q16 19 23 26l22 -17q-13 -12 -33 -34t-45 -47l-53 -52q-103 -95 -182 -95zM35 36q16 -8 45 -8q65 0 167 73q78 56 139 129v4
q0 85 64 128q17 12 32 17q48 102 45 167q-6 103 -76 103q-118 0 -331 -266q-137 -172 -129 -268q0 -55 44 -79z" />
    <glyph glyph-name="ocircumflex" unicode="&#xf4;" horiz-adv-x="734" 
d="M775 870q0 -12 -16 -12q-33 0 -69 69q-12 23 -20 49q-13 37 -18 92q-74 -69 -132 -112l-108 -80q-28 -18 -38 -18q-6 0 -6 3.5t1 6t5.5 7t13.5 12.5q221 196 277 255t67 68t19 9t8 -7q0 -6 -7 -26q-23 -66 -23 -134q0 -119 33 -160q13 -17 13 -22zM450 161q-37 0 -54 30
q-119 -135 -257 -179q-46 -14 -89.5 -14t-74.5 10t-51 28q-81 70 -16 241q25 67 64.5 125t89 107.5t106.5 88.5q129 87 252 87q53 0 91.5 -27.5t41.5 -79t-6 -96.5t-27 -90q-36 -92 -102 -174q7 -29 38.5 -29t60 14.5t57 36t56 48l50.5 50.5l38 42q16 19 23 26l22 -17
q-13 -12 -33 -34t-45 -47l-53 -52q-103 -95 -182 -95zM35 36q16 -8 45 -8q65 0 167 73q78 56 139 129v4q0 85 64 128q17 12 32 17q48 102 45 167q-6 103 -76 103q-118 0 -331 -266q-137 -172 -129 -268q0 -55 44 -79z" />
    <glyph glyph-name="otilde" unicode="&#xf5;" horiz-adv-x="734" 
d="M380 899q-8 -17 -22 -17q-8 0 -8 14q0 37 40 80q70 74 123 74q42 0 91 -34q75 -51 111 -51q67 0 99 76q10 17 20 17t10 -14q0 -36 -40 -80q-67 -74 -125 -74q-34 0 -62 16.5l-56 34.5q-53 34 -88 34q-63 0 -93 -76zM450 161q-37 0 -54 30q-119 -135 -257 -179
q-46 -14 -89.5 -14t-74.5 10t-51 28q-81 70 -16 241q25 67 64.5 125t89 107.5t106.5 88.5q129 87 252 87q53 0 91.5 -27.5t41.5 -79t-6 -96.5t-27 -90q-36 -92 -102 -174q7 -29 38.5 -29t60 14.5t57 36t56 48l50.5 50.5l38 42q16 19 23 26l22 -17q-13 -12 -33 -34t-45 -47
l-53 -52q-103 -95 -182 -95zM35 36q16 -8 45 -8q65 0 167 73q78 56 139 129v4q0 85 64 128q17 12 32 17q48 102 45 167q-6 103 -76 103q-118 0 -331 -266q-137 -172 -129 -268q0 -55 44 -79z" />
    <glyph glyph-name="odieresis" unicode="&#xf6;" horiz-adv-x="734" 
d="M777.5 953.5q-18.5 -7.5 -41 -7.5t-39.5 17.5t-17 39.5t8 39t22 30q31 30 65 30t50.5 -18.5t16.5 -40.5t-9 -39t-23 -30t-32.5 -20.5zM478 953.5q-18 -7.5 -40 -7.5t-39 17.5t-17 39.5t8 39t22 30q29 30 63.5 30t50 -18.5t15.5 -40.5t-8.5 -39t-22.5 -30t-32 -20.5z
M450 161q-37 0 -54 30q-119 -135 -257 -179q-46 -14 -89.5 -14t-74.5 10t-51 28q-81 70 -16 241q25 67 64.5 125t89 107.5t106.5 88.5q129 87 252 87q53 0 91.5 -27.5t41.5 -79t-6 -96.5t-27 -90q-36 -92 -102 -174q7 -29 38.5 -29t60 14.5t57 36t56 48l50.5 50.5l38 42
q16 19 23 26l22 -17q-13 -12 -33 -34t-45 -47l-53 -52q-103 -95 -182 -95zM35 36q16 -8 45 -8q65 0 167 73q78 56 139 129v4q0 85 64 128q17 12 32 17q48 102 45 167q-6 103 -76 103q-118 0 -331 -266q-137 -172 -129 -268q0 -55 44 -79z" />
    <glyph glyph-name="divide" unicode="&#xf7;" horiz-adv-x="963" 
d="M677 665.5q-20 -8.5 -44 -8.5t-42.5 19t-18.5 43.5t8.5 42.5t23.5 32q33 32 71 32q74 0 74 -69q0 -37 -26 -60t-46 -31.5zM816 518q-24 -35 -28 -56h-578q14 15 20 28.5t14 27.5h572zM323 172q-19 20 -19 44t9 42t25 32q34 33 71 33q71 0 71 -69q0 -39 -25 -61
q-45 -41 -79 -41t-53 20z" />
    <glyph glyph-name="oslash" unicode="&#xf8;" horiz-adv-x="734" 
d="M48 -2l-14 1l-126 -168q-7 1 -12 1h-13t-13 -1l128 171q-110 21 -119 129q-7 121 97 277q78 112 192 190q129 87 252 87q43 0 75 -17l159 212q5 -2 12 -2h31l-174 -231q27 -29 30 -74.5t-6 -90.5t-27 -90q-36 -92 -102 -174q7 -29 38.5 -29t60 14.5t57 36t56 48
l50.5 50.5l38 42q16 19 23 26l22 -17q-13 -12 -33 -34t-45 -47l-53 -52q-103 -95 -161 -95t-75 30q-119 -135 -257 -179q-46 -14 -91 -14zM478 644q-15 5 -27 5q-118 0 -331 -266q-137 -172 -129 -268q0 -49 36 -74zM57 29q4 -1 8 -1h9q103 0 247 134q35 32 65 68v4
q0 85 64 128q17 12 32 17q79 168 23 245z" />
    <glyph glyph-name="ugrave" unicode="&#xf9;" horiz-adv-x="887" 
d="M455 1222q43 0 53 -64q16 -109 41 -149q44 -70 125 -116q12 -9 18 -12.5t6 -11.5t-10 -8t-21 6l-30 17q-93 56 -160 143q-65 85 -65 140t43 55zM-81 59q0 -36 48 -36q67 0 144 51q166 111 346 332l227 273q48 -6 87 -6t65 3l-98 -113l-354 -431q-35 -43 -35 -70
q0 -36 48 -36t99.5 25.5t103 64.5t100.5 85.5t89 88.5l105 116l20 -17l-39 -44q-29 -33 -71 -76l-93 -91q-191 -180 -317 -180q-41 0 -67.5 22.5t-28.5 60.5q-2 73 51 165q-230 -248 -390 -248q-90 0 -115 64q-7 18 -8 46t13.5 67t43.5 84.5t71 98.5l180 218q42 52 89 103
q39 -6 63 -6h34q43 0 55 3q-117 -128 -164 -185l-199 -239q-105 -122 -103 -193z" />
    <glyph glyph-name="uacute" unicode="&#xfa;" horiz-adv-x="887" 
d="M668 893q85 50 126 117q25 42 40 148q8 64 51.5 64t43.5 -55q0 -57 -64 -140q-78 -101 -191 -160q-11 -6 -21 -6t-10 8t6 11.5t19 12.5zM-81 59q0 -36 48 -36q67 0 144 51q166 111 346 332l227 273q48 -6 87 -6t65 3l-98 -113l-354 -431q-35 -43 -35 -70q0 -36 48 -36
t99.5 25.5t103 64.5t100.5 85.5t89 88.5l105 116l20 -17l-39 -44q-29 -33 -71 -76l-93 -91q-191 -180 -317 -180q-41 0 -67.5 22.5t-28.5 60.5q-2 73 51 165q-230 -248 -390 -248q-90 0 -115 64q-7 18 -8 46t13.5 67t43.5 84.5t71 98.5l180 218q42 52 89 103q39 -6 63 -6h34
q43 0 55 3q-117 -128 -164 -185l-199 -239q-105 -122 -103 -193z" />
    <glyph glyph-name="ucircumflex" unicode="&#xfb;" horiz-adv-x="887" 
d="M855 873q0 -12 -16 -12q-33 0 -69 69q-12 23 -20 48q-13 38 -18 93q-74 -69 -132 -113l-108 -79q-28 -18 -38 -18q-6 0 -6 3.5t1 6t5.5 7t13.5 12.5q221 196 277 255t67 68t19 9t8 -7q0 -6 -7 -26q-23 -66 -23 -134q0 -119 33 -160q13 -17 13 -22zM-81 59q0 -36 48 -36
q67 0 144 51q166 111 346 332l227 273q48 -6 87 -6t65 3l-98 -113l-354 -431q-35 -43 -35 -70q0 -36 48 -36t99.5 25.5t103 64.5t100.5 85.5t89 88.5l105 116l20 -17l-39 -44q-29 -33 -71 -76l-93 -91q-191 -180 -317 -180q-41 0 -67.5 22.5t-28.5 60.5q-2 73 51 165
q-230 -248 -390 -248q-90 0 -115 64q-7 18 -8 46t13.5 67t43.5 84.5t71 98.5l180 218q42 52 89 103q39 -6 63 -6h34q43 0 55 3q-117 -128 -164 -185l-199 -239q-105 -122 -103 -193z" />
    <glyph glyph-name="udieresis" unicode="&#xfc;" horiz-adv-x="887" 
d="M858.5 956.5q-18.5 -7.5 -41 -7.5t-39.5 17.5t-17 39.5t8 39t22 31q31 29 65 29t50.5 -18.5t16.5 -40.5t-9 -39t-23 -30t-32.5 -20.5zM559 956.5q-18 -7.5 -40 -7.5t-39 17.5t-17 39.5t8 39t21 31q30 29 64.5 29t50 -18.5t15.5 -40.5t-8.5 -39t-22.5 -30t-32 -20.5z
M-81 59q0 -36 48 -36q67 0 144 51q166 111 346 332l227 273q48 -6 87 -6t65 3l-98 -113l-354 -431q-35 -43 -35 -70q0 -36 48 -36t99.5 25.5t103 64.5t100.5 85.5t89 88.5l105 116l20 -17l-39 -44q-29 -33 -71 -76l-93 -91q-191 -180 -317 -180q-41 0 -67.5 22.5t-28.5 60.5
q-2 73 51 165q-230 -248 -390 -248q-90 0 -115 64q-7 18 -8 46t13.5 67t43.5 84.5t71 98.5l180 218q42 52 89 103q39 -6 63 -6h34q43 0 55 3q-117 -128 -164 -185l-199 -239q-105 -122 -103 -193z" />
    <glyph glyph-name="yacute" unicode="&#xfd;" horiz-adv-x="909" 
d="M671 893q85 50 126 117q25 42 39 148q9 64 52.5 64t43.5 -55q0 -57 -64 -140q-78 -101 -190 -160q-12 -6 -22 -6t-10 8t6 11.5t19 12.5zM-91 70q0 -46 59 -46t130.5 30.5t140.5 79.5q133 93 245 232l211 243l54 67q39 -7 57 -7q51 0 77 4l-348 -429l-177 -237l-152 -198
q258 124 396 247q90 80 169 176l144 174l21 -17l-126 -149q-112 -132 -187 -197t-137 -107q-118 -78 -315 -171q-186 -233 -280.5 -324t-149.5 -129.5t-107 -60.5q-88 -38 -209 -38q-61 0 -81 43q-6 12 -6 38t33.5 72.5t114.5 103.5q162 114 560 282l407 516l-11 4
q-95 -102 -194 -162q-185 -112 -296 -112q-56 0 -84 22.5t-28 55t6 59t24 63.5q37 71 141 217q46 57 111 123l139 141l47 -5q16 -1 49.5 -1t60.5 3q-89 -80 -133 -130l-71 -80q-221 -245 -249 -286q-56 -80 -56 -110zM11 -291q-503 -215 -605 -342q-36 -45 -36 -87
q0 -11 13.5 -25.5t57.5 -14.5t97.5 19.5t119.5 70.5q121 96 353 379z" />
    <glyph glyph-name="thorn" unicode="&#xfe;" horiz-adv-x="855" 
d="M363 -2q-116 0 -116 99q0 150 329 391q130 95 130 140q0 12 -11.5 22t-44.5 10q-129 0 -376 -208q-152 -134 -216 -199q-153 -160 -207 -225l-111 -137l-232 -305l-174 -240q-28 -40 -31 -47q-29 -8 -68 -8q-74 0 -99 9l551 694l385 501l706 877l160 207q54 -6 89 -6
t63 7l-386 -458l-379 -466l-309 -390l8 -8q311 299 459 376q76 40 114 45.5t68 5.5q94 0 94 -83q0 -163 -302 -375q-135 -97 -152 -133q-6 -12 -6 -23q0 -45 70 -45q147 0 369 238l124 142l21 -17l-52 -60q-279 -331 -468 -331z" />
    <glyph glyph-name="ydieresis" unicode="&#xff;" horiz-adv-x="909" 
d="M862.5 956.5q-18.5 -7.5 -41 -7.5t-39.5 17.5t-17 39.5t8 39t22 31q31 29 65 29t50.5 -18.5t16.5 -40.5t-9 -39t-23 -30t-32.5 -20.5zM563 956.5q-18 -7.5 -40 -7.5t-39 17.5t-17 39.5t8 39t21 31q30 29 64.5 29t50 -18.5t15.5 -40.5t-8.5 -39t-22.5 -30t-32 -20.5z
M-91 70q0 -46 59 -46t130.5 30.5t140.5 79.5q133 93 245 232l211 243l54 67q39 -7 57 -7q51 0 77 4l-348 -429l-177 -237l-152 -198q258 124 396 247q90 80 169 176l144 174l21 -17l-126 -149q-112 -132 -187 -197t-137 -107q-118 -78 -315 -171q-186 -233 -280.5 -324
t-149.5 -129.5t-107 -60.5q-88 -38 -209 -38q-61 0 -81 43q-6 12 -6 38t33.5 72.5t114.5 103.5q162 114 560 282l407 516l-11 4q-95 -102 -194 -162q-185 -112 -296 -112q-56 0 -84 22.5t-28 55t6 59t24 63.5q37 71 141 217q46 57 111 123l139 141l47 -5q16 -1 49.5 -1
t60.5 3q-89 -80 -133 -130l-71 -80q-221 -245 -249 -286q-56 -80 -56 -110zM11 -291q-503 -215 -605 -342q-36 -45 -36 -87q0 -11 13.5 -25.5t57.5 -14.5t97.5 19.5t119.5 70.5q121 96 353 379z" />
    <glyph glyph-name="hbar" unicode="&#x127;" horiz-adv-x="907" 
d="M-114 19q-27 5 -60 5q-57 0 -94 -10l815 1164h-127q7 5 25 27h121l273 390q67 -10 139 0l-281 -390h266q-5 -6 -12 -27h-274l-691 -960l5 -11q76 88 141 156l119 120q102 99 165 140q95 62 180 62q89 0 112 -64q45 -124 -281 -474l-39 -43q-32 -36 -32 -55
q0 -10 22 -16.5t62 -6.5t94 25.5t105 64.5t97 86t82.5 89t61.5 74t34 41l22 -17q-10 -11 -36.5 -44t-65 -76.5t-87 -91.5t-103.5 -87q-126 -92 -229 -92q-82 0 -121 45q-12 14 -12 33t5.5 43.5t27.5 62.5q51 86 135 180.5t111 128.5t43 59q30 48 30 74q0 36 -47 36
q-63 0 -145 -56q-199 -133 -464 -463z" />
    <glyph glyph-name="Itilde" unicode="&#x128;" horiz-adv-x="1110" 
d="M1328 1492q-10 0 -10 14q0 39 40 81q70 73 123 73q44 0 91 -33q75 -52 117 -52q61 0 92 76q10 18 17 18q14 0 14 -14q0 -35 -40 -79q-69 -76 -125 -76q-43 0 -95 35t-71.5 43t-39.5 8q-64 0 -94 -78q-9 -16 -19 -16zM1207 857q30 86 30 147.5t11.5 61.5t11.5 -72.5
t-30 -160t-81 -163t-120 -137t-147 -105.5q-166 -91 -326 -91h-23q-249 -243 -481 -315q-76 -24 -135.5 -24t-100.5 11.5t-70 30.5q-57 40 -63 102q-5 63 53 85q57 22 80 -13q19 -29 -1.5 -50.5t-38.5 -23.5q-34 -4 -52 5v-6q5 -48 52 -81.5t118 -33.5t128 17t119 57
q121 77 280 265q-133 62 -133 245q0 186 154 370q154 183 402 294q265 120 558 120l175 -14l102 7q37 0 37 -14q0 -17 -35.5 -19t-65 -1.5t-55.5 0.5q-29 -7 -50 -15l-44 -16q-297 -131 -653 -647q-122 -175 -253 -308h8q142 0 298 91q159 93 260 240q51 75 81 161z
M1509 1358q-52 8 -117 8t-152 -20.5t-177 -57t-178.5 -86.5t-169.5 -109t-150 -123.5t-120 -131.5q-109 -142 -109 -255q0 -154 103 -199q104 131 159 208q265 365 516 564q209 166 395 202z" />
    <glyph glyph-name="itilde" unicode="&#x129;" horiz-adv-x="453" 
d="M256 902q-8 -17 -22 -17q-8 0 -8 14q0 37 40 80q70 74 123 74q42 0 91 -33q75 -52 111 -52q67 0 99 76q10 17 20 17t10 -14q0 -36 -40 -80q-67 -74 -125 -74q-34 0 -62 16.5l-56 34.5q-53 34 -88 34q-63 0 -93 -76zM-47 26q59 0 111.5 27t106 67.5t103.5 88.5l90 90
q40 42 66 72.5t31 35.5l20 -18q-10 -10 -37.5 -42.5t-68.5 -76t-92 -91.5t-107 -88q-129 -93 -226 -93q-62 0 -99 22.5t-37 51.5t6 52t22 55t44.5 75t74 103l110.5 139l154 182q12 -3 49 -3h47q26 0 42 2q-331 -395 -372.5 -449.5t-61.5 -85.5q-35 -53 -35 -84.5t59 -31.5z
" />
    <glyph glyph-name="dotlessi" unicode="&#x131;" horiz-adv-x="453" 
d="M-47 26q59 0 111.5 27t106 67.5t103.5 88.5l90 90q40 42 66 72.5t31 35.5l20 -18q-10 -10 -37.5 -42.5t-68.5 -76t-92 -91.5t-107 -88q-129 -93 -226 -93q-62 0 -99 22.5t-37 51.5t6 52t22 55t44.5 75t74 103l110.5 139l154 182q12 -3 49 -3h47q26 0 42 2
q-331 -395 -372.5 -449.5t-61.5 -85.5q-35 -53 -35 -84.5t59 -31.5z" />
    <glyph glyph-name="IJ" unicode="&#x132;" horiz-adv-x="2192" 
d="M1861 226.5q8 4.5 14.5 2t6.5 -6.5q-2 -13 -33 -26l-110 -44l-55 -20q-30 -11 -69 -23l-209 -60q-462 -571 -743 -720q-132 -70 -250 -70q-45 0 -63 22q-29 34 -29 80.5t32.5 109.5t92.5 128t145 129t190 122q222 124 484 196l221 301q-61 33 -101 93t-40 154t42.5 196.5
t118.5 193.5t180.5 167.5t227.5 132.5q262 117 542 117l184 -14l102 7q38 0 38 -13q0 -22 -92 -22l-65 1q-173 -42 -365.5 -220.5t-391.5 -481.5l-234 -318q136 0 297 116q153 111 261 272q111 167 111 307q0 31 11 31t11 -64t-28.5 -148.5t-78.5 -163t-118 -147
t-146 -119.5q-167 -111 -331 -111h-10q-124 -164 -171 -221l120 32q139 37 216 67.5t85 35zM1207 857q30 86 30 147.5t11.5 61.5t11.5 -72.5t-30 -160t-81 -163t-120 -137t-147 -105.5q-166 -91 -326 -91h-23q-249 -243 -481 -315q-76 -24 -135.5 -24t-100.5 11.5t-70 30.5
q-57 40 -63 102q-5 63 53 85q57 22 80 -13q19 -29 -1.5 -50.5t-38.5 -23.5q-34 -4 -52 5v-6q5 -48 52 -81.5t118 -33.5t128 17t119 57q121 77 280 265q-133 62 -133 245q0 186 154 370q154 183 402 294q265 120 558 120l175 -14l102 7q37 0 37 -14q0 -17 -35.5 -19t-65 -1.5
t-55.5 0.5q-29 -7 -50 -15l-44 -16q-297 -131 -653 -647q-122 -175 -253 -308h8q142 0 298 91q159 93 260 240q51 75 81 161zM2573 1367q-52 8 -117 8t-151.5 -20.5t-176 -57.5t-178.5 -87.5t-170 -110t-150.5 -126.5t-120.5 -136q-109 -147 -109 -272q0 -132 104 -192
l121 172q255 365 536 593q230 187 412 229zM1509 1358q-52 8 -117 8t-152 -20.5t-177 -57t-178.5 -86.5t-169.5 -109t-150 -123.5t-120 -131.5q-109 -142 -109 -255q0 -154 103 -199q104 131 159 208q265 365 516 564q209 166 395 202zM393 -560q-40 -56 -40 -89t17.5 -50
t45.5 -17q213 0 588 436q112 131 227 281q-273 -93 -575 -315q-183 -134 -263 -246z" />
    <glyph glyph-name="ij" unicode="&#x133;" horiz-adv-x="834" 
d="M895 883.5q-18 -7.5 -40.5 -7.5t-39.5 17.5t-17 39.5t8 39t22 30q31 30 65 30t50 -18.5t16 -40.5t-8.5 -39t-23 -30t-32.5 -20.5zM497 883.5q-18 -7.5 -41 -7.5t-39.5 17.5t-16.5 39.5t8 39t22 30q29 30 63.5 30t51 -18.5t16.5 -40.5t-8.5 -39t-23 -30t-32.5 -20.5z
M-33 26q125 0 345 220l208 274q100 137 104 157q10 -2 38 -2h60q44 0 58 2l-506 -653l-149 -184q257 124 396 232q107 83 185 171.5t137 162.5l20 -17q-130 -160 -209.5 -234t-137 -117t-122.5 -83t-140 -79l-166 -81q-208 -250 -312 -345t-163.5 -135.5t-114.5 -62.5
q-93 -39 -215 -39q-63 0 -83 43q-6 12 -6 38.5t34 74t118 105.5q170 118 584 290l283 355q-152 -121 -263 -121q-62 0 -99 22.5t-37 51.5t6 52t22 55t44.5 75t74 103l110.5 139l154 182q12 -3 49 -3h47q26 0 42 2q-331 -395 -372.5 -449.5t-61.5 -85.5q-35 -53 -35 -84.5
t73 -31.5zM-104 -277q-367 -157 -515 -255q-154 -102 -154 -188q0 -11 13.5 -25.5t47.5 -14.5t69 7t73.5 25.5t83.5 52t101 87t125 130.5z" />
    <glyph glyph-name="Jcircumflex" unicode="&#x134;" horiz-adv-x="1082" 
d="M1272 1528l-98 -65q-40 -25 -50 -25t-10 4q0 13 60 58l128 100q67 54 136 119q44 49 59 49q8 0 8 -7q0 -13 -7 -30q-24 -58 -24 -122q0 -111 44 -150q4 -4 4 -8t-4.5 -9.5t-12.5 -5.5q-34 0 -74 72q-23 41 -27 69l-6 42q-67 -52 -126 -91zM751 226.5q8 4.5 14.5 2
t6.5 -6.5q-2 -13 -33 -26q-78 -32 -107 -43l-58 -21q-30 -11 -69 -23l-209 -60q-460 -570 -742 -720q-132 -70 -251 -70q-45 0 -63 22q-29 34 -29 80.5t32.5 109.5t93 128t145.5 129t190 122q218 123 483 196l221 301q-61 33 -101 93t-40 154t42.5 196.5t118.5 193.5
t180.5 167.5t227.5 132.5q262 117 542 117l184 -14l102 7q38 0 38 -13q0 -22 -92 -22l-65 1q-173 -42 -365.5 -220.5t-391.5 -481.5l-234 -318q136 0 297 116q153 111 261 272q111 167 111 307q0 31 11 31t11 -64t-28.5 -148.5t-78.5 -163t-118 -147t-146 -119.5
q-167 -111 -331 -111h-10q-124 -164 -171 -221l120 32q139 37 216 67.5t85 35zM1463 1367q-52 8 -117 8t-151.5 -20.5t-176 -57.5t-178.5 -87.5t-170 -110t-150.5 -126.5t-120.5 -136q-109 -147 -109 -272q0 -132 104 -192l121 172q255 365 536 593q230 187 412 229zM121 1
q-171 -58 -389 -191q-326 -197 -449 -370q-40 -56 -40 -89t17.5 -50t45.5 -17q270 0 815 717z" />
    <glyph glyph-name="jcircumflex" unicode="&#x135;" horiz-adv-x="382" 
d="M597 873q0 -12 -16 -12q-33 0 -69 69q-12 23 -20 48q-13 38 -18 93q-74 -69 -132 -113l-108 -79q-28 -18 -38 -18q-6 0 -6 3.5t1 6t5.5 7t13.5 12.5q221 196 277 255t67 68t19 9t8 -7q0 -6 -7 -26q-23 -66 -23 -134q0 -119 33 -160q13 -17 13 -22zM171 677q10 -2 38 -2
h60q44 0 58 2q-560 -723 -654 -837q324 156 501 324q97 93 216 242l20 -17q-129 -160 -209 -233.5t-137.5 -117t-122.5 -83.5t-140 -79l-165 -81q-208 -250 -312 -345t-163 -135.5t-113 -62.5q-94 -39 -215 -39q-63 0 -83 43q-6 12 -6 38.5t33.5 74t116.5 105.5
q173 120 584 291l384 485q238 313 273 364.5t36 62.5zM-557 -277q-366 -156 -513 -255q-153 -102 -153 -188q0 -11 13 -25.5t47 -14.5t68.5 7t73.5 25.5t83.5 52t100.5 87t125 130.5z" />
    <glyph glyph-name="kcommaaccent" unicode="&#x137;" horiz-adv-x="861" 
d="M839 1595q66 -11 138 0l-823 -1145l-293 -431q-27 5 -45.5 5t-28.5 -1t-20.5 -2.5t-19.5 -3.5t-15 -3zM323 57q0 -31 49 -31t105 27.5t110.5 68.5t104 89.5t88.5 90.5q59 64 89 105l20 -18q-4 -4 -29.5 -34t-66 -73.5t-93 -93t-110.5 -92.5q-133 -98 -231 -98
q-100 0 -100 107q0 89 122 208q49 51 49 69q0 40 -59 60q-59 -33 -104 -33q-75 0 -75 31q0 18 28.5 32t70 14t79.5 -11q32 16 50 35q44 46 81 91t71 75q77 68 155 68q48 0 77.5 -25t28.5 -60t-22 -51t-46 -16t-43.5 17t-17.5 39q3 42 41 54q-15 12 -38.5 12t-46 -8.5
t-48.5 -29.5q-53 -41 -132 -142q-37 -42 -77 -72q95 -44 95 -130q0 -70 -64 -146q-27 -32 -58 -61q-53 -48 -53 -68zM58 -43q46 0 46 -47q0 -106 -155 -228q-89 -72 -145 -72q-15 0 -15 8q0 14 26 22t54.5 27t52.5 45q55 61 59 121q7 124 77 124z" />
    <glyph glyph-name="kgreenlandic" unicode="&#x138;" horiz-adv-x="858" 
d="M244 747l62 -3h20q8 2 18.5 2t24.5 1l-42 -47l-263 -375l-205 -306q-25 5 -45 5t-29.5 -1t-20 -2.5t-19.5 -3.5t-15 -3zM320 57q0 -31 50 -31t105.5 27.5t110 68.5t104 89.5t87.5 90.5q60 66 89 105l21 -18q-4 -4 -29.5 -34t-66 -73.5t-93 -93t-110.5 -92.5
q-133 -98 -231 -98q-99 0 -99 107q0 83 122 198q47 50 47 69q0 40 -57 60q-59 -33 -120 -33t-61 31q0 18 29 31.5t70 13.5t79 -11q37 18 74 60.5t66 79.5t63 68q77 72 155 72q49 0 78 -25t29 -58q-2 -69 -72 -69q-38 0 -54 36q-14 30 4 49.5t33 24.5q-13 12 -37.5 12t-47 -9
t-48.5 -31q-50 -41 -132 -151q-37 -42 -77 -72q95 -42 95 -130q0 -45 -18 -77q-35 -58 -118 -132q-40 -36 -40 -55z" />
    <glyph glyph-name="ldot" unicode="&#x140;" horiz-adv-x="479" 
d="M-97 59q0 -33 54 -33t110 25.5t111 64.5t106 85.5t92 88.5l71 74q29 32 39 42l20 -17q-11 -11 -41 -44t-73.5 -76t-97.5 -91t-113 -88q-136 -92 -237 -92q-48 0 -78 23t-30 49.5t2.5 42.5t10.5 36.5t23 48t40 66.5l153 226l773 1105q72 -10 139 0
q-954 -1326 -988 -1376.5l-50 -76t-24 -41.5q-12 -24 -12 -42zM609.5 777.5q-13.5 -5.5 -30 -5.5t-30 13t-13.5 36t22.5 44.5t48.5 21.5q50 0 50 -47q0 -26 -17 -41.5t-30.5 -21z" />
    <glyph glyph-name="Lslash" unicode="&#x141;" horiz-adv-x="1347" 
d="M286 67q-158 -69 -346 -69q-160 0 -207 52q-13 15 -13 34t16 38t46 32q60 28 175.5 28t313.5 -70q142 95 333 354l-311 -77q8 12 14 19.5t9 18.5l318 80l123.5 176t27 41.5t8.5 13.5h-9q-217 0 -354 85q-136 84 -136 219q0 131 120 241q123 113 273 113l22 -11
q0 -9 -4 -10.5t-54.5 -5.5t-108.5 -34t-96 -73q-77 -87 -77 -180.5t29.5 -150t84.5 -93.5q108 -71 305 -71h25q342 495 637 599q99 35 169.5 35t101 -8.5t52.5 -24.5q46 -33 46 -89t-35.5 -113.5t-97.5 -112t-146 -104t-181 -89.5q-207 -86 -415 -111q-94 -143 -134 -197
l330 83q-5 -11 -12 -19t-9 -22l-340 -84q-229 -308 -447 -421q182 -65 435 -65q224 0 327 103q15 15 19 6q7 -16 -15 -38q-137 -120 -321 -120t-491 92zM963 779q304 42 547 193q149 94 212 206q30 54 30 90t-8 52.5t-22 29.5q-32 28 -94 28t-141.5 -33t-157.5 -97
q-156 -127 -303 -368q-17 -26 -32 -51.5t-31 -49.5zM-48 131q-204 0 -204 -50q0 -34 103 -53q33 -6 97 -6q162 0 278 63q-174 46 -274 46z" />
    <glyph glyph-name="lslash" unicode="&#x142;" horiz-adv-x="456" 
d="M-97 59q0 -33 48 -33t102.5 25.5t108 64.5t103.5 85.5t91 88.5l69 74q28 32 38 42l20 -17q-11 -11 -40.5 -44t-72 -76t-95 -91t-109.5 -88q-133 -92 -233 -92q-42 0 -69.5 23t-27.5 49.5t2.5 42.5t10.5 36.5t23 48t40 66.5l153 226l218 311l-232 -111q19 30 22 51
l253 123l512 731q72 -10 139 0l-461 -640l266 129q-16 -28 -19 -52l-294 -141q-448 -625 -481 -674l-49 -75q-36 -57 -36 -83z" />
    <glyph glyph-name="Nacute" unicode="&#x143;" horiz-adv-x="1432" 
d="M1711.5 1459q-12.5 0 -12.5 12q0 5 6.5 9.5l26.5 17.5q94 59 128 138q10 21 18 61q9 71 53 71t44 -55q0 -45 -64 -115q-59 -64 -123 -101.5t-76.5 -37.5zM687 -8q0 11 6 16q48 37 87 142q15 43 33 100l42 138q119 388 373 821l-268 -331l-192 -223l-119 -133
q-362 -396 -565 -490q-74 -34 -130.5 -34t-94.5 10.5t-63 29.5q-49 37 -49 95q0 40 23 57q34 27 60 27q61 0 61 -46q0 -20 -17 -35t-43.5 -15t-43.5 10v-6q0 -44 38.5 -72t102.5 -28t129 28t152 93q187 138 449 432l277 318q341 408 384 472q18 22 26 22t8 -7t-4 -15
l-14 -26q-37 -61 -56.5 -130.5t-30 -110t-24.5 -87.5l-32 -106q-71 -224 -172 -417l-174 -313l303 360l133 152l138 152l135 144q382 396 642 480q88 29 183.5 29.5t149 -46t54.5 -131.5q2 -95 -96 -212q-102 -120 -256 -194q-36 -17 -51.5 -17t-15.5 7.5t38.5 23t99 56.5
t109.5 92q109 117 109 227q0 79 -42.5 122.5t-123 43.5t-174.5 -35t-205 -112q-219 -151 -529 -490l-233 -261l-194 -228l-263 -313q-39 -47 -54.5 -47t-15.5 11zM512 1150q-18 -21 -38 -21t-35 12.5t-15 31t12.5 32.5t33.5 14t38.5 -9.5t31.5 -27.5q30 -39 30 -98.5
t-27 -109t-71 -84.5q-94 -75 -217 -75q-125 0 -206 69q-90 75 -90 207q0 142 125 237q126 96 325 96q119 0 180.5 -18.5t106.5 -37t90 -40.5l102 -47q78 -32 127 -32q95 0 169 66q5 4 11.5 4t6.5 -7q0 -8 -14 -24q-59 -59 -178 -84q-32 -6 -59 -6t-64 6t-75 16
q-77 22 -139.5 58t-107 56.5t-79.5 31.5q-58 19 -130 19t-138.5 -22.5t-117.5 -62.5q-109 -88 -109 -215q0 -107 71 -176q72 -70 189 -70q111 0 195 65q93 70 93 177q0 40 -27 69z" />
    <glyph glyph-name="nacute" unicode="&#x144;" horiz-adv-x="1042" 
d="M753 820q85 50 126 117q25 42 39 149q9 63 52.5 63t43.5 -55q0 -57 -64 -140q-78 -101 -190 -160q-12 -6 -22 -6t-10 8t6 11.5t19 12.5zM36 19q-27 5 -60 5q-53 0 -93 -10l347 496q65 91 67 108q4 33 -21 33q-37 0 -184 -183l-64 -79q-8 -4 -16.5 4.5t-4.5 12.5
q29 31 65.5 78.5t76.5 91.5q98 109 163 109q110 0 70 -113q-8 -24 -35 -62l-210 -292l5 -11q252 276 358 365q101 84 150.5 98.5t81 14.5t54 -9t36.5 -23q26 -26 25.5 -62.5t-14 -74.5t-45.5 -90q-67 -107 -226 -279q-66 -69 -69 -80.5t-3 -17.5q0 -23 61.5 -23t115 25.5
t105 64.5t98 85.5t83.5 89t62 74t34 41.5l21 -17q-10 -11 -36 -44t-64.5 -76t-87 -91t-102.5 -88q-126 -92 -228 -92q-90 0 -125 45q-11 14 -11 33t5.5 43.5t26.5 62.5q47 81 133.5 178t113.5 131t43 59q30 48 30 74q0 36 -48 36q-99 0 -327 -224q-115 -112 -264 -295z" />
    <glyph glyph-name="OE" unicode="&#x152;" horiz-adv-x="2118" 
d="M1343 -274q0 -9 -11 -9q-12 0 -37 23t-46.5 75.5t-21.5 105t3 82.5q-118 20 -188 93q-68 71 -68 165q0 47 10 90q-233 -243 -496 -325q-87 -28 -157 -28t-120.5 16.5t-87.5 53.5q-79 81 -79 244q0 267 246 556q148 174 348 306q199 132 400 184q100 26 177 26t127 -16
t84 -46q72 -61 72 -164q0 -69 -42 -131q-20 -24 -28 -24t-8 10q0 3 12 18q37 46 37 132t-65.5 139t-161 53t-181.5 -32.5t-177.5 -89.5t-184.5 -133.5t-179 -165t-160.5 -183.5t-129.5 -189q-119 -203 -119 -345q0 -91 69 -143q62 -48 145.5 -48t156 25t147 68.5t148 103
t140 128.5t123 144t98.5 150q89 159 89 282q0 166 -161 166q-123 0 -262 -119q-136 -116 -226 -285q-96 -181 -96 -345q0 -94 28 -150q3 -8 3 -10q0 -10 -8 -10q-31 0 -47 110q-5 34 -5 95t25 149t69 173t103.5 161t127.5 134q150 125 295 125q135 0 181 -125
q16 -42 16 -100q0 -112 -72 -254q165 114 376 114h4q-15 36 -15 81.5t16.5 95t46.5 99.5t72.5 98t95.5 90q141 113 296 145q94 19 151 19t97.5 -12.5t65.5 -33.5q46 -40 46 -95t-19.5 -107.5t-54.5 -103t-84 -95t-108 -78.5q-127 -74 -260 -74q-57 0 -86 26t-29 62.5t17 75
t47.5 77.5t73 75.5t93.5 64.5q112 63 231 63q23 0 23 -13t-42 -13t-93.5 -15.5t-98.5 -41.5t-87 -59.5t-69 -70.5q-63 -77 -63 -140q0 -28 21 -46t66 -18q139 0 307 141q104 88 150 187q23 50 23 101.5t-36.5 82.5t-90 31t-87.5 -6.5t-66 -16.5q-65 -22 -129.5 -63.5
t-134 -111.5t-118.5 -141q-102 -149 -102 -249v-15q93 -10 140 -39.5t47 -61t-55 -31.5q-74 0 -139 54q-22 19 -39 44q-112 -10 -246 -98q-124 -83 -213 -195q-91 -115 -91 -195t47.5 -132t138.5 -67q13 84 45 156.5t75.5 132t95.5 102.5q110 89 234 89q70 0 103.5 -33.5
t33.5 -86t-19 -100t-54 -91t-82.5 -80.5t-105.5 -64q-125 -58 -257 -58q-23 0 -45 2q-3 -24 -3 -75.5t21.5 -103t56.5 -80.5q10 -10 10 -15zM1653 718q30 -70 123 -70q14 0 14 14t-36.5 32.5t-100.5 23.5zM1263 28q22 -2 56.5 -2t89 21t107.5 54.5t102 76t86 84.5
q81 94 81 139.5t-21 62t-66 16.5t-94.5 -21t-100.5 -59q-116 -88 -183 -216q-41 -84 -57 -156z" />
    <glyph glyph-name="oe" unicode="&#x153;" horiz-adv-x="1188" 
d="M148 16q-51 -18 -97 -18t-77 10t-52 28q-80 71 -16 241q24 64 65 123.5t90 109t107 88.5q128 87 250 87q90 0 122 -63q30 -59 0 -170q150 172 331 220q52 13 88.5 13t57.5 -5.5t34 -14.5q52 -36 5 -111q-47 -78 -238 -168q-99 -46 -249 -95q-58 -93 -58 -155t31.5 -87.5
t92.5 -25.5t131.5 26t131.5 66t111.5 87t88.5 90t62.5 74.5t34.5 39.5l21 -17q-13 -11 -40 -45t-67 -77.5t-92.5 -91.5t-116.5 -89q-145 -92 -294 -92q-135 0 -172 107q-17 50 -13 81.5t7 48.5q-121 -160 -280 -215zM1011 605q0 56 -51 56q-91 0 -230 -161q-46 -52 -78 -93
l-60 -81q303 106 390 211q29 35 29 68zM35 36q16 -8 45 -8q64 0 148.5 60t137.5 119.5t90 122.5q76 131 70 232q-4 49 -26 68t-50 19q-116 0 -331 -266q-137 -170 -129 -268q0 -55 45 -79z" />
    <glyph glyph-name="Racute" unicode="&#x154;" horiz-adv-x="1506" 
d="M1566 1697q9 71 53 71t44 -55q0 -45 -64 -115q-61 -66 -124 -102.5t-75.5 -36.5t-12.5 12q0 5 6.5 9.5l26.5 17.5q94 59 128 138q10 21 18 61zM829 659.5q20 11.5 77 11.5t102 -25q138 58 248 208q109 149 105 272q-3 80 -63 137q-246 -166 -508 -547
q-406 -568 -707 -682q-93 -36 -160.5 -36t-107.5 10.5t-67 29.5q-51 37 -51 97q0 62 61 79q17 4 33 4t32.5 -11t16.5 -33t-16.5 -37t-43.5 -15t-43 11v-6q0 -45 42 -73t101.5 -28t99.5 9t83 33.5t91 68t108 112.5t136 167l173 232q214 300 484 504q144 109 206 140
q-121 81 -357 81q-220 0 -430 -97q-191 -89 -310 -228q-118 -139 -114 -264q2 -73 56 -114q42 -32 101 -32t120.5 32t118.5 83.5t107.5 115t89.5 126.5q81 131 90 208q3 34 13 34t11 -7.5t2 -45.5t-15 -105t-48.5 -133t-81 -126t-110.5 -106q-135 -102 -300 -102
q-69 0 -126 46q-60 49 -62.5 126.5t34.5 155.5t102.5 147t154.5 127t190 100q213 87 433.5 87t361.5 -92q148 75 217 75q19 0 19.5 -8t-5.5 -12t-34 -9q-62 -11 -161 -72q116 -94 122 -241q6 -128 -107 -245q-115 -120 -303 -175q29 -30 30.5 -71t-4.5 -74t-27 -73
q-41 -78 -170 -207q-59 -49 -57 -98q0 -73 105 -73q122 0 253 129q133 133 198 325q9 30 14 30q18 0 18 -43.5t-22.5 -101.5t-60.5 -112t-88 -100.5t-105 -80.5q-116 -74 -204.5 -74t-132.5 34.5t-46 89t13 101.5t40.5 87.5t57.5 75.5l62 67q71 58 80 103q2 13 2 27t-6 26
q-46 -11 -90 -11t-66 11.5t-23.5 25t18.5 25zM967 632q-28 16 -74 16t-46 -8q0 -19 41 -19t79 11z" />
    <glyph glyph-name="Rcommaaccent" unicode="&#x156;" horiz-adv-x="1506" 
d="M829 659.5q20 11.5 77 11.5t102 -25q138 58 248 208q109 149 105 272q-3 80 -63 137q-246 -166 -508 -547q-406 -568 -707 -682q-93 -36 -160.5 -36t-107.5 10.5t-67 29.5q-51 37 -51 97q0 62 61 79q17 4 33 4t32.5 -11t16.5 -33t-16.5 -37t-43.5 -15t-43 11v-6
q0 -45 42 -73t101.5 -28t99.5 9t83 33.5t91 68t108 112.5t136 167l173 232q214 300 484 504q144 109 206 140q-121 81 -357 81q-220 0 -430 -97q-191 -89 -310 -228q-118 -139 -114 -264q2 -73 56 -114q42 -32 101 -32t120.5 32t118.5 83.5t107.5 115t89.5 126.5
q81 131 90 208q3 34 13 34t11 -7.5t2 -45.5t-15 -105t-48.5 -133t-81 -126t-110.5 -106q-135 -102 -300 -102q-69 0 -126 46q-60 49 -62.5 126.5t34.5 155.5t102.5 147t154.5 127t190 100q213 87 433.5 87t361.5 -92q148 75 217 75q19 0 19.5 -8t-5.5 -12t-34 -9
q-62 -11 -161 -72q116 -94 122 -241q6 -128 -107 -245q-115 -120 -303 -175q29 -30 30.5 -71t-4.5 -74t-27 -73q-41 -78 -170 -207q-59 -49 -57 -98q0 -73 105 -73q122 0 253 129q133 133 198 325q9 30 14 30q18 0 18 -43.5t-22.5 -101.5t-60.5 -112t-88 -100.5t-105 -80.5
q-116 -74 -204.5 -74t-132.5 34.5t-46 89t13 101.5t40.5 87.5t57.5 75.5l62 67q71 58 80 103q2 13 2 27t-6 26q-46 -11 -90 -11t-66 11.5t-23.5 25t18.5 25zM967 632q-28 16 -74 16t-46 -8q0 -19 41 -19t79 11zM326.5 -221q16.5 33 19 76.5t21.5 76t55 32.5q46 0 46 -48
q0 -105 -155 -227q-89 -72 -145 -72q-15 0 -15 7q0 15 26 23t54.5 27t52.5 45.5t40.5 59.5z" />
    <glyph glyph-name="rcommaaccent" unicode="&#x157;" horiz-adv-x="684" 
d="M212.5 32q39.5 0 87 24t97 61t97.5 82l87 87q40 41 69 74l41 46l20 -17q-19 -17 -51 -53l-72 -80q-244 -258 -420 -258q-57 0 -91.5 28t-34.5 75q0 149 434 440q-212 35 -293 71q-66 -136 -203 -277q-32 -33 -39.5 -36t-9.5 -4.5t-3 5.5t0 10.5t4 7.5l87 102
q93 116 137 206q-36 23 -41 49t0.5 48.5t17.5 40.5q26 39 60 39q63 0 63 -46q0 -23 -9 -39l-18 -31q-18 -23 -18 -53q0 -18 76.5 -34t108.5 -22q70 -13 111 -15q28 -1 28 -15q0 -9 -32.5 -35t-71.5 -63t-76 -77.5t-70 -82.5t-58 -81q-54 -84 -54 -130.5t39.5 -46.5z
M-159 -43q46 0 46 -47q0 -106 -155 -228q-89 -72 -145 -72q-15 0 -15 8q0 14 26 22t54.5 27t52.5 45q55 61 59 121q7 124 77 124z" />
    <glyph glyph-name="Rcaron" unicode="&#x158;" horiz-adv-x="1506" 
d="M1582 1676l99 66q40 25 49 25t9 -4t-1 -7t-5 -8q-7 -8 -61 -48l-121 -96q-67 -54 -135 -119q-46 -49 -57 -49t-11 7.5t2 12.5l8 20q21 59 21 121q0 105 -43 149q-5 4 -5 8t4.5 9t13 5t21.5 -8t27 -24q44 -49 59 -151q67 52 126 91zM829 659.5q20 11.5 77 11.5t102 -25
q138 58 248 208q109 149 105 272q-3 80 -63 137q-246 -166 -508 -547q-406 -568 -707 -682q-93 -36 -160.5 -36t-107.5 10.5t-67 29.5q-51 37 -51 97q0 62 61 79q17 4 33 4t32.5 -11t16.5 -33t-16.5 -37t-43.5 -15t-43 11v-6q0 -45 42 -73t101.5 -28t99.5 9t83 33.5t91 68
t108 112.5t136 167l173 232q214 300 484 504q144 109 206 140q-121 81 -357 81q-220 0 -430 -97q-191 -89 -310 -228q-118 -139 -114 -264q2 -73 56 -114q42 -32 101 -32t120.5 32t118.5 83.5t107.5 115t89.5 126.5q81 131 90 208q3 34 13 34t11 -7.5t2 -45.5t-15 -105
t-48.5 -133t-81 -126t-110.5 -106q-135 -102 -300 -102q-69 0 -126 46q-60 49 -62.5 126.5t34.5 155.5t102.5 147t154.5 127t190 100q213 87 433.5 87t361.5 -92q148 75 217 75q19 0 19.5 -8t-5.5 -12t-34 -9q-62 -11 -161 -72q116 -94 122 -241q6 -128 -107 -245
q-115 -120 -303 -175q29 -30 30.5 -71t-4.5 -74t-27 -73q-41 -78 -170 -207q-59 -49 -57 -98q0 -73 105 -73q122 0 253 129q133 133 198 325q9 30 14 30q18 0 18 -43.5t-22.5 -101.5t-60.5 -112t-88 -100.5t-105 -80.5q-116 -74 -204.5 -74t-132.5 34.5t-46 89t13 101.5
t40.5 87.5t57.5 75.5l62 67q71 58 80 103q2 13 2 27t-6 26q-46 -11 -90 -11t-66 11.5t-23.5 25t18.5 25zM967 632q-28 16 -74 16t-46 -8q0 -19 41 -19t79 11z" />
    <glyph glyph-name="rcaron" unicode="&#x159;" horiz-adv-x="684" 
d="M467.5 1222q12.5 0 24 -7.5t24.5 -22.5q30 -39 45 -87.5t18 -93.5q37 34 70 61l119 94l52 38q25 18 33.5 18t8.5 -3.5t-1 -6t-5 -6.5q-9 -11 -28 -27l-126 -111l-85 -80q-44 -41 -68 -67.5t-33.5 -36t-15.5 -14.5q-11 -9 -20 -9t-9 7q0 8 7 27q24 59 24 129
q0 121 -32 164q-15 17 -15 25.5t12.5 8.5zM212.5 32q39.5 0 87 24t97 61t97.5 82l87 87q40 41 69 74l41 46l20 -17q-19 -17 -51 -53l-72 -80q-244 -258 -420 -258q-57 0 -91.5 28t-34.5 75q0 149 434 440q-212 35 -293 71q-66 -136 -203 -277q-32 -33 -39.5 -36t-9.5 -4.5
t-3 5.5t0 10.5t4 7.5l87 102q93 116 137 206q-36 23 -41 49t0.5 48.5t17.5 40.5q26 39 60 39q63 0 63 -46q0 -23 -9 -39l-18 -31q-18 -23 -18 -53q0 -18 76.5 -34t108.5 -22q70 -13 111 -15q28 -1 28 -15q0 -9 -32.5 -35t-71.5 -63t-76 -77.5t-70 -82.5t-58 -81
q-54 -84 -54 -130.5t39.5 -46.5z" />
    <glyph glyph-name="dotlessj" unicode="&#x237;" horiz-adv-x="382" 
d="M171 677q10 -2 38 -2h60q44 0 58 2q-560 -723 -654 -837q324 156 501 324q97 93 216 242l20 -17q-129 -160 -209 -233.5t-137.5 -117t-122.5 -83.5t-140 -79l-165 -81q-208 -250 -312 -345t-163 -135.5t-113 -62.5q-94 -39 -215 -39q-63 0 -83 43q-6 12 -6 38.5t33.5 74
t116.5 105.5q173 120 584 291l384 485q238 313 273 364.5t36 62.5zM-557 -277q-366 -156 -513 -255q-153 -102 -153 -188q0 -11 13 -25.5t47 -14.5t68.5 7t73.5 25.5t83.5 52t100.5 87t125 130.5z" />
    <glyph glyph-name="circumflex" unicode="&#x2c6;" horiz-adv-x="733" 
d="M320 800q0 -12 -16 -12q-33 0 -69 69q-12 23 -21 49q-12 37 -17 92q-74 -69 -132 -112l-108 -80q-28 -18 -38 -18q-6 0 -6 3.5t1 6t5.5 7t13.5 12.5q221 196 277 255t67 68t19 9t8 -7q0 -6 -7 -26q-23 -66 -23 -134q0 -119 33 -160q13 -17 13 -22z" />
    <glyph glyph-name="caron" unicode="&#x2c7;" horiz-adv-x="1261" 
d="M-125.5 1149q12.5 0 24 -7.5t23.5 -23.5q31 -38 43 -75q16 -51 21 -105l70 62l118 93l53 38q25 18 33.5 18t8.5 -3.5t-1 -6t-5 -7.5q-9 -10 -28 -26l-126 -112l-85 -78q-44 -42 -68 -68.5t-33.5 -36t-16.5 -15.5q-10 -8 -19 -8t-9 7q0 9 8 27q23 59 23 130q0 120 -32 163
q-15 17 -15 25.5t12.5 8.5z" />
    <glyph glyph-name="ring" unicode="&#x2da;" horiz-adv-x="649" 
d="M104 1059q39 0 60 -21.5t21 -55t-22.5 -68.5t-57.5 -63q-79 -63 -161 -63t-82 73.5t82.5 135.5t159.5 62zM87 1031q-59 0 -114 -55q-54 -54 -54 -108t46 -54q55 0 108.5 53.5t53.5 108.5t-40 55z" />
    <glyph glyph-name="tilde" unicode="&#x2dc;" horiz-adv-x="834" 
d="M-101 829q-9 -17 -22 -17q-8 0 -8 14q0 37 41 80q69 74 122 74q42 0 91 -34q75 -51 111 -51q67 0 99 76q10 17 20 17t10 -14q0 -36 -40 -80q-67 -74 -125 -74q-34 0 -62 16.5l-56 34.5q-53 34 -88 34q-63 0 -93 -76z" />
    <glyph glyph-name="endash" unicode="&#x2013;" horiz-adv-x="1358" 
d="M326 430q30 34 42 57h658q-23 -30 -30 -57h-670z" />
    <glyph glyph-name="emdash" unicode="&#x2014;" horiz-adv-x="1729" 
d="M326 430q27 31 41 57h1031q-21 -31 -29 -57h-1043z" />
    <glyph glyph-name="quoteleft" unicode="&#x2018;" horiz-adv-x="980" 
d="M899 1430l11 -75q0 -31 -21 -53q-37 -40 -64 -40t-43 20t-16 50t7 57t25 57q42 69 133 140q63 48 100.5 60.5t46.5 12.5q19 0 19 -14q0 -9 -28 -18.5t-60 -33.5t-57 -53q-53 -62 -53 -110z" />
    <glyph glyph-name="quoteright" unicode="&#x2019;" horiz-adv-x="844" 
d="M1015 1477l-11 75q0 31 21 53q37 40 64 40q59 0 59 -78q0 -117 -165 -246q-60 -46 -99.5 -59t-53 -13t-13.5 13q0 8 28 18.5t60 34t57 51.5q53 63 53 111z" />
    <glyph glyph-name="quotesinglbase" unicode="&#x201a;" horiz-adv-x="544" 
d="M-49 -192l-11 75q0 31 21 53q37 40 64 40t43 -20t16 -50t-7 -57t-25 -57q-42 -69 -133 -140q-63 -48 -100.5 -60.5t-46.5 -12.5q-19 0 -19 14q0 9 28 18.5t60 33t57 51.5q53 63 53 112z" />
    <glyph glyph-name="quotedblleft" unicode="&#x201c;" horiz-adv-x="1422" 
d="M1183 1416l11 -74q0 -30 -21 -52q-38 -41 -64.5 -41t-42.5 20.5t-16 49.5t7 56t25 57q42 69 133 140q62 47 100.5 60t47.5 13q18 0 18 -14q0 -9 -28 -18.5t-60 -32.5t-57 -52q-53 -62 -53 -112zM858 1416l11 -74q0 -30 -21 -52q-38 -41 -64.5 -41t-42.5 20.5t-16 49.5
t7 56t26 57q41 69 132 140q63 48 100.5 60.5t46.5 12.5q19 0 19 -14q0 -9 -28 -18.5t-60 -32.5t-56 -52q-54 -62 -54 -112z" />
    <glyph glyph-name="quotedblright" unicode="&#x201d;" horiz-adv-x="848" 
d="M1145.5 1249q-13.5 0 -13.5 13q0 8 28 18.5t59.5 34t56.5 51.5q53 63 53 111l-10 75q0 31 21 53q37 40 64 40q59 0 59 -78q0 -117 -166 -246q-56 -45 -97 -58.5t-54.5 -13.5zM1015 1477l-11 75q0 31 21 53q37 40 64 40q59 0 59 -78q0 -117 -165 -246q-60 -46 -99.5 -59
t-53 -13t-13.5 13q0 8 28 18.5t60 34t57 51.5q53 63 53 111z" />
    <glyph glyph-name="quotedblbase" unicode="&#x201e;" horiz-adv-x="838" 
d="M246 -192l-11 75q0 31 21 53q66 71 107 20q16 -20 16 -50t-7 -57t-26 -57q-41 -69 -132 -140q-63 -48 -100.5 -60.5t-46.5 -12.5q-19 0 -19 14q0 9 28 18.5t60 33t56 51.5q54 63 54 112zM-49 -192l-11 75q0 31 21 53q37 40 64 40t43 -20t16 -50t-7 -57t-25 -57
q-42 -69 -133 -140q-63 -48 -100.5 -60.5t-46.5 -12.5q-19 0 -19 14q0 9 28 18.5t60 33t57 51.5q53 63 53 112z" />
    <glyph glyph-name="bullet" unicode="&#x2022;" horiz-adv-x="726" 
d="M396 326q-30 -13 -67.5 -13t-66 29.5t-28.5 66.5t13 65t36 50q52 48 109 48t84 -29t27 -67.5t-14.5 -66t-38.5 -49t-54 -34.5z" />
    <glyph glyph-name="ellipsis" unicode="&#x2026;" horiz-adv-x="2178" 
d="M1551 18.5q-20 20.5 -20 47.5t9.5 46.5t25.5 35.5q36 34 77 34q79 0 79 -74q0 -42 -28 -67q-47 -43 -85 -43t-58 20.5zM825 18.5q-20 20.5 -20 47.5t9.5 46.5t25.5 35.5q36 34 77 34q79 0 79 -74q0 -42 -28 -67q-47 -43 -85 -43t-58 20.5zM99 18.5q-20 20.5 -20 47.5
t9.5 46.5t25.5 35.5q36 34 77 34q79 0 79 -74q0 -42 -28 -67q-47 -43 -85 -43t-58 20.5z" />
    <glyph glyph-name="guilsinglleft" unicode="&#x2039;" horiz-adv-x="1287" 
d="M506 320q-17 26 -32.5 44.5t-15.5 27.5q0 12 31 29l69 41q39 24 78 52l76 56q38 29 60 50q31 32 40.5 32t9.5 -8q0 -12 -18 -33l-94 -109q-72 -78 -139 -135q21 -54 37 -99l26 -80q6 -24 6 -35.5t-10 -11.5t-20 19.5t-28 48.5z" />
    <glyph glyph-name="guilsinglright" unicode="&#x203a;" horiz-adv-x="1416" 
d="M718 426q-68 175 -68 201t8 26q12 0 22 -20t28 -49q75 -114 99.5 -144t24.5 -40.5t-31.5 -27.5t-69.5 -40.5t-77 -51.5q-87 -61 -121 -95q-45 -44 -54.5 -44t-9.5 9q0 10 17 32l93 106l67 70q34 35 72 68z" />
    <glyph glyph-name="Euro" unicode="&#x20ac;" horiz-adv-x="1359" 
d="M1168 425.5q0 -14.5 -11 -25.5q-129 -155 -289 -259q-220 -143 -415 -143q-181 0 -235 128q-17 42 -17 97q0 188 139 411h-137q17 13 25 28h130q21 32 44 63l48 63h-166q17 14 25 28h164q201 241 463 400q277 168 504 168q172 0 222 -97q15 -29 15 -63.5t-9.5 -58.5
t-23.5 -39q-25 -27 -49 -27t-36 15.5t-12 34t25.5 36.5t62.5 20q2 10 2 32.5t-14.5 49t-40.5 43.5q-51 32 -115.5 32t-122 -20.5t-123 -57.5t-137 -87.5t-144.5 -111.5q-160 -132 -289 -269h365q-10 -13 -12 -28h-379q-59 -63 -111 -126h421q-5 -6 -12 -28h-432
q-237 -295 -237 -450q0 -72 51.5 -117.5t140.5 -45.5q184 0 408 148q159 106 268 247q21 24 33.5 24t12.5 -14.5z" />
    <glyph glyph-name="ff" unicode="&#xfb00;" horiz-adv-x="1108" 
d="M-45 144q-28 -360 -167 -640q-90 -182 -202 -254q-57 -37 -107 -37t-77.5 27.5t-28.5 62t4.5 65.5t24 73.5t51 102t84.5 143.5l125 197l264 400q-30 47 -41 94t-6.5 77t21.5 50.5t41.5 20.5t40 -16t15.5 -36t-5.5 -34.5t-14.5 -27.5q-21 -32 -45 -44q4 -22 17 -49
l491 761q64 99 149.5 206t145.5 167q126 126 200 126q43 0 64 -25t23 -78.5t-38 -148t-110 -201t-163.5 -218t-198.5 -216.5q-222 -218 -430 -350l-71 -110q75 -65 222 -40q96 15 151 51.5t83 61.5q-45 83 -35 148q11 73 65 73q23 0 38.5 -16t15.5 -36t-5.5 -34.5
t-14.5 -27.5q-21 -32 -45 -44q2 -8 4 -17t6 -18q31 31 59 66l441 683q59 93 146 202t147 169q126 126 200 126q43 0 64 -25t23 -78.5t-38 -148t-110 -201t-163.5 -218t-198.5 -216.5q-222 -218 -430 -350l-71 -110q48 -41 125.5 -46t147.5 16.5t123 55.5q72 47 153 147
l23 -16q-11 -10 -30 -33t-47.5 -50.5t-66 -56t-85.5 -50.5q-107 -50 -233 -37q-72 8 -125 46l-42 -64q-28 -360 -167 -640q-90 -181 -202 -254q-56 -37 -106 -37t-77.5 27.5t-28.5 62t4.5 65.5t24 73.5t51 102t84.5 143.5l125 197l259 393q-156 -135 -354 -115
q-72 8 -125 46zM672 398q289 197 570 547q206 256 269 443q39 116 5 154q-13 14 -30.5 14t-39.5 -13.5t-54 -48.5q-63 -70 -155 -214zM118 398q289 197 570 547q206 256 269 443q39 116 5 154q-13 14 -30.5 14t-39.5 -13.5t-54 -48.5q-63 -70 -155 -214zM476 94l-337 -516
l-80 -132q-72 -125 -72 -166q0 -17 12.5 -29.5t37 -12.5t65 28t86 80t92 127.5t86.5 170.5q88 212 110 450zM-78 94l-337 -516l-80 -132q-72 -125 -72 -166q0 -17 12.5 -29.5t37 -12.5t65 28t86 80t92 127.5t86.5 170.5q88 212 110 450z" />
    <glyph glyph-name="fi" unicode="&#xfb01;" horiz-adv-x="1007" 
d="M507 26q59 0 111.5 27t106 67.5t103.5 88.5l90 90q40 42 66 72.5t31 35.5l20 -18q-10 -10 -37.5 -42.5t-68.5 -76t-92 -91.5t-107 -88q-129 -93 -226 -93q-62 0 -99 22.5t-37 60.5q0 47 23.5 90.5t43.5 74.5q-141 -101 -314 -84q-72 8 -125 46l-41 -64
q-28 -360 -167 -640q-90 -182 -202 -254q-57 -37 -107 -37t-77.5 27.5t-28.5 62t4.5 65.5t24 73.5t51 102t84.5 143.5l125 197l264 400q-30 47 -41 94t-6.5 77t21.5 50.5t41.5 20.5t40 -16t15.5 -36t-5.5 -34.5t-14.5 -27.5q-21 -32 -45 -44q4 -22 17 -49l491 761
q64 99 149.5 206t145.5 167q126 126 200 126q43 0 64 -25t23 -78.5t-38 -148t-110 -201t-163.5 -218t-198.5 -216.5q-222 -218 -430 -350l-71 -110q81 -70 236 -38q139 28 249 138q47 63 116 147l167 199q12 -3 49 -3h47q26 0 42 2q-331 -395 -372.5 -449.5t-61.5 -85.5
q-35 -53 -35 -84.5t59 -31.5zM118 398q289 197 570 547q206 256 269 443q39 116 5 154q-13 14 -30.5 14t-39.5 -13.5t-54 -48.5q-63 -70 -155 -214zM970.5 893.5q-16.5 17.5 -16.5 39.5t8 39t22 30q29 30 63.5 30t51 -18.5t16.5 -40.5t-8.5 -39t-22.5 -30q-32 -28 -64.5 -28
t-49 17.5zM-78 94l-337 -516l-80 -132q-72 -125 -72 -166q0 -17 12.5 -29.5t37 -12.5t65 28t86 80t92 127.5t86.5 170.5q88 212 110 450z" />
    <glyph glyph-name="commaaccent" horiz-adv-x="641" 
d="M172 -36q46 0 46 -48q0 -105 -155 -227q-89 -72 -145 -72q-15 0 -15 7q0 15 26 23t54.5 27t52.5 46q55 60 59 120q7 124 77 124z" />
    <glyph glyph-name="foundryicon" horiz-adv-x="2152" 
d="M775 312q-61 60 -105 134q-91 154 -91 335q0 179 91 335q86 147 240 239q148 89 335 89q274 0 468.5 -193t194.5 -470q0 -275 -194.5 -469.5t-468.5 -194.5t-470 195zM1680 998.5q0 12.5 -10 12.5l-181 -7v79q3 94 -14 130q-35 74 -125 69q-141 -6 -272 -75
q-74 -40 -106 -91q-16 -25 -16 -50t20 -48q-8 -2 -16.5 -5l-20 -7t-27.5 -13t-32 -21q-67 -52 -64 -128q0 -38 18 -62q27 -55 144 -121q114 -63 131 -102q12 -36 0 -65q-27 -17 -58.5 -17t-60.5 10q-62 21 -73.5 46.5t-13 36.5t-5.5 27q-8 8 -43.5 4t-39.5 -7
q-19 -57 -19 -108q11 -42 107 -62q85 -18 173 8q22 6 40 18q48 20 86 78q10 17 16 31q19 75 -31 134q-29 32 -76 61l-75 45q-103 60 -113 97q-11 29 5 58q43 28 102 8q54 -18 61.5 -41.5t10.5 -39t7 -19.5q26 -10 71 1q2 6 5 23l7 35q7 43 5 66l-5 3q-4 0 -17 6l-35 14
q-81 36 -86 91t87 103q86 46 144 48t73.5 -14t17 -47.5t-3.5 -78t-9 -108.5l-29 -16q-14 -8 -26 -14q-28 -12 -33 -20t-5 -21.5t10 -13.5l82 -1l-10 -350q0 -123 93 -142q27 -5 57.5 -5t59.5 6t54 17q40 16 79 38q2 2 2 8.5t-2 13.5q-4 14 -14 12.5t-24 -5t-31 -5.5l-34 -4
q-18 -2 -34 -1t-29 7t-21 18q-19 28 -19 87v305h169q12 0 17 34t5 46.5z" />
    <glyph glyph-name="grave.cap" horiz-adv-x="376" 
d="M496 1471q0 -12 -10 -12q-12 0 -54 23.5t-80.5 54t-67.5 61.5q-64 68 -64 119t43 51t55 -71q13 -65 37 -100q41 -61 116 -102l19 -15q6 -4 6 -9z" />
    <glyph glyph-name="acute.cap" horiz-adv-x="376" 
d="M38 1697q9 71 53 71t44 -55q0 -45 -64 -115q-61 -66 -124 -102.5t-75.5 -36.5t-12.5 12q0 5 6.5 9.5l26.5 17.5q94 59 128 138q10 21 18 61z" />
    <glyph glyph-name="circumflex.cap" horiz-adv-x="376" 
d="M-87 1528l-98 -65q-40 -25 -50 -25t-10 4q0 13 61 58l127 100q67 54 136 119q44 49 59 49q8 0 8 -7q0 -13 -7 -30q-24 -58 -24 -122q0 -111 43 -150q5 -4 5 -8t-4.5 -9.5t-12.5 -5.5q-34 0 -74 72q-23 41 -27 69l-6 42q-67 -52 -126 -91z" />
    <glyph glyph-name="dieresis.cap" horiz-adv-x="376" 
d="M147.5 1476q-18.5 -8 -41.5 -8t-39.5 18.5t-16.5 40.5t8 38.5t22 29.5q30 29 64 29t51 -17.5t17 -40t-9 -39.5t-23 -30t-32.5 -21zM-152 1476q-18 -8 -41 -8t-39.5 18.5t-16.5 40.5t8 38.5t21 29.5q31 29 65 29t50 -17.5t16 -40t-8.5 -39.5t-22.5 -30t-32 -21z" />
    <glyph glyph-name="ring.cap" horiz-adv-x="376" 
d="M144 1729q39 0 59 -21.5t20 -55t-22.5 -68.5t-56.5 -63q-79 -64 -161 -64t-82 73.5t83 136t160 62.5zM125 1701q-59 0 -114 -55q-53 -53 -53 -107.5t45 -54.5q58 0 109 53q53 55 53 109.5t-40 54.5z" />
    <glyph glyph-name="tilde.cap" horiz-adv-x="376" 
d="M146.5 1515.5q-30.5 -15.5 -47.5 -15.5t-27.5 1.5t-23.5 6.5q-31 14 -66 38q-60 40 -95 40q-64 0 -94 -78q-9 -16 -19 -16t-10 14q0 39 40 81q70 73 123 73q44 0 91 -33q75 -52 117 -52q61 0 92 76q10 18 17 18q14 0 14 -14q0 -35 -40.5 -79.5t-71 -60z" />
    <glyph glyph-name="caron.cap" horiz-adv-x="376" 
d="M180 1676l99 66q40 25 49 25t9 -4t-1 -7t-5 -8q-7 -8 -61 -48l-121 -96q-67 -54 -135 -119q-46 -49 -57 -49t-11 7.5t2 12.5l8 20q21 59 21 121q0 105 -43 149q-5 4 -5 8t4.5 9t13 5t21.5 -8t27 -24q44 -49 59 -151q67 52 126 91z" />
  </font>
</defs>
</svg>
