<?xml version="1.0" standalone="no"?>
<!DOCTYPE svg PUBLIC "-//W3C//DTD SVG 1.1//EN" "http://www.w3.org/Graphics/SVG/1.1/DTD/svg11.dtd" >
<svg>
<metadata>
Created by FontForge 20090622 at Tue Mar 20 10:07:45 2018
 By deploy user
NotCourier was designed by OSP (Ludivine Loiseau), in July 2008. It is based on Nimbus Mono, copyright (URW)++,Copyright 1999 by (URW)++ Design &#38; Development; Cyrillic glyphs added by Valek Filippov (C) 2001-2005
</metadata>
<defs>
<font id="NotCourierSans" horiz-adv-x="1228" >
  <font-face 
    font-family="NotCourierSans"
    font-weight="400"
    font-stretch="normal"
    units-per-em="2048"
    panose-1="2 11 3 9 3 1 2 2 2 3"
    ascent="1638"
    descent="-410"
    x-height="854"
    cap-height="1153"
    bbox="-25 -561 1933 1964"
    underline-thickness="102"
    underline-position="-205"
    unicode-range="U+0020-U+FB02"
  />
<missing-glyph horiz-adv-x="748" 
d="M68 0v1365h544v-1365h-544zM136 68h408v1229h-408v-1229z" />
    <glyph glyph-name="fi" unicode="fi" 
d="M246 0v770h-158q-55 0 -55 43q0 41 55 41h158v121q0 109 64 185.5t155 76.5q74 0 153 -31q33 -13 33 -41q0 -17 -11 -29t-28 -12q-3 0 -26 6q-79 23 -119 23q-58 0 -97.5 -51.5t-39.5 -126.5v-121h147q55 0 55 -41q0 -43 -55 -43h-147v-770h-84zM905 0v770h-117
q-55 0 -55 43q0 41 55 41h201v-854h-84zM987 1278v-213h-121v213h121z" />
    <glyph glyph-name="fl" unicode="fl" 
d="M905 0v1153h-117q-55 0 -55 43q0 41 55 41h201v-1237h-84zM246 0v770h-158q-55 0 -55 43q0 41 55 41h158v121q0 109 64 185.5t155 76.5q74 0 153 -31q33 -13 33 -41q0 -17 -11 -29t-28 -12q-3 0 -26 6q-79 23 -119 23q-58 0 -97.5 -51.5t-39.5 -126.5v-121h147
q55 0 55 -41q0 -43 -55 -43h-147v-770h-84z" />
    <glyph glyph-name="Ldot" unicode="L&#xb7;" 
d="M780 709h21q59 0 99 -39t40 -97t-40 -96.5t-99 -38.5h-21q-61 0 -102 39.5t-41 95.5q0 58 40.5 97t102.5 39zM1108 84v-84h-727v1153h84v-1069h643z" />
    <glyph glyph-name="ldot" unicode="l&#xb7;" 
d="M934 715h20q62 0 102 -38.5t40 -96.5q0 -59 -40.5 -97.5t-101.5 -38.5h-20q-58 0 -98.5 40t-40.5 96q0 58 40 96.5t99 38.5zM571 0v1153h-239q-56 0 -56 43q0 41 56 41h323v-1237h-84z" />
    <glyph glyph-name=".notdef" horiz-adv-x="748" 
d="M68 0v1365h544v-1365h-544zM136 68h408v1229h-408v-1229z" />
    <glyph glyph-name=".null" horiz-adv-x="0" 
 />
    <glyph glyph-name="nonmarkingreturn" horiz-adv-x="682" 
 />
    <glyph glyph-name="space" unicode=" " 
 />
    <glyph glyph-name="exclam" unicode="!" 
d="M692 1153l-37 -668q-2 -31 -11.5 -44t-31.5 -13q-38 0 -41 57l-36 668q-3 21 -3 33q0 34 23.5 57t58.5 23q34 0 57 -23t23 -57q0 -17 -2 -33zM600 174h27q46 0 78 -29.5t32 -72.5t-32 -73t-78 -30h-27q-46 0 -77 30t-31 73t31 72.5t77 29.5z" />
    <glyph glyph-name="quotedbl" unicode="&#x22;" 
d="M299 1237h262l-69 -518q-9 -74 -62 -74q-28 0 -42 17.5t-19 56.5zM668 1237h262l-70 -518q-5 -39 -19 -56.5t-42 -17.5q-53 0 -62 74z" />
    <glyph glyph-name="numbersign" unicode="#" 
d="M799 729l-19 -258h164q55 0 55 -41q0 -43 -55 -43h-170l-33 -461q-3 -53 -43 -53q-17 0 -30 14t-11 29l2 16l31 455h-186l-31 -461q-3 -28 -13 -40.5t-30 -12.5q-17 0 -29 12t-12 31v16l33 455h-178q-56 0 -56 43q0 41 56 41h182l18 258h-159q-56 0 -56 43q0 41 56 41
h166l32 461q3 51 43 51q17 0 29.5 -13t11.5 -30l-2 -14l-30 -455h186l33 461q3 51 41 51q44 0 41 -57l-33 -455h182q55 0 55 -41q0 -43 -55 -43h-186zM715 729h-187l-18 -258h186z" />
    <glyph glyph-name="dollar" unicode="$" 
d="M573 1180v106q0 55 43 55q41 0 41 -55v-106q68 -6 112 -24t101 -62q3 59 43 59q41 0 41 -55v-123q0 -55 -41 -55q-20 0 -30 10t-13 35q-7 55 -82.5 96t-169.5 41q-106 0 -181 -62.5t-75 -150.5q0 -39 19.5 -73.5t52.5 -55.5q50 -31 205 -60q113 -22 164.5 -38.5
t93.5 -45.5q100 -68 100 -204q0 -122 -91.5 -203t-248.5 -98v-244q0 -55 -41 -55q-43 0 -43 55v244q-71 3 -144.5 34.5t-113.5 75.5v-33q0 -55 -41 -55q-43 0 -43 55v162q0 56 43 56q20 0 29 -12t12 -40q6 -66 94.5 -115t202.5 -49q131 0 216 62.5t85 159.5q0 96 -77 145
q-35 20 -75 32t-143 32q-98 19 -150.5 35.5t-92.5 41.5q-44 31 -70 83t-26 110q0 111 82.5 192.5t211.5 96.5z" />
    <glyph glyph-name="percent" unicode="%" 
d="M739 483q106 0 179 -74.5t73 -183.5q0 -101 -74.5 -175.5t-175.5 -74.5q-104 0 -178 75t-74 179t73.5 179t176.5 75zM739 406q-71 0 -121.5 -52t-50.5 -125q0 -72 51 -124t123 -52q70 0 121 51.5t51 122.5q0 75 -50.5 127t-123.5 52zM485 1251q106 0 179 -74.5t73 -181.5
q0 -103 -74.5 -177.5t-175.5 -74.5q-104 0 -177.5 74.5t-73.5 179.5q0 104 73 179t176 75zM485 1174q-70 0 -121 -52.5t-51 -124.5t51 -124t123 -52q69 0 120.5 52t51.5 122q0 75 -50.5 127t-123.5 52zM1014 705l-776 -250q-15 -6 -25 -6q-12 0 -23.5 11.5t-11.5 26.5
q0 30 37 41l776 250q16 4 25 4q13 0 24 -12t11 -27q0 -27 -37 -38z" />
    <glyph glyph-name="ampersand" unicode="&#x26;" 
d="M805 0l-64 98q-91 -131 -229 -131q-120 0 -208.5 96.5t-88.5 227.5q0 106 60.5 185.5t166.5 111.5q-69 113 -85.5 150t-16.5 81q0 100 74.5 172t177.5 72q69 0 135 -41l21 12q20 10 32 10q15 0 27 -13t12 -30q0 -25 -33 -43l-65 -32q-62 53 -129 53q-66 0 -117 -50
t-51 -114q0 -36 20 -81t70 -124l227 -362q67 124 95 262h88q55 0 55 -41q0 -43 -55 -43h-25q-48 -174 -108 -258l55 -84h78q55 0 55 -41q0 -43 -55 -43h-119zM692 176l-215 338q-82 -19 -130 -79t-48 -144q0 -97 63 -168.5t148 -71.5q54 0 101 32.5t81 92.5z" />
    <glyph glyph-name="quoteright" unicode="&#x2019;" 
d="M424 1237h272l-297 -543q-15 -29 -29 -40t-34 -11q-25 0 -42.5 17t-17.5 42q0 3 5 23z" />
    <glyph glyph-name="parenleft" unicode="(" 
d="M897 1237q17 0 29 -12t12 -29q0 -7 -6 -22q-205 -363 -205 -682q0 -164 49.5 -327.5t155.5 -354.5q6 -15 6 -23q0 -17 -13 -29t-30 -12q-15 0 -33 20t-53 76q-207 344 -207 656q0 154 58 327t167 342q26 41 40.5 55.5t29.5 14.5z" />
    <glyph glyph-name="parenright" unicode=")" 
d="M344 1237q16 0 34 -19.5t52 -76.5q207 -341 207 -656q0 -154 -58 -327t-167 -342q-26 -41 -40.5 -55.5t-29.5 -14.5q-17 0 -29 12t-12 29q0 8 6 23q205 363 205 682q0 166 -49 328t-156 354q-6 15 -6 22q0 17 13 29t30 12z" />
    <glyph glyph-name="asterisk" unicode="*" 
d="M571 897v285q0 55 43 55q41 0 41 -55v-285l273 88q15 6 30 6t27 -13t12 -28q0 -17 -10 -27t-33 -18l-272 -86l166 -229q14 -25 14 -37q0 -17 -12 -29t-29 -12q-21 0 -41 29l-168 229l-166 -229q-23 -29 -43 -29q-17 0 -29 12t-12 31q0 11 17 35l166 229l-273 86l-8 2
q-12 2 -22.5 14t-10.5 27q0 17 12 29t29 12q6 0 27 -6z" />
    <glyph glyph-name="plus" unicode="+" 
d="M655 535v-414q0 -55 -41 -55q-43 0 -43 55v414h-368q-56 0 -56 43q0 40 56 40h368v412q0 55 43 55q41 0 41 -55v-412h369q57 0 57 -40q0 -43 -57 -43h-369z" />
    <glyph glyph-name="comma" unicode="," 
d="M424 297h272l-297 -543q-15 -29 -29 -40t-34 -11q-25 0 -42.5 17t-17.5 42q0 3 5 23z" />
    <glyph glyph-name="hyphen" unicode="-" 
d="M1026 528h-823q-56 0 -56 43q0 41 56 41h823q55 0 55 -41q0 -43 -55 -43z" />
    <glyph glyph-name="period" unicode="." 
d="M604 238h21q60 0 100.5 -38.5t40.5 -95.5q0 -58 -40.5 -96.5t-100.5 -38.5h-21q-60 0 -100.5 39t-40.5 96t40.5 95.5t100.5 38.5z" />
    <glyph glyph-name="slash" unicode="/" 
d="M987 1296l-670 -1425q-10 -21 -20 -29t-25 -8t-28 12t-13 27q0 14 11 33l669 1425q10 21 20 29t25 8t28 -12t13 -27q0 -13 -10 -33z" />
    <glyph glyph-name="zero" unicode="0" 
d="M997 719v-205q0 -243 -106.5 -394t-276.5 -151t-276.5 151t-106.5 394v205q0 244 106.5 395.5t276.5 151.5t276.5 -151.5t106.5 -395.5zM315 709v-183q0 -98 26.5 -195.5t72.5 -168.5q70 -109 200 -109q131 0 201 109q46 70 72 167.5t26 196.5v183q0 99 -26 196.5
t-72 167.5q-70 109 -201 109q-130 0 -200 -109q-46 -71 -72.5 -168.5t-26.5 -195.5z" />
    <glyph glyph-name="one" unicode="1" 
d="M573 0v1141l-270 -86q-24 -6 -29 -6q-14 0 -26 13t-12 28q0 18 9.5 28t33.5 17l378 118v-1253h-84z" />
    <glyph glyph-name="two" unicode="2" 
d="M979 0h-807v123l483 455q145 141 188.5 204.5t43.5 132.5q0 106 -88 186.5t-205 80.5q-104 0 -189 -61.5t-110 -153.5q-11 -41 -43 -41q-15 0 -27 11.5t-12 25.5q0 28 18.5 69t47.5 78q57 74 139.5 115t175.5 41q150 0 263.5 -106.5t113.5 -246.5q0 -91 -52 -166.5
t-243 -261.5q-264 -261 -424 -395v-6h727v-84z" />
    <glyph glyph-name="three" unicode="3" 
d="M766 672q120 -50 188 -137t68 -191q0 -155 -125.5 -265t-302.5 -110q-147 0 -303 84q-94 48 -94 88q0 15 12 27t27 12q14 0 34 -14q147 -113 326 -113q139 0 240.5 86t101.5 205q0 120 -109 207.5t-258 87.5q-55 0 -55 43q0 41 55 41q81 0 114.5 4t64.5 18
q65 28 104 83.5t39 119.5q0 100 -80 167t-199 67q-86 0 -158 -29t-116 -82q-15 -18 -23 -23.5t-20 -5.5q-17 0 -29 12t-12 27t20 40t52 50q125 95 288 95q153 0 257 -91t104 -225q0 -88 -54.5 -162t-146.5 -112q-2 0 -10 -4z" />
    <glyph glyph-name="four" unicode="4" 
d="M854 0h-84v346h-555v96l467 795h172v-807h70q55 0 55 -43q0 -41 -55 -41h-70v-346zM770 430v723h-49l-426 -723h475z" />
    <glyph glyph-name="five" unicode="5" 
d="M389 1153v-405q148 61 270 61q157 0 260 -112.5t103 -284.5q0 -194 -117.5 -318.5t-300.5 -124.5q-162 0 -313 101q-94 61 -94 98q0 17 12 29t29 12q15 0 34 -19q149 -137 328 -137q151 0 244.5 101t93.5 262q0 137 -81 223t-210 86q-128 0 -258 -68q-33 -16 -45 -16
q-17 0 -28 12.5t-11 32.5v551h578q57 0 57 -41q0 -43 -57 -43h-494z" />
    <glyph glyph-name="six" unicode="6" 
d="M362 496q124 249 340 249q140 0 241 -112t101 -268q0 -166 -102.5 -281t-251.5 -115q-181 0 -296 170t-115 439q0 353 223 542q169 146 375 146q66 0 113.5 -21.5t47.5 -50.5q0 -17 -11 -29t-28 -12q-15 0 -34 12q-34 17 -97 17q-117 0 -229.5 -67.5t-187.5 -182.5
q-93 -147 -93 -348q0 -10 4 -88zM375 385q15 -60 18 -68q41 -129 118 -196.5t181 -67.5q114 0 191.5 90t77.5 222q0 122 -77 209.5t-184 87.5q-57 0 -115 -30.5t-108 -86.5q-22 -24 -42.5 -56.5t-59.5 -103.5z" />
    <glyph glyph-name="seven" unicode="7" 
d="M215 1237h764v-133l-334 -1063q-7 -24 -16.5 -33.5t-24.5 -9.5q-17 0 -29 12t-12 29q0 11 4 27l328 1050v37h-682z" />
    <glyph glyph-name="eight" unicode="8" 
d="M768 641q229 -104 229 -311q0 -149 -112.5 -255t-270.5 -106t-270.5 106t-112.5 255q0 204 230 311q-108 56 -158.5 125t-50.5 162q0 138 107 238t255 100t255.5 -100t107.5 -238q0 -94 -50 -163t-159 -124zM614 1182q-117 0 -197.5 -75t-80.5 -183q0 -101 80.5 -171.5
t197.5 -70.5q116 0 197.5 70t81.5 170q0 109 -81 184.5t-198 75.5zM614 600q-126 0 -212.5 -78t-86.5 -192q0 -115 87 -196t212 -81q123 0 211 80.5t88 194.5q0 117 -85.5 194.5t-213.5 77.5z" />
    <glyph glyph-name="nine" unicode="9" 
d="M961 739q-125 -250 -340 -250q-140 0 -241 112.5t-101 268.5q0 166 102.5 281t251.5 115q181 0 296 -170t115 -439q0 -353 -223 -542q-169 -146 -375 -146q-66 0 -113.5 21.5t-47.5 50.5q0 17 11 29t28 12q15 0 34 -12q34 -17 97 -17q117 0 229.5 67.5t187.5 182.5
q93 147 93 348q0 10 -4 88zM948 850q-15 60 -18 68q-41 129 -118 196.5t-181 67.5q-114 0 -191.5 -90t-77.5 -222q0 -122 77 -209.5t184 -87.5q57 0 115 30.5t108 86.5q22 24 42.5 56.5t59.5 103.5z" />
    <glyph glyph-name="colon" unicode=":" 
d="M604 238h21q60 0 100.5 -38.5t40.5 -95.5q0 -58 -40.5 -96.5t-100.5 -38.5h-21q-60 0 -100.5 39t-40.5 96t40.5 95.5t100.5 38.5zM604 854h21q60 0 100.5 -39t40.5 -96t-40.5 -96t-100.5 -39h-21q-60 0 -100.5 39t-40.5 96t40.5 96t100.5 39z" />
    <glyph glyph-name="semicolon" unicode=";" 
d="M432 297h273l-297 -543q-15 -29 -29 -40t-35 -11q-25 0 -42 17t-17 42q0 7 4 23zM555 854h20q60 0 101 -39t41 -96t-41 -96t-101 -39h-20q-60 0 -100.5 39t-40.5 96t40.5 96t100.5 39z" />
    <glyph glyph-name="less" unicode="&#x3c;" 
d="M147 575l857 476q17 10 24 10q19 0 33 -21l2 -6q6 -9 6 -18q0 -22 -27 -37l-727 -404l727 -403q27 -15 27 -35q0 -11 -6 -20l-4 -6q-11 -21 -31 -21q-10 0 -27 10z" />
    <glyph glyph-name="equal" unicode="=" 
d="M1069 684h-909q-56 0 -56 43q0 41 56 41h909q55 0 55 -41q0 -43 -55 -43zM1069 389h-909q-56 0 -56 43q0 41 56 41h909q55 0 55 -41q0 -43 -55 -43z" />
    <glyph glyph-name="greater" unicode="&#x3e;" 
d="M1081 575l-856 -475q-17 -10 -24 -10q-23 0 -33 21l-2 6q-6 9 -6 20q0 21 26 35l727 403l-727 404q-26 14 -26 37q0 9 6 18l4 6q10 21 31 21q9 0 26 -10z" />
    <glyph glyph-name="question" unicode="?" 
d="M659 506v-84q0 -55 -41 -55q-43 0 -43 55v139q179 75 258.5 146.5t79.5 158.5q0 101 -81.5 166.5t-208.5 65.5q-70 0 -128 -15.5t-137 -54.5v-84q0 -55 -41 -55q-43 0 -43 55v139q10 3 32 13t28 12q97 43 159.5 58.5t139.5 15.5q163 0 263.5 -87.5t100.5 -228.5
q0 -114 -73 -191.5t-265 -168.5zM588 174h55q52 0 84.5 -28t32.5 -74q0 -45 -32.5 -74t-84.5 -29h-55q-52 0 -84.5 28.5t-32.5 74.5t32.5 74t84.5 28z" />
    <glyph glyph-name="at" unicode="@" 
d="M856 297v10q-62 -6 -82 -6q-120 0 -199 73.5t-79 182.5q0 129 102 212.5t258 82.5v96q0 107 -68 176.5t-172 69.5q-139 0 -228 -129t-89 -332v-327q0 -187 96 -332q80 -117 230 -117q66 0 124.5 16.5t90.5 44.5q31 22 39 23q17 0 29 -12t12 -27q0 -47 -97 -88t-211 -41
q-92 0 -161 37.5t-125 116.5q-111 159 -111 379v333q0 233 113 386t286 153q139 0 232.5 -94.5t93.5 -235.5v-567q39 -6 39 -41q0 -43 -55 -43h-68zM856 393v377q-120 0 -198 -59.5t-78 -151.5q0 -77 55.5 -125.5t144.5 -48.5q43 0 76 8z" />
    <glyph glyph-name="A" unicode="A" 
d="M106 0l431 1153h139l434 -1153h-88l-145 385h-545l-142 -385h-84zM846 469l-230 600h-30l-221 -600h481z" />
    <glyph glyph-name="B" unicode="B" 
d="M254 0v1153h418q149 0 249.5 -85.5t100.5 -211.5q0 -78 -41.5 -137.5t-132.5 -108.5q260 -92 260 -297q0 -129 -99.5 -221t-238.5 -92h-516zM338 641h301q131 0 215 61t84 156q0 89 -76 150t-188 61h-336v-428zM338 84h426q109 0 184.5 67t75.5 162q0 56 -32 106.5
t-89 84.5q-49 29 -107.5 41t-152.5 12h-305v-473z" />
    <glyph glyph-name="C" unicode="C" 
d="M1063 868q0 -55 -43 -55q-38 0 -41 49q-6 94 -112 164t-242 70q-170 0 -291 -130t-121 -313v-145q0 -121 60.5 -226.5t163.5 -168t222 -62.5q106 0 190 43.5t167 141.5q18 20 37 20t30 -11t11 -28q0 -32 -78 -104q-155 -146 -357 -146q-102 0 -200 44t-170 116.5
t-116 170t-44 198.5v170q0 94 39.5 193t105.5 169q143 152 351 152q44 0 92.5 -8.5t104.5 -30.5t103 -55.5t85 -90t53 -127.5z" />
    <glyph glyph-name="D" unicode="D" 
d="M596 0h-383v1153h381h8q195 -3 329 -153t134 -365v-115q0 -143 -61.5 -262.5t-169.5 -188.5t-238 -69zM297 84h307q96 0 184 59t140.5 156t52.5 203v149q0 82 -36 167.5t-97 148.5q-54 54 -114.5 78t-143.5 24h-293v-985z" />
    <glyph glyph-name="E" unicode="E" 
d="M1022 1069h-684v-428h381v-84h-381v-473h727v-84h-811v1153h768v-84z" />
    <glyph glyph-name="F" unicode="F" 
d="M1065 1069h-727v-428h383v-84h-383v-557h-84v1153h811v-84z" />
    <glyph glyph-name="G" unicode="G" 
d="M981 428h-285v84h369v-438q-185 -107 -383 -107q-252 0 -402.5 145t-150.5 388v151q0 109 45 216t121 180q142 133 346 133q45 0 92 -6t103 -24.5t101 -47t80.5 -78t47.5 -113.5q0 -55 -41 -55q-38 0 -41 51q-6 78 -104 133.5t-234 55.5q-171 0 -285 -111
q-67 -63 -107 -154t-40 -182v-149q0 -209 127 -329t348 -120q80 0 143.5 15t149.5 55v307z" />
    <glyph glyph-name="H" unicode="H" 
d="M342 1153v-512h553v512h84v-1153h-84v557h-553v-557h-84v1153h84z" />
    <glyph glyph-name="I" unicode="I" 
d="M571 1153h84v-1153h-84v1153z" />
    <glyph glyph-name="J" unicode="J" 
d="M256 190q154 -139 303 -139q125 0 212 83.5t87 203.5v815h84v-815q0 -152 -113.5 -261.5t-271.5 -109.5q-98 0 -186 42.5t-199 142.5z" />
    <glyph glyph-name="K" unicode="K" 
d="M1036 0h-98q-77 213 -138 329.5t-128.5 178.5t-167.5 94l-166 -149v-453h-84v1153h84v-594l668 594h116l-549 -489q80 -33 129.5 -68t103.5 -109.5t104.5 -184.5t125.5 -302z" />
    <glyph glyph-name="L" unicode="L" 
d="M1108 84v-84h-727v1153h84v-1069h643z" />
    <glyph glyph-name="M" unicode="M" 
d="M1090 0h-84v1069h-17l-321 -723h-95l-325 723h-17v-1069h-84v1153h152l322 -713l315 713h154v-1153z" />
    <glyph glyph-name="N" unicode="N" 
d="M211 0v1153h106l625 -1032v1032h84v-1153h-106l-625 1032v-1032h-84z" />
    <glyph glyph-name="O" unicode="O" 
d="M614 1180q142 0 259 -80.5t184 -221.5t67 -313q0 -162 -68.5 -300t-186 -218t-255.5 -80q-140 0 -257.5 80.5t-185 220t-67.5 305.5t67.5 306t185 220.5t257.5 80.5zM614 1096q-116 0 -214 -70.5t-155 -191t-57 -261.5t57.5 -261.5t155.5 -190.5t213 -70q114 0 212 70
t156 189t58 257q0 221 -124 375t-302 154z" />
    <glyph glyph-name="P" unicode="P" 
d="M254 0v1153h381q163 0 275 -98t112 -240q0 -143 -121 -242.5t-295 -99.5h-268v-473h-84zM338 557h274q134 0 230 76t96 182q0 104 -87 179t-208 75h-305v-512z" />
    <glyph glyph-name="Q" unicode="Q" 
d="M625 -33l-111 -82q86 17 137 17q86 0 168 -31q63 -23 92 -23q56 0 142 56q11 8 24 8q17 0 29 -12t12 -31q0 -31 -74.5 -68t-138.5 -37q-34 0 -114 27q-74 27 -140 27q-46 0 -133.5 -14t-152.5 -33q-16 -4 -21 -4q-17 0 -29 12t-12 31q0 20 23 36l184 134
q-115 25 -208 111t-145.5 212.5t-52.5 269.5q0 166 67.5 306t185 220.5t257.5 80.5t257.5 -80.5t185 -220.5t67.5 -306t-65.5 -303.5t-180 -218t-253.5 -84.5zM614 1096q-116 0 -214 -70.5t-155 -191t-57 -261.5t57.5 -261.5t155.5 -190.5t213 -70q114 0 212 70t156 189
t58 257q0 221 -124 375t-302 154z" />
    <glyph glyph-name="R" unicode="R" 
d="M1133 0h-99q-135 250 -222 355t-204 159h-270v-514h-84v1153h397q149 0 259 -95t110 -224q0 -198 -285 -297q69 -47 117.5 -98.5t113.5 -151.5t167 -287zM338 598h233q151 0 258 70t107 168q0 92 -87 162.5t-198 70.5h-313v-471z" />
    <glyph glyph-name="S" unicode="S" 
d="M188 285q0 55 43 55q38 0 41 -49q4 -101 104 -170.5t240 -69.5q143 0 238.5 74.5t95.5 187.5q0 54 -24.5 100t-67.5 72q-36 24 -81.5 37.5t-155.5 32.5q-109 19 -171.5 40t-107.5 54q-51 35 -78.5 91.5t-27.5 121.5q0 135 107.5 226.5t268.5 91.5q93 0 170 -30.5
t121.5 -77t68 -95t23.5 -90.5q0 -56 -41 -56q-40 0 -43 50q-6 92 -89.5 153.5t-203.5 61.5q-126 0 -209 -67.5t-83 -168.5q0 -100 80 -155q40 -27 88.5 -42t142.5 -30q120 -21 175.5 -37t100.5 -45q60 -37 93.5 -100.5t33.5 -141.5q0 -149 -119 -245.5t-303 -96.5
q-111 0 -211.5 47t-159.5 120.5t-59 150.5z" />
    <glyph glyph-name="T" unicode="T" 
d="M147 1153h934v-84h-424v-1069h-84v1069h-426v84z" />
    <glyph glyph-name="U" unicode="U" 
d="M1022 1153v-774q0 -174 -118 -293t-290 -119q-173 0 -290 118.5t-117 293.5v774h84v-774q0 -138 93.5 -233t229.5 -95q135 0 229.5 95t94.5 233v774h84z" />
    <glyph glyph-name="V" unicode="V" 
d="M1124 1153l-460 -1153h-117l-443 1153h89l413 -1069h6l428 1069h84z" />
    <glyph glyph-name="W" unicode="W" 
d="M1112 1153l-137 -1153h-131l-230 819l-235 -819h-129l-133 1153h84l125 -1059l229 803h127l223 -803l127 1059h80z" />
    <glyph glyph-name="X" unicode="X" 
d="M1122 0h-108l-404 522l-401 -522h-103l451 590l-432 563h106l383 -496l377 496h107l-432 -563z" />
    <glyph glyph-name="Y" unicode="Y" 
d="M152 1153h100l369 -549l360 549h94l-416 -633v-520h-84v520z" />
    <glyph glyph-name="Z" unicode="Z" 
d="M248 1153h715v-119l-672 -942v-8h727v-84h-807v121l672 942v6h-635v84z" />
    <glyph glyph-name="bracketleft" unicode="[" 
d="M657 1153v-1323h199q55 0 55 -41q0 -43 -55 -43h-283v1491h283q55 0 55 -41q0 -43 -55 -43h-199z" />
    <glyph glyph-name="backslash" unicode="\" 
d="M317 1331l670 -1425q10 -18 10 -33t-13 -27t-28 -12t-25 8t-20 29l-669 1425q-11 22 -11 33q0 15 13 27t30 12q25 0 43 -37z" />
    <glyph glyph-name="bracketright" unicode="]" 
d="M571 -170v1323h-198q-56 0 -56 41q0 43 56 43h282v-1491h-282q-56 0 -56 41q0 43 56 43h198z" />
    <glyph glyph-name="asciicircum" unicode="^" 
d="M614 1260l365 -457q18 -21 18 -37q0 -17 -12 -29t-29 -12q-22 0 -41 27l-301 378l-301 -378q-19 -27 -41 -27q-17 0 -29 12t-12 29q0 15 19 37z" />
    <glyph glyph-name="underscore" unicode="_" 
d="M1253 -154v-102h-1278v102h1278z" />
    <glyph glyph-name="quoteleft" unicode="&#x2018;" 
d="M805 1237l143 -461q4 -12 4 -20q0 -22 -17 -38t-42 -16q-38 0 -64 46l-297 489h273z" />
    <glyph glyph-name="a" unicode="a" 
d="M858 0v137q-182 -170 -391 -170q-143 0 -231.5 72.5t-88.5 189.5q0 133 120.5 216t312.5 83q70 0 128.5 -9t149.5 -34v146q0 75 -70 121.5t-182 46.5q-55 0 -112 -12.5t-179 -49.5q-16 -4 -20 -4q-15 0 -27 12t-12 29q0 31 35 43q85 29 174.5 47.5t146.5 18.5
q142 0 236 -71.5t94 -180.5v-631h-84zM858 229v185q-123 30 -262 30q-163 0 -264 -60t-101 -157q0 -80 64 -128t170 -48q109 0 200 41t193 137z" />
    <glyph glyph-name="b" unicode="b" 
d="M295 0h-84v1237h84v-565q77 109 166 160t203 51q187 0 315.5 -131t128.5 -322q0 -192 -130 -327.5t-314 -135.5q-226 0 -369 213v-180zM659 799q-152 0 -258 -109t-106 -264q0 -156 106 -265.5t258 -109.5q149 0 257 109t108 260q0 160 -105.5 269.5t-259.5 109.5z" />
    <glyph glyph-name="c" unicode="c" 
d="M1047 610q0 -55 -41 -55q-20 0 -30 11.5t-13 37.5q-6 82 -101.5 138.5t-224.5 56.5q-169 0 -275 -105t-106 -274q0 -161 107 -265t274 -104q223 0 383 148q20 20 37 20q15 0 27 -12t12 -27q0 -40 -88 -100q-163 -113 -375 -113q-201 0 -331 127t-130 324q0 203 133 334
t338 131q54 0 111 -12t120 -40t110.5 -85t62.5 -136z" />
    <glyph glyph-name="d" unicode="d" 
d="M944 0v182q-144 -215 -373 -215q-120 0 -222 62t-161 167.5t-59 229.5q0 189 129.5 323t312.5 134q226 0 373 -213v567h84v-1237h-84zM578 799q-152 0 -258.5 -109t-106.5 -264q0 -157 106.5 -266t260.5 -109q151 0 257.5 108.5t106.5 262.5q0 160 -105.5 268.5
t-260.5 108.5z" />
    <glyph glyph-name="e" unicode="e" 
d="M1065 408h-852q22 -161 135 -259t279 -98q96 0 196.5 31t161.5 80q20 14 33 14q15 0 27 -12t12 -29q0 -35 -68.5 -75t-171 -66.5t-192.5 -26.5q-207 0 -351.5 139t-144.5 338q0 186 135 312.5t332 126.5q147 0 262.5 -73.5t171.5 -201.5q22 -50 28.5 -89.5t6.5 -110.5z
M213 492h766q-25 139 -129.5 223t-253.5 84t-252 -83t-131 -224z" />
    <glyph glyph-name="f" unicode="f" 
d="M471 0v770h-180q-55 0 -55 43q0 41 55 41h180v125q0 113 88.5 185.5t226.5 72.5q136 0 285 -27q37 -9 37 -41q0 -19 -12 -30t-31 -11q-1 0 -8 1l-94 12q-110 12 -181 12q-101 0 -164 -48.5t-63 -125.5v-125h387q55 0 55 -41q0 -43 -55 -43h-387v-770h-84z" />
    <glyph glyph-name="g" unicode="g" 
d="M901 854h84v-911q0 -118 -88 -213q-105 -111 -250 -111h-233q-56 0 -56 43q0 41 56 41h237q104 0 177 74t73 178v264q-69 -102 -154.5 -150.5t-195.5 -48.5q-173 0 -297.5 127.5t-124.5 305.5t124 304t298 126q112 0 196.5 -48t153.5 -151v170zM557 799
q-145 0 -244.5 -100.5t-99.5 -245.5q0 -146 100.5 -247.5t243.5 -101.5q142 0 243 101t101 244q0 149 -99 249.5t-245 100.5z" />
    <glyph glyph-name="h" unicode="h" 
d="M338 1237v-526q78 94 149.5 133t165.5 39q142 0 234 -81t92 -206v-596h-84v590q0 92 -78 155q-36 30 -74.5 42t-99.5 12q-86 0 -142.5 -33.5t-140.5 -132.5l-22 -27v-606h-84v1237h84z" />
    <glyph glyph-name="i" unicode="i" 
d="M571 0v770h-241q-56 0 -56 43q0 41 56 41h325v-854h-84zM651 1278v-213h-121v213h121z" />
    <glyph glyph-name="j" unicode="j" 
d="M854 770h-494q-55 0 -55 43q0 41 55 41h578v-911q0 -143 -89 -233.5t-228 -90.5h-265q-55 0 -55 43q0 41 55 41h262q102 0 169 68t67 172v827zM848 1278v-213h-121v213h121z" />
    <glyph glyph-name="k" unicode="k" 
d="M295 0v1237h84v-768l455 385h124l-421 -352l507 -502h-118l-453 449l-94 -80v-369h-84z" />
    <glyph glyph-name="l" unicode="l" 
d="M571 0v1153h-239q-56 0 -56 43q0 41 56 41h323v-1237h-84z" />
    <glyph glyph-name="m" unicode="m" 
d="M1090 0h-82v653q0 58 -41 102t-95 44q-55 0 -104.5 -39t-108.5 -129v-631h-81v647q0 60 -40.5 106t-93.5 46q-54 0 -105 -40t-110 -128v-631h-82v854h82v-106q52 73 101 104t114 31q132 0 199 -146q61 77 115 111.5t116 34.5q89 0 152.5 -65t63.5 -156v-662z" />
    <glyph glyph-name="n" unicode="n" 
d="M342 854v-141q89 98 157 134t163 36q136 0 228.5 -80t92.5 -199v-604h-84v590q0 89 -78 155q-37 31 -72.5 42.5t-95.5 11.5q-112 0 -194 -68q-38 -28 -117 -129v-602h-84v854h84z" />
    <glyph glyph-name="o" unicode="o" 
d="M614 883q197 0 332 -134t135 -329q0 -123 -62.5 -227.5t-170 -165t-234.5 -60.5q-195 0 -331 133.5t-136 325.5q0 189 136 323t331 134zM614 799q-160 0 -271.5 -109t-111.5 -264q0 -157 111.5 -266t271.5 -109q158 0 270.5 108.5t112.5 260.5q0 161 -110.5 270
t-272.5 109z" />
    <glyph glyph-name="p" unicode="p" 
d="M211 -381v1235h84v-168q82 106 166 151.5t201 45.5q190 0 318 -123.5t128 -306.5t-128.5 -308t-317.5 -125q-118 0 -207 48t-160 149v-598h-84zM659 799q-152 0 -258 -100.5t-106 -245.5q0 -146 106 -247.5t258 -101.5q151 0 258 101.5t107 243.5q0 149 -105 249.5
t-260 100.5z" />
    <glyph glyph-name="q" unicode="q" 
d="M1028 854v-1235h-84v598q-71 -101 -160 -149t-209 -48q-189 0 -317.5 125t-128.5 308t129 306.5t320 123.5q118 0 206 -47.5t160 -149.5v168h84zM578 799q-154 0 -259.5 -100t-105.5 -246t105.5 -247.5t259.5 -101.5q152 0 259 101t107 244q0 149 -105.5 249.5
t-260.5 100.5z" />
    <glyph glyph-name="r" unicode="r" 
d="M508 854v-209q142 128 229 178.5t166 50.5q84 0 158 -63q47 -39 47 -63q0 -19 -12 -31t-31 -12q-17 0 -33 16q-73 70 -135 70q-69 0 -144.5 -49.5t-244.5 -204.5v-537h-84v854h84z" />
    <glyph glyph-name="s" unicode="s" 
d="M254 281q18 0 29.5 -12.5t11.5 -32.5v-15q0 -70 92 -120t223 -50q135 0 225.5 53.5t90.5 135.5q0 35 -24.5 70.5t-65.5 58.5q-71 39 -222 55q-114 12 -168.5 25.5t-97.5 39.5q-43 28 -68.5 71.5t-25.5 90.5q0 100 99.5 166t250.5 66q159 0 266 -80q46 -34 71 -75t27 -75
q0 -1 0.5 -2t0.5 -2q0 -46 -41 -49q-37 0 -43 47q-8 69 -82 110.5t-191 41.5q-114 0 -190 -44t-76 -110q0 -54 66 -92q35 -22 70 -30t167 -21q173 -19 266 -80q48 -33 75.5 -81.5t27.5 -102.5q0 -117 -114.5 -194t-287.5 -77q-196 0 -317 103q-82 70 -88 152v8q0 51 43 51z
" />
    <glyph glyph-name="t" unicode="t" 
d="M381 854h450q56 0 56 -41q0 -43 -56 -43h-450v-547q0 -78 62 -125t167 -47q86 0 183 23.5t157 58.5q19 12 33 12q15 0 27 -13t12 -28q0 -29 -65 -61.5t-161.5 -54t-181.5 -21.5q-145 0 -231 68.5t-86 183.5v551h-152q-57 0 -57 43q0 41 57 41h152v244q0 55 43 55
q22 0 31.5 -13t9.5 -42v-244z" />
    <glyph glyph-name="u" unicode="u" 
d="M983 854v-854h-84v135q-171 -168 -373 -168q-123 0 -197.5 73.5t-74.5 195.5v618h84v-618q0 -77 54 -131t132 -54q205 0 375 185v618h84z" />
    <glyph glyph-name="v" unicode="v" 
d="M1065 854l-377 -854h-143l-381 854h92l344 -770h39l338 770h88z" />
    <glyph glyph-name="w" unicode="w" 
d="M1092 854l-189 -854h-102l-187 530l-182 -530h-104l-193 854h82l166 -739l176 522h105l182 -522l160 739h86z" />
    <glyph glyph-name="x" unicode="x" 
d="M254 854l360 -350l369 350h113l-422 -405l465 -449h-119l-406 389l-409 -389h-115l465 449l-420 405h119z" />
    <glyph glyph-name="y" unicode="y" 
d="M1081 854l-606 -1235h-84l187 381l-426 854h96l377 -762l370 762h86z" />
    <glyph glyph-name="z" unicode="z" 
d="M1001 0h-765v74l616 696h-598v84h717v-74l-621 -696h651v-84z" />
    <glyph glyph-name="braceleft" unicode="{" 
d="M659 1022v-354q0 -63 -19.5 -101t-70.5 -75q51 -37 70.5 -75.5t19.5 -101.5v-354q0 -53 32 -90t81 -41q30 -3 41.5 -12.5t11.5 -30.5q0 -19 -13 -30t-36 -11q-85 0 -143 62t-58 153v354q0 56 -33.5 93t-88.5 41q-50 3 -50 43t50 43q56 5 89 40.5t33 92.5v354q0 91 58 153
t143 62q23 0 36 -11t13 -30q0 -21 -11.5 -30.5t-41.5 -12.5q-49 -4 -81 -41t-32 -90z" />
    <glyph glyph-name="bar" unicode="|" 
d="M655 1182v-1381q0 -55 -41 -55t-41 55v1381q0 55 41 55t41 -55z" />
    <glyph glyph-name="braceright" unicode="}" 
d="M569 -39v354q0 63 19.5 101.5t70.5 75.5q-51 37 -70.5 75t-19.5 101v354q0 53 -31.5 90t-80.5 41q-30 3 -42 12.5t-12 30.5q0 19 13.5 30t36.5 11q85 0 142.5 -62t57.5 -153v-354q0 -56 34 -92.5t89 -40.5q49 -3 49 -43t-49 -43q-56 -5 -89.5 -41t-33.5 -93v-354
q0 -91 -57.5 -153t-142.5 -62q-23 0 -36.5 11t-13.5 30q0 21 12 30.5t42 12.5q49 4 80.5 41t31.5 90z" />
    <glyph glyph-name="asciitilde" unicode="~" 
d="M999 676q17 0 29 -12t12 -27q0 -22 -51 -82q-101 -121 -192 -121q-50 0 -95.5 25.5t-142.5 107.5q-77 62 -125 62q-40 0 -69.5 -23.5t-96.5 -109.5q-19 -25 -41 -25q-15 0 -27 12t-12 27q0 26 58 92q53 61 95 86t93 25q49 0 85.5 -19t121.5 -86q67 -55 96 -72.5t54 -17.5
q73 0 149 107q23 33 33.5 42t25.5 9z" />
    <glyph glyph-name="exclamdown" unicode="&#xa1;" 
d="M537 -330l36 668q2 31 11.5 44t31.5 13q38 0 41 -57l37 -668q2 -14 2 -32q0 -34 -23.5 -57t-58.5 -23q-34 0 -56.5 23t-22.5 57q0 16 2 32zM629 649h-27q-46 0 -78 30t-32 73t32 72.5t78 29.5h27q46 0 77 -29.5t31 -72.5t-31 -73t-77 -30z" />
    <glyph glyph-name="cent" unicode="&#xa2;" 
d="M573 1016v219q0 55 43 55q41 0 41 -55v-217q59 0 117 -20t96 -54q9 35 41 35q43 0 43 -51v-125q0 -58 -41 -58q-35 0 -41 48q-9 66 -73 105.5t-162 39.5q-140 0 -231 -84.5t-91 -216.5q0 -129 89.5 -214t224.5 -85q150 0 256 86q21 16 37 16q17 0 28 -11t11 -30
q0 -27 -47 -58.5t-119 -54.5t-138 -26v-231q0 -56 -41 -56q-43 0 -43 56v231q-149 17 -245.5 124t-96.5 253q0 95 44 176.5t122 134.5q69 46 176 68z" />
    <glyph glyph-name="sterling" unicode="&#xa3;" 
d="M373 84h516q39 0 64 27.5t28 76.5q6 48 43 48q19 0 30 -13t11 -33q0 -78 -50.5 -134t-121.5 -56h-662q-55 0 -55 43q0 18 12 28.5t33 10.5q72 3 128.5 115.5t56.5 253.5q0 47 -9 108h-213q-55 0 -55 43q0 41 55 41h193q-55 173 -55 248q0 122 84 207.5t204 85.5
q112 0 201 -80q63 -57 63 -90q0 -13 -13 -26t-27 -13q-18 0 -37 24q-82 101 -185 101q-83 0 -144.5 -62t-61.5 -147q0 -36 8.5 -75.5t38.5 -143.5q1 -1 2 -5t2.5 -11.5t3.5 -12.5h203q55 0 55 -43q0 -41 -55 -41h-185q10 -72 10 -117q0 -215 -116 -358z" />
    <glyph glyph-name="fraction" unicode="&#x2044;" 
d="M1094 881l-916 -582l-8 -6q-13 -10 -27 -10q-15 0 -28 13t-13 30q0 24 31 43l916 581q19 13 34 13t28 -13t13 -28q0 -24 -30 -41z" />
    <glyph glyph-name="yen" unicode="&#xa5;" 
d="M250 1153l364 -549l366 549h96l-392 -590h242q24 0 33.5 -8t9.5 -29q0 -22 -9 -30.5t-34 -8.5h-269v-122h269q23 0 33 -8.5t10 -28.5q0 -22 -10 -30.5t-33 -8.5h-269v-289h-84v289h-266q-25 0 -35 8.5t-10 30.5q0 20 10 28.5t35 8.5h266v122h-266q-25 0 -35 8.5t-10 30.5
q0 21 9.5 29t35.5 8h238l-391 590h96z" />
    <glyph glyph-name="florin" unicode="&#x192;" 
d="M657 768h197q55 0 55 -41q0 -43 -55 -43h-197v-565q0 -129 -87.5 -219t-213.5 -90q-87 0 -153 32q-25 12 -25 37q0 17 11 29t26 12q8 0 66 -16q27 -10 77 -10q94 0 154.5 66.5t60.5 170.5v553h-196q-55 0 -55 43q0 41 55 41h196v178q0 134 90 227t220 93q86 0 149 -29
q29 -12 29 -37q0 -17 -12 -29t-27 -12q-6 0 -51 12q-33 11 -80 11q-104 0 -169 -66t-65 -170v-178z" />
    <glyph glyph-name="section" unicode="&#xa7;" 
d="M215 -45h422q81 0 135.5 44.5t54.5 109.5q0 54 -60 110t-208 139l-133 74q-150 85 -220.5 157.5t-70.5 143.5q0 69 58 116t153 54q-27 47 -27 94q0 97 78.5 167.5t184.5 70.5h434v-82h-428q-75 0 -131 -46.5t-56 -109.5q0 -57 61.5 -110t244.5 -154l114 -63
q144 -78 208.5 -147t64.5 -144q0 -79 -74 -131q-47 -31 -135 -41q26 -45 26 -101q0 -100 -77.5 -166.5t-194.5 -66.5h-424v82zM786 594l-131 74q-100 55 -151 88t-92 69q-12 -2 -37 -2q-65 0 -108.5 -26t-43.5 -66q0 -88 256 -233l127 -72q163 -91 213 -141q8 4 37 6
q69 2 109.5 25t40.5 61q0 44 -60 103.5t-160 113.5z" />
    <glyph glyph-name="currency" unicode="&#xa4;" 
d="M408 332l-117 -115q-20 -22 -37 -22q-19 0 -31 12t-12 29q0 18 22 40l115 115q-72 97 -72 207q0 120 70 209l-113 115q-22 20 -22 39q0 17 12 28.5t29 11.5t39 -22l115 -113q90 72 208 72t209 -72l113 113q22 22 41 22q17 0 29 -12t12 -31q0 -10 -3.5 -16t-17.5 -20
l-112 -115q69 -97 69 -207q0 -120 -71 -209l112 -115q21 -21 21 -40q0 -17 -12 -29t-29 -12q-20 0 -39 22l-115 115q-97 -72 -207 -72q-113 0 -206 72zM614 854q-104 0 -179 -75t-75 -179q0 -106 75 -181t179 -75q103 0 178.5 74.5t75.5 177.5q0 107 -74 182.5t-180 75.5z
" />
    <glyph glyph-name="quotesingle" unicode="'" 
d="M483 1237h262l-69 -518q-9 -74 -62 -74q-28 0 -42 17.5t-19 56.5z" />
    <glyph glyph-name="quotedblleft" unicode="&#x201c;" 
d="M891 1237l143 -461q4 -12 4 -20q0 -22 -17 -38t-42 -16q-39 0 -64 46l-280 489h256zM446 1237l144 -461q4 -12 4 -20q0 -22 -17 -38t-42 -16q-39 0 -64 46l-281 489h256z" />
    <glyph glyph-name="guillemotleft" unicode="&#xab;" 
d="M129 428l426 403q23 23 43 23q17 0 29 -12t12 -29q0 -15 -23 -41l-292 -344l292 -346q23 -26 23 -41q0 -17 -12 -29t-29 -12t-43 23zM598 428l426 403q23 23 43 23q17 0 29 -12t12 -29q0 -15 -23 -41l-292 -344l292 -346q23 -26 23 -41q0 -17 -12 -29t-29 -12t-43 23z
" />
    <glyph glyph-name="guilsinglleft" unicode="&#x2039;" 
d="M129 428l426 403q23 23 43 23q17 0 29 -12t12 -29q0 -15 -23 -41l-292 -344l292 -346q23 -26 23 -41q0 -17 -12 -29t-29 -12t-43 23z" />
    <glyph glyph-name="guilsinglright" unicode="&#x203a;" 
d="M1108 426l-424 -403q-23 -23 -43 -23q-17 0 -29 12t-12 29q0 15 23 41l290 344l-290 346q-23 26 -23 41q0 17 12 29t29 12t43 -23z" />
    <glyph glyph-name="endash" unicode="&#x2013;" 
d="M1026 535h-823q-56 0 -56 43q0 40 56 40h823q55 0 55 -40q0 -43 -55 -43z" />
    <glyph glyph-name="dagger" unicode="&#x2020;" 
d="M655 770v-844q0 -55 -41 -55q-43 0 -43 55v844h-262q-55 0 -55 41q0 24 20 37q2 2 21 6q8 0 14 2h262v326q0 55 43 55q41 0 41 -55v-328h263q57 0 57 -43q0 -41 -57 -41h-263z" />
    <glyph glyph-name="daggerdbl" unicode="&#x2021;" 
d="M655 770v-432h263q57 0 57 -41q0 -43 -57 -43h-263v-326q0 -55 -41 -55q-43 0 -43 55v326h-262q-55 0 -55 43q0 41 55 41h262v432h-262q-55 0 -55 41q0 24 20 37q2 2 21 6q8 0 14 2h262v326q0 55 43 55q41 0 41 -55v-328h263q57 0 57 -43q0 -41 -57 -41h-263z" />
    <glyph glyph-name="periodcentered" unicode="&#xb7;" 
d="M604 713h21q60 0 100.5 -38t40.5 -95q0 -58 -40.5 -97t-100.5 -39h-21q-60 0 -100.5 39.5t-40.5 96.5t40.5 95t100.5 38z" />
    <glyph glyph-name="paragraph" unicode="&#xb6;" 
d="M895 -127q-49 -1 -73 -1h-13q1 1 4 1v1280h-147v-1280l4 -1h-14l-74 1v659q-134 8 -228 50q-89 40 -140.5 107t-51.5 142v97q0 138 124 223.5t324 85.5h410q51 0 51 -41q0 -43 -51 -43h-125v-1280zM582 629v514q-119 -12 -198 -74.5t-79 -144.5v-76q0 -82 79 -144.5
t198 -74.5z" />
    <glyph glyph-name="bullet" unicode="&#x2022;" 
d="M618 690q80 0 138.5 -59.5t58.5 -141.5q0 -83 -59 -141.5t-142 -58.5t-141.5 59t-58.5 144q0 83 59 140.5t145 57.5z" />
    <glyph glyph-name="quotesinglbase" unicode="&#x201a;" 
d="M424 297h272l-297 -543q-15 -29 -29 -40t-34 -11q-25 0 -42.5 17t-17.5 42q0 3 5 23z" />
    <glyph glyph-name="quotedblbase" unicode="&#x201e;" 
d="M338 297h256l-281 -490q-25 -45 -63 -45q-25 0 -42.5 16t-17.5 38q0 5 5 20zM782 297h256l-280 -490q-25 -45 -64 -45q-25 0 -42 16t-17 38q0 8 4 20z" />
    <glyph glyph-name="quotedblright" unicode="&#x201d;" 
d="M338 1237h256l-281 -489q-25 -46 -63 -46q-25 0 -42.5 16t-17.5 38q0 5 5 20zM782 1237h256l-280 -489q-25 -46 -64 -46q-25 0 -42 16t-17 38q0 8 4 20z" />
    <glyph glyph-name="guillemotright" unicode="&#xbb;" 
d="M637 426l-424 -403q-23 -23 -43 -23q-17 0 -29 12t-12 29q0 15 23 41l290 344l-290 346q-23 26 -23 41q0 17 12 29t29 12t43 -23zM1108 426l-424 -403q-23 -23 -43 -23q-17 0 -29 12t-12 29q0 15 23 41l290 344l-290 346q-23 26 -23 41q0 17 12 29t29 12t43 -23z" />
    <glyph glyph-name="ellipsis" unicode="&#x2026;" 
d="M205 172q43 0 72.5 -29.5t29.5 -72.5q0 -41 -30 -71t-70 -30q-43 0 -73 30t-30 71q0 42 30 72t71 30zM612 172q43 0 73 -29.5t30 -72.5q0 -41 -31 -71t-72 -30t-70.5 30t-29.5 71t29.5 71.5t70.5 30.5zM1024 172q41 0 70.5 -29.5t29.5 -72.5q0 -41 -30 -71t-70 -30
q-43 0 -72.5 30t-29.5 73q0 41 30.5 70.5t71.5 29.5z" />
    <glyph glyph-name="perthousand" unicode="&#x2030;" 
d="M295 1257q94 0 159.5 -67t65.5 -164q0 -92 -66.5 -158.5t-158.5 -66.5q-93 0 -159 67t-66 162q0 94 66.5 160.5t158.5 66.5zM295 1188q-64 0 -110 -46.5t-46 -111.5q0 -66 46 -113t110 -47t110 46.5t46 111.5q0 68 -45 114t-111 46zM1016 795l-766 -250q-16 -4 -23 -4
q-11 0 -20.5 10t-9.5 22q0 27 32 35l766 250q16 4 23 4q12 0 21.5 -10.5t9.5 -22.5q0 -25 -33 -34zM373 438q94 0 159.5 -67t65.5 -164q0 -92 -66.5 -158.5t-158.5 -66.5q-93 0 -159.5 67t-66.5 162q0 93 66.5 160t159.5 67zM373 369q-64 0 -110 -46.5t-46 -111.5
q0 -66 46 -113t110 -47t109.5 46.5t45.5 111.5q0 68 -44.5 114t-110.5 46zM930 438q94 0 159.5 -67t65.5 -164q0 -92 -66.5 -158.5t-158.5 -66.5q-93 0 -159 67t-66 162q0 94 66.5 160.5t158.5 66.5zM930 369q-64 0 -110 -46.5t-46 -111.5q0 -66 46 -113t110 -47t109.5 46.5
t45.5 111.5q0 68 -44.5 114t-110.5 46z" />
    <glyph glyph-name="questiondown" unicode="&#xbf;" 
d="M870 -205l84 -53l-59 -27q-97 -43 -159 -58t-140 -15q-163 0 -264 87t-101 228q0 114 73 191.5t265 168.5v84q0 56 41 56q43 0 43 -56v-139q-179 -74 -258.5 -145.5t-79.5 -159.5q0 -101 81.5 -166t209.5 -65q69 0 126 14.5t138 54.5zM641 649h-55q-52 0 -84.5 29
t-32.5 74t32.5 73.5t84.5 28.5h55q52 0 84.5 -28t32.5 -74t-32.5 -74.5t-84.5 -28.5z" />
    <glyph glyph-name="grave" unicode="`" 
d="M397 1290l234 -205l14 -16q10 -10 10 -22q0 -19 -12 -31t-31 -12q-16 0 -37 18l-233 205q-25 22 -25 41q0 17 12 29t29 12q14 0 39 -19z" />
    <glyph glyph-name="acute" unicode="&#xb4;" 
d="M887 1227l-234 -205q-23 -18 -39 -18q-17 0 -29 12t-12 31q0 10 4.5 17t20.5 21l233 205q24 19 39 19q17 0 29 -12t12 -31q0 -18 -24 -39z" />
    <glyph glyph-name="circumflex" unicode="&#x2c6;" 
d="M614 1309l271 -222q26 -20 26 -43q0 -17 -12 -28.5t-29 -11.5q-14 0 -36 16l-220 180l-219 -180q-22 -16 -37 -16q-17 0 -29 11.5t-12 28.5q0 22 27 41z" />
    <glyph glyph-name="tilde" unicode="&#x2dc;" 
d="M891 1235q16 0 28.5 -12t12.5 -29q0 -12 -9 -25t-36 -39q-73 -73 -142 -73q-34 0 -69 13.5t-96 49.5q-53 35 -88 35q-30 0 -52 -14t-67 -62q-13 -16 -35 -16q-17 0 -29 11t-12 28q0 22 39 61q44 41 79.5 58.5t73.5 17.5q31 0 57 -9t75 -38q62 -34 81.5 -42.5t38.5 -8.5
q26 0 48.5 15t68.5 63q16 16 33 16z" />
    <glyph glyph-name="macron" unicode="&#xaf;" 
d="M856 1098h-483q-56 0 -56 41t56 41h483q55 0 55 -41t-55 -41z" />
    <glyph glyph-name="breve" unicode="&#x2d8;" 
d="M360 1270q35 0 41 -45q5 -59 66 -98.5t147 -39.5t146.5 39.5t66.5 98.5q6 45 43 45q18 0 29.5 -13t11.5 -34q0 -92 -85.5 -155.5t-211.5 -63.5t-211.5 63.5t-85.5 155.5q0 22 11.5 34.5t31.5 12.5z" />
    <glyph glyph-name="dotaccent" unicode="&#x2d9;" 
d="M614 1251q43 0 73 -30.5t30 -73.5q0 -40 -31 -70t-72 -30t-71.5 30.5t-30.5 71.5t30.5 71.5t71.5 30.5z" />
    <glyph glyph-name="dieresis" unicode="&#xa8;" 
d="M389 1251q43 0 73 -30.5t30 -73.5q0 -40 -31 -70t-72 -30t-71.5 30.5t-30.5 71.5t30.5 71.5t71.5 30.5zM842 1251q43 0 72.5 -30.5t29.5 -73.5q0 -40 -30.5 -70t-71.5 -30t-72 30.5t-31 71.5t31 71.5t72 30.5z" />
    <glyph glyph-name="ring" unicode="&#x2da;" 
d="M614 1354q80 0 135.5 -55t55.5 -134q0 -74 -56.5 -128t-134.5 -54t-134 55t-56 131q0 75 56 130t134 55zM614 1286q-51 0 -86.5 -34.5t-35.5 -82.5q0 -49 35.5 -83.5t86.5 -34.5t87 34.5t36 81.5q0 49 -36 84t-87 35z" />
    <glyph glyph-name="cedilla" unicode="&#xb8;" 
d="M561 0h78v-96q63 -2 98 -34.5t35 -90.5q0 -60 -45 -96.5t-117 -36.5q-71 0 -143 37q-21 10 -29 20t-8 25q0 17 12 28t29 11q9 0 31 -11q58 -32 104 -32q40 0 65 16.5t25 42.5q0 51 -94 51h-41v166z" />
    <glyph glyph-name="hungarumlaut" unicode="&#x2dd;" 
d="M596 1214l-199 -192q-21 -18 -39 -18q-17 0 -29 12t-12 31q0 11 4 17t21 21l201 193q18 18 37 18q17 0 29 -12t12 -31q0 -14 -25 -39zM887 1214l-201 -192q-21 -18 -39 -18q-17 0 -29 12t-12 31q0 16 19 32l6 6l200 193q21 18 39 18q17 0 29 -12t12 -31q0 -18 -24 -39z
" />
    <glyph glyph-name="ogonek" unicode="&#x2db;" 
d="M827 0l-55 -31q-119 -67 -119 -151q0 -70 88 -70q30 0 47 5.5t54 27.5q9 6 16 6q11 0 20 -9.5t9 -21.5q0 -26 -50 -49.5t-108 -23.5q-74 0 -115 33t-41 91q0 63 37 108t121 85h96z" />
    <glyph glyph-name="caron" unicode="&#x2c7;" 
d="M614 1004l-270 223q-27 19 -27 41q0 17 12 29t29 12q13 0 37 -17l219 -180l220 180q24 17 36 17q15 0 28 -13t13 -28q0 -23 -26 -43z" />
    <glyph glyph-name="emdash" unicode="&#x2014;" 
d="M1171 535h-1114q-55 0 -55 43q0 40 55 40h1114q56 0 56 -40q0 -43 -56 -43z" />
    <glyph glyph-name="AE" unicode="&#xc6;" 
d="M212 0h-84l318 1153h721v-84h-475v-426h242v-84h-242v-475h516v-84h-600v387h-289zM608 471v598h-102l-164 -598h266z" />
    <glyph glyph-name="ordfeminine" unicode="&#xaa;" 
d="M815 578h-76v53q-63 -34 -111 -47t-108 -13q-91 0 -147 45t-56 117q0 87 77 143t196 56q52 0 149 -19v91q0 43 -36.5 69.5t-96.5 26.5t-155 -39q-16 -8 -29 -8t-24 12t-11 27q0 24 29 38q112 46 194 46q89 0 147 -48.5t58 -123.5v-426zM739 717v121q-60 22 -145 22
q-88 0 -144.5 -37t-56.5 -94q0 -37 35 -59.5t92 -22.5q112 0 219 70z" />
    <glyph glyph-name="Lslash" unicode="&#x141;" 
d="M164 377q-18 -12 -35 -12q-14 0 -26.5 13t-12.5 30q0 23 33 41l616 350q25 10 35 10q17 0 29 -12.5t12 -28.5q0 -13 -7.5 -21t-27.5 -20zM1108 84v-84h-727v1153h84v-1069h643z" />
    <glyph glyph-name="Oslash" unicode="&#xd8;" 
d="M289 104l-133 -167q-19 -25 -37 -25q-15 0 -26 11t-11 26q0 12 16 33l142 178q-136 182 -136 413q0 125 40 238t108 193.5t162.5 128t199.5 47.5q176 0 324 -136l135 170q19 25 37 25q15 0 26 -11t11 -26q0 -10 -17 -33l-143 -180q66 -81 101.5 -190t35.5 -226
q0 -166 -67.5 -305.5t-185 -220t-257.5 -80.5q-185 0 -325 137zM295 229l590 746q-121 121 -271 121q-116 0 -214 -70.5t-155 -191t-57 -261.5q0 -186 107 -344zM934 920l-592 -748q121 -121 272 -121q115 0 213 70t155.5 190.5t57.5 261.5q0 196 -106 347z" />
    <glyph glyph-name="OE" unicode="&#x152;" 
d="M1208 84v-84h-669q-234 0 -376.5 158.5t-142.5 419.5q0 257 139 416t363 159h645v-84h-475v-428h244v-84h-244v-473h516zM608 1069h-65q-112 0 -191.5 -34.5t-138.5 -108.5q-109 -136 -109 -351q0 -212 109 -348q114 -143 330 -143h65v985z" />
    <glyph glyph-name="ordmasculine" unicode="&#xba;" 
d="M616 1182q126 0 214 -88t88 -215q0 -121 -89.5 -209t-212.5 -88q-124 0 -212.5 88t-88.5 213q0 123 88.5 211t212.5 88zM616 1106q-94 0 -159.5 -65.5t-65.5 -157.5q0 -93 66.5 -159.5t158.5 -66.5t159 65.5t67 156.5q0 95 -65.5 161t-160.5 66z" />
    <glyph glyph-name="ae" unicode="&#xe6;" 
d="M655 125v-70q0 -55 -41 -55t-41 55v51q-60 -72 -119 -105.5t-126 -33.5q-130 0 -216.5 86.5t-86.5 216.5q0 100 92 174q47 35 127 58.5t155 23.5q85 0 174 -24v123q0 72 -52.5 123t-127.5 51q-93 0 -172 -51q-26 -15 -37 -15q-13 0 -26 13.5t-13 27.5q0 32 60 57
q116 52 203 52q75 0 138.5 -47t92.5 -125q37 79 102.5 125.5t139.5 46.5q92 0 162 -57t102 -160q34 -104 37 -258h-529q10 -156 83.5 -256.5t176.5 -100.5q44 0 86.5 24.5t116.5 92.5q13 10 27 10q17 0 29 -12.5t12 -28.5q0 -15 -14 -31.5t-50 -46.5q-65 -48 -114 -70
t-97 -22q-71 0 -138 41.5t-116 116.5zM573 225v191q-89 26 -161 26q-66 0 -142 -25t-110 -57q-43 -43 -43 -112q0 -86 60.5 -141.5t154.5 -55.5q57 0 113 40.5t128 133.5zM655 492h441q-16 134 -47 194q-26 54 -71 83.5t-99 29.5q-184 0 -224 -307z" />
    <glyph glyph-name="dotlessi" unicode="&#x131;" 
d="M571 0v770h-241q-56 0 -56 43q0 41 56 41h325v-854h-84z" />
    <glyph glyph-name="lslash" unicode="&#x142;" 
d="M569 0v573l-178 -102q-22 -12 -35 -12q-15 0 -27 13t-12 30q0 25 33 43l219 125v483h-239q-56 0 -56 43q0 41 56 41h323v-535l181 105q21 12 34 12q15 0 27 -12t12 -29q0 -15 -7 -23.5t-26 -19.5l-221 -127v-608h-84z" />
    <glyph glyph-name="oslash" unicode="&#xf8;" 
d="M315 72l-135 -140q-20 -20 -35 -20t-25.5 11t-10.5 26t20 35l135 137q-117 135 -117 305q0 125 62 230t169.5 166t235.5 61q167 0 295 -101l131 136q22 20 37 20q14 0 24.5 -11t10.5 -26t-20 -35l-131 -133q120 -132 120 -309q0 -125 -62 -230t-169.5 -166t-235.5 -61
q-164 0 -299 105zM903 674l-528 -541q105 -82 239 -82q160 0 271.5 109t111.5 264q0 139 -94 250zM324 182l526 539q-104 78 -236 78q-160 0 -271.5 -109t-111.5 -264q0 -137 93 -244z" />
    <glyph glyph-name="oe" unicode="&#x153;" 
d="M1182 408h-529q12 -152 87 -254.5t173 -102.5q44 0 86.5 24.5t116.5 92.5q13 10 27 10q15 0 28 -13t13 -28t-14 -31.5t-50 -46.5q-65 -48 -114 -70t-97 -22q-92 0 -171.5 65.5t-125.5 178.5q-44 -117 -115 -180.5t-157 -63.5q-127 0 -221 139t-94 328q0 182 93 315.5
t220 133.5q83 0 157 -63.5t117 -170.5q26 65 46 97.5t51 62.5q77 74 174 74q91 0 160.5 -57t103.5 -160q35 -106 35 -258zM655 492h443q-16 134 -47 194q-58 113 -172 113q-184 0 -224 -307zM340 799q-92 0 -161.5 -112t-69.5 -261q0 -98 32 -184.5t86 -138.5t115 -52
q91 0 161 112.5t70 258.5q0 153 -69 265t-164 112z" />
    <glyph glyph-name="germandbls" unicode="&#xdf;" 
d="M254 0v975q0 109 85.5 185.5t205.5 76.5q125 0 212 -87.5t87 -211.5q0 -123 -119 -203q297 -121 297 -405q0 -155 -78.5 -259t-195.5 -104q-92 0 -155 69.5t-63 170.5q0 22 11 34.5t30 12.5q40 0 43 -49q5 -71 40.5 -112.5t93.5 -41.5q80 0 135 81.5t55 199.5
q0 159 -125 262q-50 40 -117 65t-125 25h-10q-55 0 -55 43q0 19 12.5 30t34.5 11h10q78 0 137.5 52t59.5 120q0 88 -63 150.5t-152 62.5q-86 0 -146.5 -51.5t-60.5 -126.5v-975h-84z" />
    <glyph glyph-name="Adieresis" unicode="&#xc4;" 
d="M383 1558q43 0 73 -30.5t30 -73.5q0 -40 -31 -70t-72 -30t-71.5 30.5t-30.5 71.5t30.5 71.5t71.5 30.5zM836 1558q43 0 72.5 -30.5t29.5 -73.5q0 -40 -30.5 -70t-71.5 -30t-72 30.5t-31 71.5t31 71.5t72 30.5zM106 0l431 1153h139l434 -1153h-88l-145 385h-545l-142 -385
h-84zM846 469l-230 600h-30l-221 -600h481z" />
    <glyph glyph-name="Aacute" unicode="&#xc1;" 
d="M760 1534l-234 -205q-23 -18 -39 -18q-17 0 -29 12t-12 31q0 16 25 39l234 204q24 19 38 19q17 0 29 -12t12 -31q0 -18 -24 -39zM106 0l431 1153h139l434 -1153h-88l-145 385h-545l-142 -385h-84zM846 469l-230 600h-30l-221 -600h481z" />
    <glyph glyph-name="Agrave" unicode="&#xc0;" 
d="M418 1597l233 -204l15 -17q10 -10 10 -22q0 -19 -12 -31t-31 -12q-16 0 -37 18l-234 205q-24 21 -24 41q0 17 12 29t29 12q14 0 39 -19zM106 0l431 1153h139l434 -1153h-88l-145 385h-545l-142 -385h-84zM846 469l-230 600h-30l-221 -600h481z" />
    <glyph glyph-name="Acircumflex" unicode="&#xc2;" 
d="M612 1616l271 -222q26 -20 26 -43q0 -17 -12 -28.5t-29 -11.5q-14 0 -36 16l-220 180l-219 -180q-22 -16 -37 -16q-17 0 -29 11.5t-12 28.5q0 22 27 41zM106 0l431 1153h139l434 -1153h-88l-145 385h-545l-142 -385h-84zM846 469l-230 600h-30l-221 -600h481z" />
    <glyph glyph-name="Abreve" unicode="&#x102;" 
d="M360 1577q35 0 41 -45q4 -58 65.5 -97.5t147.5 -39.5t146.5 39t66.5 98q6 45 43 45q18 0 29.5 -13t11.5 -34q0 -92 -85.5 -155.5t-211.5 -63.5t-211.5 63.5t-85.5 155.5q0 22 11.5 34.5t31.5 12.5zM106 0l431 1153h139l434 -1153h-88l-145 385h-545l-142 -385h-84z
M846 469l-230 600h-30l-221 -600h481z" />
    <glyph glyph-name="Atilde" unicode="&#xc3;" 
d="M836 1542q16 0 28.5 -12t12.5 -29q0 -12 -9 -25t-36 -39q-73 -73 -142 -73q-34 0 -69 13.5t-96 49.5q-53 35 -88 35q-30 0 -52 -14t-67 -62q-13 -16 -35 -16q-17 0 -29 11t-12 28q0 22 39 61q44 41 79.5 58.5t73.5 17.5q31 0 57 -9t75 -38q62 -34 81.5 -42.5t38.5 -8.5
q26 0 48.5 15t68.5 63q16 16 33 16zM106 0l431 1153h139l434 -1153h-88l-145 385h-545l-142 -385h-84zM846 469l-230 600h-30l-221 -600h481z" />
    <glyph glyph-name="Aring" unicode="&#xc5;" 
d="M567 1661q80 0 135.5 -55t55.5 -134q0 -74 -56.5 -128t-134.5 -54t-134 55t-56 131q0 75 56 130t134 55zM567 1593q-51 0 -86.5 -34.5t-35.5 -82.5q0 -49 35.5 -83.5t86.5 -34.5t87 34.5t36 81.5q0 49 -36 84t-87 35zM106 0l431 1153h139l434 -1153h-88l-145 385h-545
l-142 -385h-84zM846 469l-230 600h-30l-221 -600h481z" />
    <glyph glyph-name="Aogonek" unicode="&#x104;" 
d="M1073 84h82q55 0 55 -41q0 -19 -8.5 -27.5t-40.5 -21.5q-74 -33 -120 -81t-46 -95q0 -70 88 -70q30 0 47 5.5t54 27.5q9 6 16 6q11 0 20 -9.5t9 -21.5q0 -26 -50 -49.5t-108 -23.5q-74 0 -115 33t-41 91q0 64 36 108t122 85v84zM106 0l431 1153h139l434 -1153h-88
l-145 385h-545l-142 -385h-84zM846 469l-230 600h-30l-221 -600h481z" />
    <glyph glyph-name="Ccedilla" unicode="&#xc7;" 
d="M614 20l35 -53v-63q63 -2 98 -34.5t35 -90.5q0 -60 -44.5 -96.5t-116.5 -36.5q-30 0 -72 11t-72 26q-21 10 -29 20t-8 25q0 17 12 28t29 11q9 0 31 -11q60 -32 104 -32q40 0 65.5 16.5t25.5 42.5q0 51 -95 51h-41v141q-22 6 41 44zM1063 868q0 -55 -43 -55q-38 0 -41 49
q-6 94 -112 164t-242 70q-170 0 -291 -130t-121 -313v-145q0 -121 60.5 -226.5t163.5 -168t222 -62.5q106 0 190 43.5t167 141.5q18 20 37 20t30 -11t11 -28q0 -32 -78 -104q-155 -146 -357 -146q-102 0 -200 44t-170 116.5t-116 170t-44 198.5v170q0 94 39.5 193t105.5 169
q143 152 351 152q44 0 92.5 -8.5t104.5 -30.5t103 -55.5t85 -90t53 -127.5z" />
    <glyph glyph-name="Cacute" unicode="&#x106;" 
d="M887 1534l-234 -205q-23 -18 -39 -18q-17 0 -29 12t-12 31q0 10 4.5 17t20.5 21l233 205q24 19 39 19q17 0 29 -12t12 -31q0 -18 -24 -39zM1063 868q0 -55 -43 -55q-38 0 -41 49q-6 94 -112 164t-242 70q-170 0 -291 -130t-121 -313v-145q0 -121 60.5 -226.5t163.5 -168
t222 -62.5q106 0 190 43.5t167 141.5q18 20 37 20t30 -11t11 -28q0 -32 -78 -104q-155 -146 -357 -146q-102 0 -200 44t-170 116.5t-116 170t-44 198.5v170q0 94 39.5 193t105.5 169q143 152 351 152q44 0 92.5 -8.5t104.5 -30.5t103 -55.5t85 -90t53 -127.5z" />
    <glyph glyph-name="Ccaron" unicode="&#x10c;" 
d="M614 1311l-270 223q-27 19 -27 41q0 17 12 29t29 12q13 0 37 -17l219 -180l220 180q24 17 36 17q15 0 28 -13t13 -28q0 -23 -26 -43zM1063 868q0 -55 -43 -55q-38 0 -41 49q-6 94 -112 164t-242 70q-170 0 -291 -130t-121 -313v-145q0 -121 60.5 -226.5t163.5 -168
t222 -62.5q106 0 190 43.5t167 141.5q18 20 37 20t30 -11t11 -28q0 -32 -78 -104q-155 -146 -357 -146q-102 0 -200 44t-170 116.5t-116 170t-44 198.5v170q0 94 39.5 193t105.5 169q143 152 351 152q44 0 92.5 -8.5t104.5 -30.5t103 -55.5t85 -90t53 -127.5z" />
    <glyph glyph-name="Dcaron" unicode="&#x10e;" 
d="M614 1311l-270 223q-27 19 -27 41q0 17 12 29t29 12q13 0 37 -17l219 -180l220 180q24 17 36 17q15 0 28 -13t13 -28q0 -23 -26 -43zM596 0h-383v1153h381h8q195 -3 329 -153t134 -365v-115q0 -143 -61.5 -262.5t-169.5 -188.5t-238 -69zM297 84h307q96 0 184 59
t140.5 156t52.5 203v149q0 82 -36 167.5t-97 148.5q-54 54 -114.5 78t-143.5 24h-293v-985z" />
    <glyph glyph-name="Edieresis" unicode="&#xcb;" 
d="M371 1558q43 0 73 -30.5t30 -73.5q0 -40 -31 -70t-72 -30t-71.5 30.5t-30.5 71.5t30.5 71.5t71.5 30.5zM824 1558q43 0 72.5 -30.5t29.5 -73.5q0 -40 -30.5 -70t-71.5 -30t-72 30.5t-31 71.5t31 71.5t72 30.5zM1022 1069h-684v-428h381v-84h-381v-473h727v-84h-811v1153
h768v-84z" />
    <glyph glyph-name="Eacute" unicode="&#xc9;" 
d="M797 1534l-234 -205q-23 -18 -39 -18q-17 0 -29 12t-12 31q0 10 4.5 17t20.5 21l233 205q24 19 39 19q17 0 29 -12t12 -31q0 -18 -24 -39zM1022 1069h-684v-428h381v-84h-381v-473h727v-84h-811v1153h768v-84z" />
    <glyph glyph-name="Egrave" unicode="&#xc8;" 
d="M440 1597l234 -204l14 -17q10 -10 10 -22q0 -19 -12 -31t-31 -12q-16 0 -37 18l-233 205q-25 22 -25 41q0 17 12 29t29 12q14 0 39 -19zM1022 1069h-684v-428h381v-84h-381v-473h727v-84h-811v1153h768v-84z" />
    <glyph glyph-name="Ecircumflex" unicode="&#xca;" 
d="M596 1616l271 -222q26 -20 26 -43q0 -17 -12 -28.5t-29 -11.5q-14 0 -36 16l-220 180l-219 -180q-22 -16 -37 -16q-17 0 -29 11.5t-12 28.5q0 22 27 41zM1022 1069h-684v-428h381v-84h-381v-473h727v-84h-811v1153h768v-84z" />
    <glyph glyph-name="Ecaron" unicode="&#x11a;" 
d="M614 1311l-270 223q-27 19 -27 41q0 17 12 29t29 12q13 0 37 -17l219 -180l220 180q24 17 36 17q15 0 28 -13t13 -28q0 -23 -26 -43zM1022 1069h-684v-428h381v-84h-381v-473h727v-84h-811v1153h768v-84z" />
    <glyph glyph-name="Edotaccent" unicode="&#x116;" 
d="M614 1559q43 0 73 -31t30 -74q0 -40 -31 -70t-72 -30t-71.5 30.5t-30.5 71.5t30.5 72t71.5 31zM1022 1069h-684v-428h381v-84h-381v-473h727v-84h-811v1153h768v-84z" />
    <glyph glyph-name="Eogonek" unicode="&#x118;" 
d="M1065 69v-69l-55 -31q-121 -67 -121 -151q0 -70 90 -70q29 0 45 5.5t53 27.5q12 6 19 6q11 0 19.5 -9.5t8.5 -21.5q0 -26 -50 -49.5t-107 -23.5q-74 0 -116 33t-42 91q0 63 36.5 107.5t123.5 85.5zM1022 1069h-684v-428h381v-84h-381v-473h727v-84h-811v1153h768v-84z
" />
    <glyph glyph-name="Gbreve" unicode="&#x11e;" 
d="M421 1577q35 0 41 -45q5 -59 66 -98.5t147 -39.5t146.5 39.5t66.5 98.5q6 45 43 45q18 0 29.5 -13t11.5 -34q0 -92 -85.5 -155.5t-211.5 -63.5t-211.5 63.5t-85.5 155.5q0 22 11.5 34.5t31.5 12.5zM981 428h-285v84h369v-438q-185 -107 -383 -107q-252 0 -402.5 145
t-150.5 388v151q0 109 45 216t121 180q142 133 346 133q45 0 92 -6t103 -24.5t101 -47t80.5 -78t47.5 -113.5q0 -55 -41 -55q-38 0 -41 51q-6 78 -104 133.5t-234 55.5q-171 0 -285 -111q-67 -63 -107 -154t-40 -182v-149q0 -209 127 -329t348 -120q80 0 143.5 15t149.5 55
v307z" />
    <glyph glyph-name="Idieresis" unicode="&#xcf;" 
d="M571 1153h84v-1153h-84v1153zM389 1558q43 0 73 -30.5t30 -73.5q0 -40 -31 -70t-72 -30t-71.5 30.5t-30.5 71.5t30.5 71.5t71.5 30.5zM842 1558q43 0 72.5 -30.5t29.5 -73.5q0 -40 -30.5 -70t-71.5 -30t-72 30.5t-31 71.5t31 71.5t72 30.5z" />
    <glyph glyph-name="Iacute" unicode="&#xcd;" 
d="M571 1153h84v-1153h-84v1153zM887 1534l-234 -205q-23 -18 -39 -18q-17 0 -29 12t-12 31q0 10 4.5 17t20.5 21l233 205q24 19 39 19q17 0 29 -12t12 -31q0 -18 -24 -39z" />
    <glyph glyph-name="Igrave" unicode="&#xcc;" 
d="M471 1597l234 -204l14 -17q10 -10 10 -22q0 -19 -12 -31t-31 -12q-16 0 -37 18l-233 205q-25 22 -25 41q0 17 12 29t29 12q14 0 39 -19zM571 1153h84v-1153h-84v1153z" />
    <glyph glyph-name="Icircumflex" unicode="&#xce;" 
d="M614 1616l271 -222q26 -20 26 -43q0 -17 -12 -28.5t-29 -11.5q-14 0 -36 16l-220 180l-219 -180q-22 -16 -37 -16q-17 0 -29 11.5t-12 28.5q0 22 27 41zM571 1153h84v-1153h-84v1153z" />
    <glyph glyph-name="Idotaccent" unicode="&#x130;" 
d="M614 1559q43 0 73 -31t30 -74q0 -40 -31 -70t-72 -30t-71.5 30.5t-30.5 71.5t30.5 72t71.5 31zM571 1153h84v-1153h-84v1153z" />
    <glyph glyph-name="Lacute" unicode="&#x139;" 
d="M723 1534l-234 -205q-23 -18 -39 -18q-17 0 -29 12t-12 31q0 10 4.5 17t20.5 21l233 205q24 19 39 19q17 0 29 -12t12 -31q0 -18 -24 -39zM1108 84v-84h-727v1153h84v-1069h643z" />
    <glyph glyph-name="Lcaron" unicode="&#x13d;" 
d="M1026 1083l-172 -258q-19 -28 -43 -28q-17 0 -29 12t-12 31q0 12 14 32l172 258q20 29 43 29q19 0 31 -12t12 -31q0 -7 -10 -24zM1108 84v-84h-727v1153h84v-1069h643z" />
    <glyph glyph-name="Nacute" unicode="&#x143;" 
d="M887 1534l-234 -205q-23 -18 -39 -18q-17 0 -29 12t-12 31q0 10 4.5 17t20.5 21l233 205q24 19 39 19q17 0 29 -12t12 -31q0 -18 -24 -39zM211 0v1153h106l625 -1032v1032h84v-1153h-106l-625 1032v-1032h-84z" />
    <glyph glyph-name="Ncaron" unicode="&#x147;" 
d="M614 1311l-270 223q-27 19 -27 41q0 17 12 29t29 12q13 0 37 -17l219 -180l220 180q24 17 36 17q15 0 28 -13t13 -28q0 -23 -26 -43zM211 0v1153h106l625 -1032v1032h84v-1153h-106l-625 1032v-1032h-84z" />
    <glyph glyph-name="Ntilde" unicode="&#xd1;" 
d="M887 1542q16 0 28.5 -12t12.5 -29q0 -12 -9 -25t-36 -39q-73 -73 -142 -73q-34 0 -69 13.5t-96 49.5q-53 35 -88 35q-30 0 -52 -14t-67 -62q-13 -16 -35 -16q-17 0 -29 11t-12 28q0 22 39 61q44 41 79.5 58.5t73.5 17.5q31 0 57 -9t75 -38q62 -34 81.5 -42.5t38.5 -8.5
q26 0 48.5 15t68.5 63q16 16 33 16zM211 0v1153h106l625 -1032v1032h84v-1153h-106l-625 1032v-1032h-84z" />
    <glyph glyph-name="Odieresis" unicode="&#xd6;" 
d="M387 1558q43 0 73 -30.5t30 -73.5q0 -40 -31 -70t-72 -30t-71.5 30.5t-30.5 71.5t30.5 71.5t71.5 30.5zM840 1558q43 0 72.5 -30.5t29.5 -73.5q0 -40 -30.5 -70t-71.5 -30t-72 30.5t-31 71.5t31 71.5t72 30.5zM614 1180q142 0 259 -80.5t184 -221.5t67 -313
q0 -162 -68.5 -300t-186 -218t-255.5 -80q-140 0 -257.5 80.5t-185 220t-67.5 305.5t67.5 306t185 220.5t257.5 80.5zM614 1096q-116 0 -214 -70.5t-155 -191t-57 -261.5t57.5 -261.5t155.5 -190.5t213 -70q114 0 212 70t156 189t58 257q0 221 -124 375t-302 154z" />
    <glyph glyph-name="Oacute" unicode="&#xd3;" 
d="M828 1534l-234 -205q-23 -18 -39 -18q-17 0 -29 12t-12 31q0 10 4.5 17t20.5 21l233 205q24 19 39 19q17 0 29 -12t12 -31q0 -18 -24 -39zM614 1180q142 0 259 -80.5t184 -221.5t67 -313q0 -162 -68.5 -300t-186 -218t-255.5 -80q-140 0 -257.5 80.5t-185 220
t-67.5 305.5t67.5 306t185 220.5t257.5 80.5zM614 1096q-116 0 -214 -70.5t-155 -191t-57 -261.5t57.5 -261.5t155.5 -190.5t213 -70q114 0 212 70t156 189t58 257q0 221 -124 375t-302 154z" />
    <glyph glyph-name="Ograve" unicode="&#xd2;" 
d="M459 1597l233 -204l15 -17q10 -10 10 -22q0 -19 -12 -31t-31 -12q-16 0 -37 18l-234 205q-24 21 -24 41q0 17 12 29t29 12q14 0 39 -19zM614 1180q142 0 259 -80.5t184 -221.5t67 -313q0 -162 -68.5 -300t-186 -218t-255.5 -80q-140 0 -257.5 80.5t-185 220t-67.5 305.5
t67.5 306t185 220.5t257.5 80.5zM614 1096q-116 0 -214 -70.5t-155 -191t-57 -261.5t57.5 -261.5t155.5 -190.5t213 -70q114 0 212 70t156 189t58 257q0 221 -124 375t-302 154z" />
    <glyph glyph-name="Ocircumflex" unicode="&#xd4;" 
d="M612 1616l271 -222q26 -20 26 -43q0 -17 -12 -28.5t-29 -11.5q-14 0 -36 16l-220 180l-219 -180q-22 -16 -37 -16q-17 0 -29 11.5t-12 28.5q0 22 27 41zM614 1180q142 0 259 -80.5t184 -221.5t67 -313q0 -162 -68.5 -300t-186 -218t-255.5 -80q-140 0 -257.5 80.5
t-185 220t-67.5 305.5t67.5 306t185 220.5t257.5 80.5zM614 1096q-116 0 -214 -70.5t-155 -191t-57 -261.5t57.5 -261.5t155.5 -190.5t213 -70q114 0 212 70t156 189t58 257q0 221 -124 375t-302 154z" />
    <glyph glyph-name="Otilde" unicode="&#xd5;" 
d="M903 1542q16 0 28.5 -12t12.5 -29q0 -12 -9 -25t-36 -39q-73 -73 -142 -73q-34 0 -69 13.5t-96 49.5q-53 35 -88 35q-30 0 -52 -14t-67 -62q-13 -16 -35 -16q-17 0 -29 11t-12 28q0 22 39 61q44 41 79.5 58.5t73.5 17.5q31 0 57 -9t75 -38q62 -34 81.5 -42.5t38.5 -8.5
q26 0 48.5 15t68.5 63q16 16 33 16zM614 1180q142 0 259 -80.5t184 -221.5t67 -313q0 -162 -68.5 -300t-186 -218t-255.5 -80q-140 0 -257.5 80.5t-185 220t-67.5 305.5t67.5 306t185 220.5t257.5 80.5zM614 1096q-116 0 -214 -70.5t-155 -191t-57 -261.5t57.5 -261.5
t155.5 -190.5t213 -70q114 0 212 70t156 189t58 257q0 221 -124 375t-302 154z" />
    <glyph glyph-name="Ohungarumlaut" unicode="&#x150;" 
d="M680 1521l-199 -192q-21 -18 -39 -18q-17 0 -29 12t-12 31q0 11 4 17t21 21l201 193q18 18 37 18q17 0 29 -12t12 -31q0 -14 -25 -39zM971 1521l-201 -192q-21 -18 -39 -18q-17 0 -29 12t-12 31q0 16 19 32l6 6l200 193q21 18 39 18q17 0 29 -12t12 -31q0 -18 -24 -39z
M614 1180q142 0 259 -80.5t184 -221.5t67 -313q0 -162 -68.5 -300t-186 -218t-255.5 -80q-140 0 -257.5 80.5t-185 220t-67.5 305.5t67.5 306t185 220.5t257.5 80.5zM614 1096q-116 0 -214 -70.5t-155 -191t-57 -261.5t57.5 -261.5t155.5 -190.5t213 -70q114 0 212 70
t156 189t58 257q0 221 -124 375t-302 154z" />
    <glyph glyph-name="Racute" unicode="&#x154;" 
d="M887 1534l-234 -205q-23 -18 -39 -18q-17 0 -29 12t-12 31q0 10 4.5 17t20.5 21l233 205q24 19 39 19q17 0 29 -12t12 -31q0 -18 -24 -39zM1133 0h-99q-135 250 -222 355t-204 159h-270v-514h-84v1153h397q149 0 259 -95t110 -224q0 -198 -285 -297q69 -47 117.5 -98.5
t113.5 -151.5t167 -287zM338 598h233q151 0 258 70t107 168q0 92 -87 162.5t-198 70.5h-313v-471z" />
    <glyph glyph-name="Rcaron" unicode="&#x158;" 
d="M614 1311l-270 223q-27 19 -27 41q0 17 12 29t29 12q13 0 37 -17l219 -180l220 180q24 17 36 17q15 0 28 -13t13 -28q0 -23 -26 -43zM1133 0h-99q-135 250 -222 355t-204 159h-270v-514h-84v1153h397q149 0 259 -95t110 -224q0 -198 -285 -297q69 -47 117.5 -98.5
t113.5 -151.5t167 -287zM338 598h233q151 0 258 70t107 168q0 92 -87 162.5t-198 70.5h-313v-471z" />
    <glyph glyph-name="Sacute" unicode="&#x15a;" 
d="M887 1534l-234 -205q-23 -18 -39 -18q-17 0 -29 12t-12 31q0 10 4.5 17t20.5 21l233 205q24 19 39 19q17 0 29 -12t12 -31q0 -18 -24 -39zM188 285q0 55 43 55q38 0 41 -49q4 -101 104 -170.5t240 -69.5q143 0 238.5 74.5t95.5 187.5q0 54 -24.5 100t-67.5 72
q-36 24 -81.5 37.5t-155.5 32.5q-109 19 -171.5 40t-107.5 54q-51 35 -78.5 91.5t-27.5 121.5q0 135 107.5 226.5t268.5 91.5q93 0 170 -30.5t121.5 -77t68 -95t23.5 -90.5q0 -56 -41 -56q-40 0 -43 50q-6 92 -89.5 153.5t-203.5 61.5q-126 0 -209 -67.5t-83 -168.5
q0 -100 80 -155q40 -27 88.5 -42t142.5 -30q120 -21 175.5 -37t100.5 -45q60 -37 93.5 -100.5t33.5 -141.5q0 -149 -119 -245.5t-303 -96.5q-111 0 -211.5 47t-159.5 120.5t-59 150.5z" />
    <glyph glyph-name="Scaron" unicode="&#x160;" 
d="M635 1311l-270 223q-27 19 -27 41q0 17 12 29t29 12q13 0 37 -17l219 -180l219 180q24 17 37 17q15 0 28 -13t13 -28q0 -22 -27 -43zM188 285q0 55 43 55q38 0 41 -49q4 -101 104 -170.5t240 -69.5q143 0 238.5 74.5t95.5 187.5q0 54 -24.5 100t-67.5 72
q-36 24 -81.5 37.5t-155.5 32.5q-109 19 -171.5 40t-107.5 54q-51 35 -78.5 91.5t-27.5 121.5q0 135 107.5 226.5t268.5 91.5q93 0 170 -30.5t121.5 -77t68 -95t23.5 -90.5q0 -56 -41 -56q-40 0 -43 50q-6 92 -89.5 153.5t-203.5 61.5q-126 0 -209 -67.5t-83 -168.5
q0 -100 80 -155q40 -27 88.5 -42t142.5 -30q120 -21 175.5 -37t100.5 -45q60 -37 93.5 -100.5t33.5 -141.5q0 -149 -119 -245.5t-303 -96.5q-111 0 -211.5 47t-159.5 120.5t-59 150.5z" />
    <glyph glyph-name="Scedilla" unicode="&#x15e;" 
d="M561 0h78v-96q63 -2 98 -34.5t35 -90.5q0 -60 -45 -96.5t-117 -36.5q-71 0 -143 37q-21 10 -29 20t-8 25q0 17 12 28t29 11q9 0 31 -11q58 -32 104 -32q40 0 65 16.5t25 42.5q0 51 -94 51h-41v166zM188 285q0 55 43 55q38 0 41 -49q4 -101 104 -170.5t240 -69.5
q143 0 238.5 74.5t95.5 187.5q0 54 -24.5 100t-67.5 72q-36 24 -81.5 37.5t-155.5 32.5q-109 19 -171.5 40t-107.5 54q-51 35 -78.5 91.5t-27.5 121.5q0 135 107.5 226.5t268.5 91.5q93 0 170 -30.5t121.5 -77t68 -95t23.5 -90.5q0 -56 -41 -56q-40 0 -43 50
q-6 92 -89.5 153.5t-203.5 61.5q-126 0 -209 -67.5t-83 -168.5q0 -100 80 -155q40 -27 88.5 -42t142.5 -30q120 -21 175.5 -37t100.5 -45q60 -37 93.5 -100.5t33.5 -141.5q0 -149 -119 -245.5t-303 -96.5q-111 0 -211.5 47t-159.5 120.5t-59 150.5z" />
    <glyph glyph-name="Tcaron" unicode="&#x164;" 
d="M614 1311l-270 223q-27 19 -27 41q0 17 12 29t29 12q13 0 37 -17l219 -180l220 180q24 17 36 17q15 0 28 -13t13 -28q0 -23 -26 -43zM147 1153h934v-84h-424v-1069h-84v1069h-426v84z" />
    <glyph glyph-name="Udieresis" unicode="&#xdc;" 
d="M387 1558q43 0 73 -30.5t30 -73.5q0 -40 -31 -70t-72 -30t-71.5 30.5t-30.5 71.5t30.5 71.5t71.5 30.5zM840 1558q43 0 72.5 -30.5t29.5 -73.5q0 -40 -30.5 -70t-71.5 -30t-72 30.5t-31 71.5t31 71.5t72 30.5zM1022 1153v-774q0 -174 -118 -293t-290 -119
q-173 0 -290 118.5t-117 293.5v774h84v-774q0 -138 93.5 -233t229.5 -95q135 0 229.5 95t94.5 233v774h84z" />
    <glyph glyph-name="Uacute" unicode="&#xda;" 
d="M821 1534l-234 -205q-23 -18 -39 -18q-17 0 -29 12t-12 31q0 10 4.5 17t20.5 21l233 205q24 19 39 19q17 0 29 -12t12 -31q0 -18 -24 -39zM1022 1153v-774q0 -174 -118 -293t-290 -119q-173 0 -290 118.5t-117 293.5v774h84v-774q0 -138 93.5 -233t229.5 -95
q135 0 229.5 95t94.5 233v774h84z" />
    <glyph glyph-name="Ugrave" unicode="&#xd9;" 
d="M465 1597l233 -204l15 -17q10 -10 10 -22q0 -19 -12 -31t-31 -12q-16 0 -37 18l-233 205q-25 22 -25 41q0 17 12 29t29 12q14 0 39 -19zM1022 1153v-774q0 -174 -118 -293t-290 -119q-173 0 -290 118.5t-117 293.5v774h84v-774q0 -138 93.5 -233t229.5 -95
q135 0 229.5 95t94.5 233v774h84z" />
    <glyph glyph-name="Ucircumflex" unicode="&#xdb;" 
d="M612 1616l271 -222q26 -20 26 -43q0 -17 -12 -28.5t-29 -11.5q-14 0 -36 16l-220 180l-219 -180q-22 -16 -37 -16q-17 0 -29 11.5t-12 28.5q0 22 27 41zM1022 1153v-774q0 -174 -118 -293t-290 -119q-173 0 -290 118.5t-117 293.5v774h84v-774q0 -138 93.5 -233
t229.5 -95q135 0 229.5 95t94.5 233v774h84z" />
    <glyph glyph-name="Uring" unicode="&#x16e;" 
d="M614 1661q80 0 135.5 -54.5t55.5 -133.5q0 -74 -56.5 -128.5t-134.5 -54.5t-134 55t-56 132q0 75 56 129.5t134 54.5zM614 1593q-51 0 -86.5 -34t-35.5 -82q0 -50 35.5 -84.5t86.5 -34.5t87 34.5t36 82.5q0 49 -36 83.5t-87 34.5zM1022 1153v-774q0 -174 -118 -293
t-290 -119q-173 0 -290 118.5t-117 293.5v774h84v-774q0 -138 93.5 -233t229.5 -95q135 0 229.5 95t94.5 233v774h84z" />
    <glyph glyph-name="Uhungarumlaut" unicode="&#x170;" 
d="M678 1522l-199 -193q-21 -18 -39 -18q-17 0 -29 12t-12 31q0 11 4 17.5t21 21.5l201 192q19 19 37 19q17 0 28.5 -12t11.5 -31q0 -15 -24 -39zM969 1522l-201 -193q-21 -18 -39 -18q-17 0 -29 12t-12 31q0 16 19 32l6 7l200 192q22 19 39 19t29 -12t12 -31q0 -18 -24 -39
zM1022 1153v-774q0 -174 -118 -293t-290 -119q-173 0 -290 118.5t-117 293.5v774h84v-774q0 -138 93.5 -233t229.5 -95q135 0 229.5 95t94.5 233v774h84z" />
    <glyph glyph-name="Yacute" unicode="&#xdd;" 
d="M821 1534l-234 -205q-23 -18 -39 -18q-17 0 -29 12t-12 31q0 10 4.5 17t20.5 21l233 205q24 19 39 19q17 0 29 -12t12 -31q0 -18 -24 -39zM152 1153h100l369 -549l360 549h94l-416 -633v-520h-84v520z" />
    <glyph glyph-name="Zacute" unicode="&#x179;" 
d="M887 1534l-234 -205q-23 -18 -39 -18q-17 0 -29 12t-12 31q0 10 4.5 17t20.5 21l233 205q24 19 39 19q17 0 29 -12t12 -31q0 -18 -24 -39zM248 1153h715v-119l-672 -942v-8h727v-84h-807v121l672 942v6h-635v84z" />
    <glyph glyph-name="Zcaron" unicode="&#x17d;" 
d="M606 1311l-270 223q-27 19 -27 41q0 17 12 29t29 12q13 0 37 -17l219 -180l219 180q24 17 37 17q15 0 28 -13t13 -28q0 -23 -26 -43zM248 1153h715v-119l-672 -942v-8h727v-84h-807v121l672 942v6h-635v84z" />
    <glyph glyph-name="Zdotaccent" unicode="&#x17b;" 
d="M614 1558q43 0 73 -30.5t30 -73.5q0 -40 -31 -70t-72 -30t-71.5 30.5t-30.5 71.5t30.5 71.5t71.5 30.5zM248 1153h715v-119l-672 -942v-8h727v-84h-807v121l672 942v6h-635v84z" />
    <glyph glyph-name="Amacron" unicode="&#x100;" 
d="M856 1405h-483q-56 0 -56 41t56 41h483q55 0 55 -41t-55 -41zM106 0l431 1153h139l434 -1153h-88l-145 385h-545l-142 -385h-84zM846 469l-230 600h-30l-221 -600h481z" />
    <glyph glyph-name="Tcommaaccent" unicode="&#x162;" 
d="M651 -199l-172 -258q-19 -28 -43 -28q-17 0 -29 12t-12 31q0 11 15 32l172 258q20 29 43 29q19 0 31 -12t12 -31q0 -6 -11 -24zM147 1153h934v-84h-424v-1069h-84v1069h-426v84z" />
    <glyph glyph-name="Ydieresis" unicode="&#x178;" 
d="M387 1559q42 0 72 -31t30 -74q0 -40 -30.5 -70t-71.5 -30t-71.5 30.5t-30.5 71.5t30.5 72t71.5 31zM840 1559q42 0 72 -31t30 -74q0 -40 -30.5 -70t-71.5 -30t-72 30.5t-31 71.5t31 72t72 31zM152 1153h100l369 -549l360 549h94l-416 -633v-520h-84v520z" />
    <glyph glyph-name="Emacron" unicode="&#x112;" 
d="M856 1405h-483q-56 0 -56 41t56 41h483q55 0 55 -41t-55 -41zM1022 1069h-684v-428h381v-84h-381v-473h727v-84h-811v1153h768v-84z" />
    <glyph glyph-name="Imacron" unicode="&#x12a;" 
d="M571 1153h84v-1153h-84v1153zM856 1405h-483q-56 0 -56 41t56 41h483q55 0 55 -41t-55 -41z" />
    <glyph glyph-name="Iogonek" unicode="&#x12e;" 
d="M655 1069v-985h285q57 0 57 -41q0 -29 -39 -45q-70 -36 -120 -82q-47 -44 -47 -98q0 -70 88 -70q30 0 46.5 5.5t53.5 27.5q9 6 16 6q11 0 20 -9.5t9 -21.5q0 -26 -50 -49.5t-108 -23.5q-73 0 -114 32.5t-41 91.5q0 65 35.5 108.5t121.5 84.5h-581q-56 0 -56 43
q0 41 56 41h284v985h-284q-56 0 -56 43q0 41 56 41h653q57 0 57 -41q0 -43 -57 -43h-285z" />
    <glyph glyph-name="Kcommaaccent" unicode="&#x136;" 
d="M733 -199l-172 -258q-19 -28 -43 -28q-17 0 -29 12t-12 31q0 11 15 32l172 258q20 29 43 29q19 0 31 -12t12 -31q0 -6 -11 -24zM1036 0h-98q-77 213 -138 329.5t-128.5 178.5t-167.5 94l-166 -149v-453h-84v1153h84v-594l668 594h116l-549 -489q80 -33 129.5 -68
t103.5 -109.5t104.5 -184.5t125.5 -302z" />
    <glyph glyph-name="Lcommaaccent" unicode="&#x13b;" 
d="M672 -199l-172 -258q-19 -28 -43 -28q-17 0 -29 12t-12 31q0 12 14 32l172 258q20 29 43 29q19 0 31 -12t12 -31q0 -7 -10 -24zM1108 84v-84h-727v1153h84v-1069h643z" />
    <glyph glyph-name="Ncommaaccent" unicode="&#x145;" 
d="M692 -199l-172 -258q-19 -28 -43 -28q-17 0 -29 12t-12 31q0 11 15 32l172 258q20 29 43 29q19 0 31 -12t12 -31q0 -6 -11 -24zM211 0v1153h106l625 -1032v1032h84v-1153h-106l-625 1032v-1032h-84z" />
    <glyph glyph-name="Omacron" unicode="&#x14c;" 
d="M856 1405h-483q-56 0 -56 41t56 41h483q55 0 55 -41t-55 -41zM614 1180q142 0 259 -80.5t184 -221.5t67 -313q0 -162 -68.5 -300t-186 -218t-255.5 -80q-140 0 -257.5 80.5t-185 220t-67.5 305.5t67.5 306t185 220.5t257.5 80.5zM614 1096q-116 0 -214 -70.5t-155 -191
t-57 -261.5t57.5 -261.5t155.5 -190.5t213 -70q114 0 212 70t156 189t58 257q0 221 -124 375t-302 154z" />
    <glyph glyph-name="Rcommaaccent" unicode="&#x156;" 
d="M733 -199l-172 -258q-19 -28 -43 -28q-17 0 -29 12t-12 31q0 11 15 32l172 258q20 29 43 29q19 0 31 -12t12 -31q0 -6 -11 -24zM1133 0h-99q-135 250 -222 355t-204 159h-270v-514h-84v1153h397q149 0 259 -95t110 -224q0 -198 -285 -297q69 -47 117.5 -98.5
t113.5 -151.5t167 -287zM338 598h233q151 0 258 70t107 168q0 92 -87 162.5t-198 70.5h-313v-471z" />
    <glyph glyph-name="Gcommaaccent" unicode="&#x122;" 
d="M733 -199l-172 -258q-19 -28 -43 -28q-17 0 -29 12t-12 31q0 11 15 32l172 258q20 29 43 29q19 0 31 -12t12 -31q0 -6 -11 -24zM981 428h-285v84h369v-438q-185 -107 -383 -107q-252 0 -402.5 145t-150.5 388v151q0 109 45 216t121 180q142 133 346 133q45 0 92 -6
t103 -24.5t101 -47t80.5 -78t47.5 -113.5q0 -55 -41 -55q-38 0 -41 51q-6 78 -104 133.5t-234 55.5q-171 0 -285 -111q-67 -63 -107 -154t-40 -182v-149q0 -209 127 -329t348 -120q80 0 143.5 15t149.5 55v307z" />
    <glyph glyph-name="Umacron" unicode="&#x16a;" 
d="M856 1405h-483q-56 0 -56 41t56 41h483q55 0 55 -41t-55 -41zM1022 1153v-774q0 -174 -118 -293t-290 -119q-173 0 -290 118.5t-117 293.5v774h84v-774q0 -138 93.5 -233t229.5 -95q135 0 229.5 95t94.5 233v774h84z" />
    <glyph glyph-name="Uogonek" unicode="&#x172;" 
d="M818 79l-1 -73q-57 -46 -90.5 -97.5t-32.5 -90.5q0 -70 88 -70q30 0 47 5.5t54 27.5q9 6 16 6q11 0 20 -9.5t9 -21.5q0 -26 -50 -49.5t-108 -23.5q-74 0 -115 33t-41 91q0 63 37 108t121 85zM1022 1153v-774q0 -174 -118 -293t-290 -119q-173 0 -290 118.5t-117 293.5
v774h84v-774q0 -138 93.5 -233t229.5 -95q135 0 229.5 95t94.5 233v774h84z" />
    <glyph glyph-name="adieresis" unicode="&#xe4;" 
d="M366 1251q43 0 73 -30.5t30 -73.5q0 -40 -31 -70t-72 -30t-71.5 30.5t-30.5 71.5t30.5 71.5t71.5 30.5zM819 1251q43 0 72.5 -30.5t29.5 -73.5q0 -40 -30.5 -70t-71.5 -30t-72 30.5t-31 71.5t31 71.5t72 30.5zM858 0v137q-182 -170 -391 -170q-143 0 -231.5 72.5
t-88.5 189.5q0 133 120.5 216t312.5 83q70 0 128.5 -9t149.5 -34v146q0 75 -70 121.5t-182 46.5q-55 0 -112 -12.5t-179 -49.5q-16 -4 -20 -4q-15 0 -27 12t-12 29q0 31 35 43q85 29 174.5 47.5t146.5 18.5q142 0 236 -71.5t94 -180.5v-631h-84zM858 229v185
q-123 30 -262 30q-163 0 -264 -60t-101 -157q0 -80 64 -128t170 -48q109 0 200 41t193 137z" />
    <glyph glyph-name="aacute" unicode="&#xe1;" 
d="M793 1227l-234 -205q-23 -18 -39 -18q-17 0 -29 12t-12 31q0 10 4.5 17t20.5 21l233 205q24 19 39 19q17 0 29 -12t12 -31q0 -18 -24 -39zM858 0v137q-182 -170 -391 -170q-143 0 -231.5 72.5t-88.5 189.5q0 133 120.5 216t312.5 83q70 0 128.5 -9t149.5 -34v146
q0 75 -70 121.5t-182 46.5q-55 0 -112 -12.5t-179 -49.5q-16 -4 -20 -4q-15 0 -27 12t-12 29q0 31 35 43q85 29 174.5 47.5t146.5 18.5q142 0 236 -71.5t94 -180.5v-631h-84zM858 229v185q-123 30 -262 30q-163 0 -264 -60t-101 -157q0 -80 64 -128t170 -48q109 0 200 41
t193 137z" />
    <glyph glyph-name="agrave" unicode="&#xe0;" 
d="M436 1290l234 -205l14 -16q10 -10 10 -22q0 -19 -12 -31t-31 -12q-16 0 -37 18l-233 205q-25 22 -25 41q0 17 12 29t29 12q14 0 39 -19zM858 0v137q-182 -170 -391 -170q-143 0 -231.5 72.5t-88.5 189.5q0 133 120.5 216t312.5 83q70 0 128.5 -9t149.5 -34v146
q0 75 -70 121.5t-182 46.5q-55 0 -112 -12.5t-179 -49.5q-16 -4 -20 -4q-15 0 -27 12t-12 29q0 31 35 43q85 29 174.5 47.5t146.5 18.5q142 0 236 -71.5t94 -180.5v-631h-84zM858 229v185q-123 30 -262 30q-163 0 -264 -60t-101 -157q0 -80 64 -128t170 -48q109 0 200 41
t193 137z" />
    <glyph glyph-name="acircumflex" unicode="&#xe2;" 
d="M594 1309l271 -222q26 -20 26 -43q0 -17 -12 -28.5t-29 -11.5q-14 0 -36 16l-220 180l-219 -180q-22 -16 -37 -16q-17 0 -29 11.5t-12 28.5q0 22 27 41zM858 0v137q-182 -170 -391 -170q-143 0 -231.5 72.5t-88.5 189.5q0 133 120.5 216t312.5 83q70 0 128.5 -9
t149.5 -34v146q0 75 -70 121.5t-182 46.5q-55 0 -112 -12.5t-179 -49.5q-16 -4 -20 -4q-15 0 -27 12t-12 29q0 31 35 43q85 29 174.5 47.5t146.5 18.5q142 0 236 -71.5t94 -180.5v-631h-84zM858 229v185q-123 30 -262 30q-163 0 -264 -60t-101 -157q0 -80 64 -128t170 -48
q109 0 200 41t193 137z" />
    <glyph glyph-name="abreve" unicode="&#x103;" 
d="M360 1270q35 0 41 -45q5 -59 66 -98.5t147 -39.5t146.5 39.5t66.5 98.5q6 45 43 45q18 0 29.5 -13t11.5 -34q0 -92 -85.5 -155.5t-211.5 -63.5t-211.5 63.5t-85.5 155.5q0 22 11.5 34.5t31.5 12.5zM858 0v137q-182 -170 -391 -170q-143 0 -231.5 72.5t-88.5 189.5
q0 133 120.5 216t312.5 83q70 0 128.5 -9t149.5 -34v146q0 75 -70 121.5t-182 46.5q-55 0 -112 -12.5t-179 -49.5q-16 -4 -20 -4q-15 0 -27 12t-12 29q0 31 35 43q85 29 174.5 47.5t146.5 18.5q142 0 236 -71.5t94 -180.5v-631h-84zM858 229v185q-123 30 -262 30
q-163 0 -264 -60t-101 -157q0 -80 64 -128t170 -48q109 0 200 41t193 137z" />
    <glyph glyph-name="atilde" unicode="&#xe3;" 
d="M871 1235q16 0 28.5 -12t12.5 -29q0 -12 -9 -25t-36 -39q-73 -73 -142 -73q-34 0 -69 13.5t-96 49.5q-53 35 -88 35q-30 0 -52 -14t-67 -62q-13 -16 -35 -16q-17 0 -29 11t-12 28q0 22 39 61q44 41 79.5 58.5t73.5 17.5q31 0 57 -9t75 -38q62 -34 81.5 -42.5t38.5 -8.5
q26 0 48.5 15t68.5 63q16 16 33 16zM858 0v137q-182 -170 -391 -170q-143 0 -231.5 72.5t-88.5 189.5q0 133 120.5 216t312.5 83q70 0 128.5 -9t149.5 -34v146q0 75 -70 121.5t-182 46.5q-55 0 -112 -12.5t-179 -49.5q-16 -4 -20 -4q-15 0 -27 12t-12 29q0 31 35 43
q85 29 174.5 47.5t146.5 18.5q142 0 236 -71.5t94 -180.5v-631h-84zM858 229v185q-123 30 -262 30q-163 0 -264 -60t-101 -157q0 -80 64 -128t170 -48q109 0 200 41t193 137z" />
    <glyph glyph-name="aring" unicode="&#xe5;" 
d="M594 1354q80 0 135.5 -55t55.5 -134q0 -74 -56.5 -128t-134.5 -54t-134 55t-56 131q0 75 56 130t134 55zM594 1286q-51 0 -86.5 -34.5t-35.5 -82.5q0 -49 35.5 -83.5t86.5 -34.5t87 34.5t36 81.5q0 49 -36 84t-87 35zM858 0v137q-182 -170 -391 -170q-143 0 -231.5 72.5
t-88.5 189.5q0 133 120.5 216t312.5 83q70 0 128.5 -9t149.5 -34v146q0 75 -70 121.5t-182 46.5q-55 0 -112 -12.5t-179 -49.5q-16 -4 -20 -4q-15 0 -27 12t-12 29q0 31 35 43q85 29 174.5 47.5t146.5 18.5q142 0 236 -71.5t94 -180.5v-631h-84zM858 229v185
q-123 30 -262 30q-163 0 -264 -60t-101 -157q0 -80 64 -128t170 -48q109 0 200 41t193 137z" />
    <glyph glyph-name="aogonek" unicode="&#x105;" 
d="M858 84h195q55 0 55 -41q0 -27 -25 -39q-95 -51 -136.5 -94.5t-41.5 -91.5q0 -70 88 -70q30 0 47 5.5t54 27.5q9 6 16 6q11 0 20 -9.5t9 -21.5q0 -26 -50 -49.5t-108 -23.5q-74 0 -115 33t-41 91q0 64 36 108t122 85h-125v84zM858 0v137q-182 -170 -391 -170
q-143 0 -231.5 72.5t-88.5 189.5q0 133 120.5 216t312.5 83q70 0 128.5 -9t149.5 -34v146q0 75 -70 121.5t-182 46.5q-55 0 -112 -12.5t-179 -49.5q-16 -4 -20 -4q-15 0 -27 12t-12 29q0 31 35 43q85 29 174.5 47.5t146.5 18.5q142 0 236 -71.5t94 -180.5v-631h-84zM858 229
v185q-123 30 -262 30q-163 0 -264 -60t-101 -157q0 -80 64 -128t170 -48q109 0 200 41t193 137z" />
    <glyph glyph-name="cacute" unicode="&#x107;" 
d="M887 1227l-234 -205q-23 -18 -39 -18q-17 0 -29 12t-12 31q0 10 4.5 17t20.5 21l233 205q24 19 39 19q17 0 29 -12t12 -31q0 -18 -24 -39zM1047 610q0 -55 -41 -55q-20 0 -30 11.5t-13 37.5q-6 82 -101.5 138.5t-224.5 56.5q-169 0 -275 -105t-106 -274q0 -161 107 -265
t274 -104q223 0 383 148q20 20 37 20q15 0 27 -12t12 -27q0 -40 -88 -100q-163 -113 -375 -113q-201 0 -331 127t-130 324q0 203 133 334t338 131q54 0 111 -12t120 -40t110.5 -85t62.5 -136z" />
    <glyph glyph-name="ccaron" unicode="&#x10d;" 
d="M676 1004l-270 223q-27 19 -27 41q0 17 12 29t29 12q13 0 37 -17l219 -180l219 180q24 17 37 17q15 0 28 -13t13 -28q0 -22 -27 -43zM1047 610q0 -55 -41 -55q-20 0 -30 11.5t-13 37.5q-6 82 -101.5 138.5t-224.5 56.5q-169 0 -275 -105t-106 -274q0 -161 107 -265
t274 -104q223 0 383 148q20 20 37 20q15 0 27 -12t12 -27q0 -40 -88 -100q-163 -113 -375 -113q-201 0 -331 127t-130 324q0 203 133 334t338 131q54 0 111 -12t120 -40t110.5 -85t62.5 -136z" />
    <glyph glyph-name="ccedilla" unicode="&#xe7;" 
d="M567 0h78v-96q63 -2 98 -34.5t35 -90.5q0 -60 -45 -96.5t-117 -36.5q-71 0 -143 37q-21 10 -29 20t-8 25q0 17 12 28t29 11q9 0 31 -11q58 -32 104 -32q40 0 65 16.5t25 42.5q0 51 -94 51h-41v166zM1047 610q0 -55 -41 -55q-20 0 -30 11.5t-13 37.5q-6 82 -101.5 138.5
t-224.5 56.5q-169 0 -275 -105t-106 -274q0 -161 107 -265t274 -104q223 0 383 148q20 20 37 20q15 0 27 -12t12 -27q0 -40 -88 -100q-163 -113 -375 -113q-201 0 -331 127t-130 324q0 203 133 334t338 131q54 0 111 -12t120 -40t110.5 -85t62.5 -136z" />
    <glyph glyph-name="dcaron" unicode="&#x10f;" 
d="M1315 1186l-172 -258q-20 -29 -43 -29q-17 0 -29 12t-12 31q0 13 14 33l172 258q20 29 43 29q19 0 31 -12t12 -31q0 -8 -10 -25zM944 0v182q-144 -215 -373 -215q-120 0 -222 62t-161 167.5t-59 229.5q0 189 129.5 323t312.5 134q226 0 373 -213v567h84v-1237h-84z
M578 799q-152 0 -258.5 -109t-106.5 -264q0 -157 106.5 -266t260.5 -109q151 0 257.5 108.5t106.5 262.5q0 160 -105.5 268.5t-260.5 108.5z" />
    <glyph glyph-name="edieresis" unicode="&#xeb;" 
d="M397 1251q43 0 73 -30.5t30 -73.5q0 -40 -31 -70t-72 -30t-71.5 30.5t-30.5 71.5t30.5 71.5t71.5 30.5zM850 1251q43 0 72.5 -30.5t29.5 -73.5q0 -40 -30.5 -70t-71.5 -30t-72 30.5t-31 71.5t31 71.5t72 30.5zM1065 408h-852q22 -161 135 -259t279 -98q96 0 196.5 31
t161.5 80q20 14 33 14q15 0 27 -12t12 -29q0 -35 -68.5 -75t-171 -66.5t-192.5 -26.5q-207 0 -351.5 139t-144.5 338q0 186 135 312.5t332 126.5q147 0 262.5 -73.5t171.5 -201.5q22 -50 28.5 -89.5t6.5 -110.5zM213 492h766q-25 139 -129.5 223t-253.5 84t-252 -83
t-131 -224z" />
    <glyph glyph-name="eacute" unicode="&#xe9;" 
d="M824 1227l-234 -205q-23 -18 -39 -18q-17 0 -29 12t-12 31q0 10 4.5 17t20.5 21l233 205q24 19 39 19q17 0 29 -12t12 -31q0 -18 -24 -39zM1065 408h-852q22 -161 135 -259t279 -98q96 0 196.5 31t161.5 80q20 14 33 14q15 0 27 -12t12 -29q0 -35 -68.5 -75t-171 -66.5
t-192.5 -26.5q-207 0 -351.5 139t-144.5 338q0 186 135 312.5t332 126.5q147 0 262.5 -73.5t171.5 -201.5q22 -50 28.5 -89.5t6.5 -110.5zM213 492h766q-25 139 -129.5 223t-253.5 84t-252 -83t-131 -224z" />
    <glyph glyph-name="egrave" unicode="&#xe8;" 
d="M467 1290l234 -205l14 -16q10 -10 10 -22q0 -19 -12 -31t-31 -12q-16 0 -37 18l-233 205q-25 22 -25 41q0 17 12 29t29 12q14 0 39 -19zM1065 408h-852q22 -161 135 -259t279 -98q96 0 196.5 31t161.5 80q20 14 33 14q15 0 27 -12t12 -29q0 -35 -68.5 -75t-171 -66.5
t-192.5 -26.5q-207 0 -351.5 139t-144.5 338q0 186 135 312.5t332 126.5q147 0 262.5 -73.5t171.5 -201.5q22 -50 28.5 -89.5t6.5 -110.5zM213 492h766q-25 139 -129.5 223t-253.5 84t-252 -83t-131 -224z" />
    <glyph glyph-name="ecircumflex" unicode="&#xea;" 
d="M624 1309l271 -222q26 -20 26 -43q0 -17 -12 -28.5t-29 -11.5q-14 0 -36 16l-220 180l-219 -180q-22 -16 -37 -16q-17 0 -29 11.5t-12 28.5q0 22 27 41zM1065 408h-852q22 -161 135 -259t279 -98q96 0 196.5 31t161.5 80q20 14 33 14q15 0 27 -12t12 -29q0 -35 -68.5 -75
t-171 -66.5t-192.5 -26.5q-207 0 -351.5 139t-144.5 338q0 186 135 312.5t332 126.5q147 0 262.5 -73.5t171.5 -201.5q22 -50 28.5 -89.5t6.5 -110.5zM213 492h766q-25 139 -129.5 223t-253.5 84t-252 -83t-131 -224z" />
    <glyph glyph-name="ecaron" unicode="&#x11b;" 
d="M614 1004l-270 223q-27 19 -27 41q0 17 12 29t29 12q13 0 37 -17l219 -180l220 180q24 17 36 17q15 0 28 -13t13 -28q0 -23 -26 -43zM1065 408h-852q22 -161 135 -259t279 -98q96 0 196.5 31t161.5 80q20 14 33 14q15 0 27 -12t12 -29q0 -35 -68.5 -75t-171 -66.5
t-192.5 -26.5q-207 0 -351.5 139t-144.5 338q0 186 135 312.5t332 126.5q147 0 262.5 -73.5t171.5 -201.5q22 -50 28.5 -89.5t6.5 -110.5zM213 492h766q-25 139 -129.5 223t-253.5 84t-252 -83t-131 -224z" />
    <glyph glyph-name="edotaccent" unicode="&#x117;" 
d="M614 1251q43 0 73 -30.5t30 -73.5q0 -40 -31 -70t-72 -30t-71.5 30.5t-30.5 71.5t30.5 71.5t71.5 30.5zM1065 408h-852q22 -161 135 -259t279 -98q96 0 196.5 31t161.5 80q20 14 33 14q15 0 27 -12t12 -29q0 -35 -68.5 -75t-171 -66.5t-192.5 -26.5q-207 0 -351.5 139
t-144.5 338q0 186 135 312.5t332 126.5q147 0 262.5 -73.5t171.5 -201.5q22 -50 28.5 -89.5t6.5 -110.5zM213 492h766q-25 139 -129.5 223t-253.5 84t-252 -83t-131 -224z" />
    <glyph glyph-name="eogonek" unicode="&#x119;" 
d="M739 -23q-4 -3 18 3l99 33q104 36 104 34q0 -1 -2 -2q-151 -83 -200 -128t-49 -99q0 -70 88 -70q30 0 46.5 5.5t53.5 27.5q9 6 16 6q11 0 20 -9.5t9 -21.5q0 -26 -50 -49.5t-108 -23.5q-73 0 -114 32.5t-41 91.5q0 103 110 170zM1065 408h-852q22 -161 135 -259t279 -98
q96 0 196.5 31t161.5 80q20 14 33 14q15 0 27 -12t12 -29q0 -35 -68.5 -75t-171 -66.5t-192.5 -26.5q-207 0 -351.5 139t-144.5 338q0 186 135 312.5t332 126.5q147 0 262.5 -73.5t171.5 -201.5q22 -50 28.5 -89.5t6.5 -110.5zM213 492h766q-25 139 -129.5 223t-253.5 84
t-252 -83t-131 -224z" />
    <glyph glyph-name="gbreve" unicode="&#x11f;" 
d="M360 1270q35 0 41 -45q5 -59 66 -98.5t147 -39.5t146.5 39.5t66.5 98.5q6 45 43 45q18 0 29.5 -13t11.5 -34q0 -92 -85.5 -155.5t-211.5 -63.5t-211.5 63.5t-85.5 155.5q0 22 11.5 34.5t31.5 12.5zM901 854h84v-911q0 -118 -88 -213q-105 -111 -250 -111h-233
q-56 0 -56 43q0 41 56 41h237q104 0 177 74t73 178v264q-69 -102 -154.5 -150.5t-195.5 -48.5q-173 0 -297.5 127.5t-124.5 305.5t124 304t298 126q112 0 196.5 -48t153.5 -151v170zM557 799q-145 0 -244.5 -100.5t-99.5 -245.5q0 -146 100.5 -247.5t243.5 -101.5
q142 0 243 101t101 244q0 149 -99 249.5t-245 100.5z" />
    <glyph glyph-name="idieresis" unicode="&#xef;" 
d="M362 1251q43 0 73 -30.5t30 -73.5q0 -40 -31 -70t-72 -30t-71.5 30.5t-30.5 71.5t30.5 71.5t71.5 30.5zM815 1251q43 0 72.5 -30.5t29.5 -73.5q0 -40 -30.5 -70t-71.5 -30t-72 30.5t-31 71.5t31 71.5t72 30.5zM571 0v770h-241q-56 0 -56 43q0 41 56 41h325v-854h-84z" />
    <glyph glyph-name="iacute" unicode="&#xed;" 
d="M801 1227l-234 -205q-23 -18 -39 -18q-17 0 -29 12t-12 31q0 10 4.5 17t20.5 21l233 205q24 19 39 19q17 0 29 -12t12 -31q0 -18 -24 -39zM571 0v770h-241q-56 0 -56 43q0 41 56 41h325v-854h-84z" />
    <glyph glyph-name="igrave" unicode="&#xec;" 
d="M444 1290l234 -205l14 -16q10 -10 10 -22q0 -19 -12 -31t-31 -12q-16 0 -37 18l-233 205q-25 22 -25 41q0 17 12 29t29 12q14 0 39 -19zM571 0v770h-241q-56 0 -56 43q0 41 56 41h325v-854h-84z" />
    <glyph glyph-name="icircumflex" unicode="&#xee;" 
d="M579 1309l271 -222q26 -20 26 -43q0 -17 -12 -28.5t-29 -11.5q-14 0 -36 16l-220 180l-219 -180q-22 -16 -37 -16q-17 0 -29 11.5t-12 28.5q0 22 27 41zM571 0v770h-241q-56 0 -56 43q0 41 56 41h325v-854h-84z" />
    <glyph glyph-name="lacute" unicode="&#x13a;" 
d="M887 1534l-234 -205q-23 -18 -39 -18q-17 0 -29 12t-12 31q0 10 4.5 17t20.5 21l233 205q24 19 39 19q17 0 29 -12t12 -31q0 -18 -24 -39zM571 0v1153h-239q-56 0 -56 43q0 41 56 41h323v-1237h-84z" />
    <glyph glyph-name="lcaron" unicode="&#x13e;" 
d="M1024 1185l-172 -258q-19 -28 -43 -28q-17 0 -29 12t-12 31q0 11 15 32l172 258q20 29 43 29q19 0 31 -12t12 -31q0 -6 -11 -24zM571 0v1153h-239q-56 0 -56 43q0 41 56 41h323v-1237h-84z" />
    <glyph glyph-name="nacute" unicode="&#x144;" 
d="M887 1227l-234 -205q-23 -18 -39 -18q-17 0 -29 12t-12 31q0 10 4.5 17t20.5 21l233 205q24 19 39 19q17 0 29 -12t12 -31q0 -18 -24 -39zM342 854v-141q89 98 157 134t163 36q136 0 228.5 -80t92.5 -199v-604h-84v590q0 89 -78 155q-37 31 -72.5 42.5t-95.5 11.5
q-112 0 -194 -68q-38 -28 -117 -129v-602h-84v854h84z" />
    <glyph glyph-name="ncaron" unicode="&#x148;" 
d="M614 1004l-270 223q-27 19 -27 41q0 17 12 29t29 12q13 0 37 -17l219 -180l220 180q24 17 36 17q15 0 28 -13t13 -28q0 -23 -26 -43zM342 854v-141q89 98 157 134t163 36q136 0 228.5 -80t92.5 -199v-604h-84v590q0 89 -78 155q-37 31 -72.5 42.5t-95.5 11.5
q-112 0 -194 -68q-38 -28 -117 -129v-602h-84v854h84z" />
    <glyph glyph-name="ntilde" unicode="&#xf1;" 
d="M871 1235q16 0 28.5 -12t12.5 -29q0 -12 -9 -25t-36 -39q-73 -73 -142 -73q-34 0 -69 13.5t-96 49.5q-53 35 -88 35q-30 0 -52 -14t-67 -62q-13 -16 -35 -16q-17 0 -29 11t-12 28q0 22 39 61q44 41 79.5 58.5t73.5 17.5q31 0 57 -9t75 -38q62 -34 81.5 -42.5t38.5 -8.5
q26 0 48.5 15t68.5 63q16 16 33 16zM342 854v-141q89 98 157 134t163 36q136 0 228.5 -80t92.5 -199v-604h-84v590q0 89 -78 155q-37 31 -72.5 42.5t-95.5 11.5q-112 0 -194 -68q-38 -28 -117 -129v-602h-84v854h84z" />
    <glyph glyph-name="odieresis" unicode="&#xf6;" 
d="M387 1251q43 0 73 -30.5t30 -73.5q0 -40 -31 -70t-72 -30t-71.5 30.5t-30.5 71.5t30.5 71.5t71.5 30.5zM840 1251q43 0 72.5 -30.5t29.5 -73.5q0 -40 -30.5 -70t-71.5 -30t-72 30.5t-31 71.5t31 71.5t72 30.5zM614 883q197 0 332 -134t135 -329q0 -123 -62.5 -227.5
t-170 -165t-234.5 -60.5q-195 0 -331 133.5t-136 325.5q0 189 136 323t331 134zM614 799q-160 0 -271.5 -109t-111.5 -264q0 -157 111.5 -266t271.5 -109q158 0 270.5 108.5t112.5 260.5q0 161 -110.5 270t-272.5 109z" />
    <glyph glyph-name="oacute" unicode="&#xf3;" 
d="M815 1227l-234 -205q-23 -18 -39 -18q-17 0 -29 12t-12 31q0 10 4.5 17t20.5 21l233 205q24 19 39 19q17 0 29 -12t12 -31q0 -18 -24 -39zM614 883q197 0 332 -134t135 -329q0 -123 -62.5 -227.5t-170 -165t-234.5 -60.5q-195 0 -331 133.5t-136 325.5q0 189 136 323
t331 134zM614 799q-160 0 -271.5 -109t-111.5 -264q0 -157 111.5 -266t271.5 -109q158 0 270.5 108.5t112.5 260.5q0 161 -110.5 270t-272.5 109z" />
    <glyph glyph-name="ograve" unicode="&#xf2;" 
d="M471 1290l234 -205l14 -16q10 -10 10 -22q0 -19 -12 -31t-31 -12q-16 0 -37 18l-233 205q-25 22 -25 41q0 17 12 29t29 12q14 0 39 -19zM614 883q197 0 332 -134t135 -329q0 -123 -62.5 -227.5t-170 -165t-234.5 -60.5q-195 0 -331 133.5t-136 325.5q0 189 136 323
t331 134zM614 799q-160 0 -271.5 -109t-111.5 -264q0 -157 111.5 -266t271.5 -109q158 0 270.5 108.5t112.5 260.5q0 161 -110.5 270t-272.5 109z" />
    <glyph glyph-name="ocircumflex" unicode="&#xf4;" 
d="M614 1309l271 -222q26 -20 26 -43q0 -17 -12 -28.5t-29 -11.5q-14 0 -36 16l-220 180l-219 -180q-22 -16 -37 -16q-17 0 -29 11.5t-12 28.5q0 22 27 41zM614 883q197 0 332 -134t135 -329q0 -123 -62.5 -227.5t-170 -165t-234.5 -60.5q-195 0 -331 133.5t-136 325.5
q0 189 136 323t331 134zM614 799q-160 0 -271.5 -109t-111.5 -264q0 -157 111.5 -266t271.5 -109q158 0 270.5 108.5t112.5 260.5q0 161 -110.5 270t-272.5 109z" />
    <glyph glyph-name="otilde" unicode="&#xf5;" 
d="M903 1235q16 0 28.5 -12t12.5 -29q0 -12 -9 -25t-36 -39q-73 -73 -142 -73q-34 0 -69 13.5t-96 49.5q-53 35 -88 35q-30 0 -52 -14t-67 -62q-13 -16 -35 -16q-17 0 -29 11t-12 28q0 22 39 61q44 41 79.5 58.5t73.5 17.5q31 0 57 -9t75 -38q62 -34 81.5 -42.5t38.5 -8.5
q26 0 48.5 15t68.5 63q16 16 33 16zM614 883q197 0 332 -134t135 -329q0 -123 -62.5 -227.5t-170 -165t-234.5 -60.5q-195 0 -331 133.5t-136 325.5q0 189 136 323t331 134zM614 799q-160 0 -271.5 -109t-111.5 -264q0 -157 111.5 -266t271.5 -109q158 0 270.5 108.5
t112.5 260.5q0 161 -110.5 270t-272.5 109z" />
    <glyph glyph-name="ohungarumlaut" unicode="&#x151;" 
d="M596 1214l-199 -192q-21 -18 -39 -18q-17 0 -29 12t-12 31q0 11 4 17t21 21l201 193q18 18 37 18q17 0 29 -12t12 -31q0 -14 -25 -39zM887 1214l-201 -192q-21 -18 -39 -18q-17 0 -29 12t-12 31q0 16 19 32l6 6l200 193q21 18 39 18q17 0 29 -12t12 -31q0 -18 -24 -39z
M614 883q197 0 332 -134t135 -329q0 -123 -62.5 -227.5t-170 -165t-234.5 -60.5q-195 0 -331 133.5t-136 325.5q0 189 136 323t331 134zM614 799q-160 0 -271.5 -109t-111.5 -264q0 -157 111.5 -266t271.5 -109q158 0 270.5 108.5t112.5 260.5q0 161 -110.5 270t-272.5 109z
" />
    <glyph glyph-name="racute" unicode="&#x155;" 
d="M887 1227l-234 -205q-23 -18 -39 -18q-17 0 -29 12t-12 31q0 10 4.5 17t20.5 21l233 205q24 19 39 19q17 0 29 -12t12 -31q0 -18 -24 -39zM508 854v-209q142 128 229 178.5t166 50.5q84 0 158 -63q47 -39 47 -63q0 -19 -12 -31t-31 -12q-17 0 -33 16q-73 70 -135 70
q-69 0 -144.5 -49.5t-244.5 -204.5v-537h-84v854h84z" />
    <glyph glyph-name="sacute" unicode="&#x15b;" 
d="M887 1227l-234 -205q-23 -18 -39 -18q-17 0 -29 12t-12 31q0 10 4.5 17t20.5 21l233 205q24 19 39 19q17 0 29 -12t12 -31q0 -18 -24 -39zM254 281q18 0 29.5 -12.5t11.5 -32.5v-15q0 -70 92 -120t223 -50q135 0 225.5 53.5t90.5 135.5q0 35 -24.5 70.5t-65.5 58.5
q-71 39 -222 55q-114 12 -168.5 25.5t-97.5 39.5q-43 28 -68.5 71.5t-25.5 90.5q0 100 99.5 166t250.5 66q159 0 266 -80q46 -34 71 -75t27 -75q0 -1 0.5 -2t0.5 -2q0 -46 -41 -49q-37 0 -43 47q-8 69 -82 110.5t-191 41.5q-114 0 -190 -44t-76 -110q0 -54 66 -92
q35 -22 70 -30t167 -21q173 -19 266 -80q48 -33 75.5 -81.5t27.5 -102.5q0 -117 -114.5 -194t-287.5 -77q-196 0 -317 103q-82 70 -88 152v8q0 51 43 51z" />
    <glyph glyph-name="scaron" unicode="&#x161;" 
d="M626 1004l-270 223q-27 19 -27 41q0 17 12 29t29 12q13 0 37 -17l219 -180l220 180q24 17 36 17q15 0 28 -13t13 -28q0 -23 -26 -43zM254 281q18 0 29.5 -12.5t11.5 -32.5v-15q0 -70 92 -120t223 -50q135 0 225.5 53.5t90.5 135.5q0 35 -24.5 70.5t-65.5 58.5
q-71 39 -222 55q-114 12 -168.5 25.5t-97.5 39.5q-43 28 -68.5 71.5t-25.5 90.5q0 100 99.5 166t250.5 66q159 0 266 -80q46 -34 71 -75t27 -75q0 -1 0.5 -2t0.5 -2q0 -46 -41 -49q-37 0 -43 47q-8 69 -82 110.5t-191 41.5q-114 0 -190 -44t-76 -110q0 -54 66 -92
q35 -22 70 -30t167 -21q173 -19 266 -80q48 -33 75.5 -81.5t27.5 -102.5q0 -117 -114.5 -194t-287.5 -77q-196 0 -317 103q-82 70 -88 152v8q0 51 43 51z" />
    <glyph glyph-name="scommaaccent" unicode="&#x219;" 
d="M651 -199l-172 -258q-19 -28 -43 -28q-17 0 -29 12t-12 31q0 11 15 32l172 258q20 29 43 29q19 0 31 -12t12 -31q0 -6 -11 -24zM254 281q18 0 29.5 -12.5t11.5 -32.5v-15q0 -70 92 -120t223 -50q135 0 225.5 53.5t90.5 135.5q0 35 -24.5 70.5t-65.5 58.5q-71 39 -222 55
q-114 12 -168.5 25.5t-97.5 39.5q-43 28 -68.5 71.5t-25.5 90.5q0 100 99.5 166t250.5 66q159 0 266 -80q46 -34 71 -75t27 -75q0 -1 0.5 -2t0.5 -2q0 -46 -41 -49q-37 0 -43 47q-8 69 -82 110.5t-191 41.5q-114 0 -190 -44t-76 -110q0 -54 66 -92q35 -22 70 -30t167 -21
q173 -19 266 -80q48 -33 75.5 -81.5t27.5 -102.5q0 -117 -114.5 -194t-287.5 -77q-196 0 -317 103q-82 70 -88 152v8q0 51 43 51z" />
    <glyph glyph-name="tcaron" unicode="&#x165;" 
d="M1024 1185l-172 -258q-19 -28 -43 -28q-17 0 -29 12t-12 31q0 11 15 32l172 258q20 29 43 29q19 0 31 -12t12 -31q0 -6 -11 -24zM381 854h450q56 0 56 -41q0 -43 -56 -43h-450v-547q0 -78 62 -125t167 -47q86 0 183 23.5t157 58.5q19 12 33 12q15 0 27 -13t12 -28
q0 -29 -65 -61.5t-161.5 -54t-181.5 -21.5q-145 0 -231 68.5t-86 183.5v551h-152q-57 0 -57 43q0 41 57 41h152v244q0 55 43 55q22 0 31.5 -13t9.5 -42v-244z" />
    <glyph glyph-name="udieresis" unicode="&#xfc;" 
d="M371 1251q43 0 73 -30.5t30 -73.5q0 -40 -31 -70t-72 -30t-71.5 30.5t-30.5 71.5t30.5 71.5t71.5 30.5zM824 1251q43 0 72.5 -30.5t29.5 -73.5q0 -40 -30.5 -70t-71.5 -30t-72 30.5t-31 71.5t31 71.5t72 30.5zM983 854v-854h-84v135q-171 -168 -373 -168
q-123 0 -197.5 73.5t-74.5 195.5v618h84v-618q0 -77 54 -131t132 -54q205 0 375 185v618h84z" />
    <glyph glyph-name="uacute" unicode="&#xfa;" 
d="M785 1227l-234 -205q-23 -18 -39 -18q-17 0 -29 12t-12 31q0 10 4.5 17t20.5 21l233 205q24 19 39 19q17 0 29 -12t12 -31q0 -18 -24 -39zM983 854v-854h-84v135q-171 -168 -373 -168q-123 0 -197.5 73.5t-74.5 195.5v618h84v-618q0 -77 54 -131t132 -54q205 0 375 185
v618h84z" />
    <glyph glyph-name="ugrave" unicode="&#xf9;" 
d="M454 1290l234 -205l14 -16q10 -10 10 -22q0 -19 -12 -31t-31 -12q-16 0 -37 18l-233 205q-25 22 -25 41q0 17 12 29t29 12q14 0 39 -19zM983 854v-854h-84v135q-171 -168 -373 -168q-123 0 -197.5 73.5t-74.5 195.5v618h84v-618q0 -77 54 -131t132 -54q205 0 375 185v618
h84z" />
    <glyph glyph-name="ucircumflex" unicode="&#xfb;" 
d="M598 1309l271 -222q26 -20 26 -43q0 -17 -12 -28.5t-29 -11.5q-14 0 -36 16l-220 180l-219 -180q-22 -16 -37 -16q-17 0 -29 11.5t-12 28.5q0 22 27 41zM983 854v-854h-84v135q-171 -168 -373 -168q-123 0 -197.5 73.5t-74.5 195.5v618h84v-618q0 -77 54 -131t132 -54
q205 0 375 185v618h84z" />
    <glyph glyph-name="uring" unicode="&#x16f;" 
d="M614 1354q80 0 135.5 -55t55.5 -134q0 -74 -56.5 -128t-134.5 -54t-134 55t-56 131q0 75 56 130t134 55zM614 1286q-51 0 -86.5 -34.5t-35.5 -82.5q0 -49 35.5 -83.5t86.5 -34.5t87 34.5t36 81.5q0 49 -36 84t-87 35zM983 854v-854h-84v135q-171 -168 -373 -168
q-123 0 -197.5 73.5t-74.5 195.5v618h84v-618q0 -77 54 -131t132 -54q205 0 375 185v618h84z" />
    <glyph glyph-name="uhungarumlaut" unicode="&#x171;" 
d="M637 1214l-199 -192q-21 -18 -39 -18q-17 0 -29 12t-12 31q0 11 4 17t21 21l201 193q18 18 37 18q17 0 29 -12t12 -31q0 -14 -25 -39zM928 1214l-201 -192q-21 -18 -39 -18q-17 0 -29 12t-12 31q0 16 19 32l6 6l200 193q21 18 39 18q17 0 29 -12t12 -31q0 -18 -24 -39z
M983 854v-854h-84v135q-171 -168 -373 -168q-123 0 -197.5 73.5t-74.5 195.5v618h84v-618q0 -77 54 -131t132 -54q205 0 375 185v618h84z" />
    <glyph glyph-name="yacute" unicode="&#xfd;" 
d="M887 1227l-234 -205q-23 -18 -39 -18q-17 0 -29 12t-12 31q0 10 4.5 17t20.5 21l233 205q24 19 39 19q17 0 29 -12t12 -31q0 -18 -24 -39zM1081 854l-606 -1235h-84l187 381l-426 854h96l377 -762l370 762h86z" />
    <glyph glyph-name="zacute" unicode="&#x17a;" 
d="M1001 0h-765v74l616 696h-598v84h717v-74l-621 -696h651v-84zM887 1227l-234 -205q-23 -18 -39 -18q-17 0 -29 12t-12 31q0 10 4.5 17t20.5 21l233 205q24 19 39 19q17 0 29 -12t12 -31q0 -18 -24 -39z" />
    <glyph glyph-name="zcaron" unicode="&#x17e;" 
d="M610 1004l-270 223q-27 19 -27 41q0 17 12 29t29 12q13 0 37 -17l219 -180l219 180q24 17 37 17q15 0 28 -13t13 -28q0 -23 -26 -43zM1001 0h-765v74l616 696h-598v84h717v-74l-621 -696h651v-84z" />
    <glyph glyph-name="zdotaccent" unicode="&#x17c;" 
d="M614 1251q43 0 73 -30.5t30 -73.5q0 -40 -31 -70t-72 -30t-71.5 30.5t-30.5 71.5t30.5 71.5t71.5 30.5zM1001 0h-765v74l616 696h-598v84h717v-74l-621 -696h651v-84z" />
    <glyph glyph-name="ydieresis" unicode="&#xff;" 
d="M387 1251q43 0 73 -30.5t30 -73.5q0 -40 -31 -70t-72 -30t-71.5 30.5t-30.5 71.5t30.5 71.5t71.5 30.5zM840 1251q43 0 72.5 -30.5t29.5 -73.5q0 -40 -30.5 -70t-71.5 -30t-72 30.5t-31 71.5t31 71.5t72 30.5zM1081 854l-606 -1235h-84l187 381l-426 854h96l377 -762
l370 762h86z" />
    <glyph glyph-name="tcommaaccent" unicode="&#x163;" 
d="M651 -199l-172 -258q-19 -28 -43 -28q-17 0 -29 12t-12 31q0 11 15 32l172 258q20 29 43 29q19 0 31 -12t12 -31q0 -6 -11 -24zM381 854h450q56 0 56 -41q0 -43 -56 -43h-450v-547q0 -78 62 -125t167 -47q86 0 183 23.5t157 58.5q19 12 33 12q15 0 27 -13t12 -28
q0 -29 -65 -61.5t-161.5 -54t-181.5 -21.5q-145 0 -231 68.5t-86 183.5v551h-152q-57 0 -57 43q0 41 57 41h152v244q0 55 43 55q22 0 31.5 -13t9.5 -42v-244z" />
    <glyph glyph-name="amacron" unicode="&#x101;" 
d="M856 1098h-483q-56 0 -56 41t56 41h483q55 0 55 -41t-55 -41zM858 0v137q-182 -170 -391 -170q-143 0 -231.5 72.5t-88.5 189.5q0 133 120.5 216t312.5 83q70 0 128.5 -9t149.5 -34v146q0 75 -70 121.5t-182 46.5q-55 0 -112 -12.5t-179 -49.5q-16 -4 -20 -4
q-15 0 -27 12t-12 29q0 31 35 43q85 29 174.5 47.5t146.5 18.5q142 0 236 -71.5t94 -180.5v-631h-84zM858 229v185q-123 30 -262 30q-163 0 -264 -60t-101 -157q0 -80 64 -128t170 -48q109 0 200 41t193 137z" />
    <glyph glyph-name="emacron" unicode="&#x113;" 
d="M1065 408h-852q22 -161 135 -259t279 -98q96 0 196.5 31t161.5 80q20 14 33 14q15 0 27 -12t12 -29q0 -35 -68.5 -75t-171 -66.5t-192.5 -26.5q-207 0 -351.5 139t-144.5 338q0 186 135 312.5t332 126.5q147 0 262.5 -73.5t171.5 -201.5q22 -50 28.5 -89.5t6.5 -110.5z
M213 492h766q-25 139 -129.5 223t-253.5 84t-252 -83t-131 -224zM856 1098h-483q-56 0 -56 41t56 41h483q55 0 55 -41t-55 -41z" />
    <glyph glyph-name="imacron" unicode="&#x12b;" 
d="M571 0v770h-241q-56 0 -56 43q0 41 56 41h325v-854h-84zM856 1098h-483q-56 0 -56 41t56 41h483q55 0 55 -41t-55 -41z" />
    <glyph glyph-name="kcommaaccent" unicode="&#x137;" 
d="M295 0v1237h84v-768l455 385h124l-421 -352l507 -502h-118l-453 449l-94 -80v-369h-84zM651 -199l-172 -258q-19 -28 -43 -28q-17 0 -29 12t-12 31q0 11 15 32l172 258q20 29 43 29q19 0 31 -12t12 -31q0 -6 -11 -24z" />
    <glyph glyph-name="lcommaaccent" unicode="&#x13c;" 
d="M651 -199l-172 -258q-19 -28 -43 -28q-17 0 -29 12t-12 31q0 11 15 32l172 258q20 29 43 29q19 0 31 -12t12 -31q0 -6 -11 -24zM571 0v1153h-239q-56 0 -56 43q0 41 56 41h323v-1237h-84z" />
    <glyph glyph-name="ncommaaccent" unicode="&#x146;" 
d="M651 -199l-172 -258q-19 -28 -43 -28q-17 0 -29 12t-12 31q0 11 15 32l172 258q20 29 43 29q19 0 31 -12t12 -31q0 -6 -11 -24zM342 854v-141q89 98 157 134t163 36q136 0 228.5 -80t92.5 -199v-604h-84v590q0 89 -78 155q-37 31 -72.5 42.5t-95.5 11.5q-112 0 -194 -68
q-38 -28 -117 -129v-602h-84v854h84z" />
    <glyph glyph-name="omacron" unicode="&#x14d;" 
d="M856 1098h-483q-56 0 -56 41t56 41h483q55 0 55 -41t-55 -41zM614 883q197 0 332 -134t135 -329q0 -123 -62.5 -227.5t-170 -165t-234.5 -60.5q-195 0 -331 133.5t-136 325.5q0 189 136 323t331 134zM614 799q-160 0 -271.5 -109t-111.5 -264q0 -157 111.5 -266
t271.5 -109q158 0 270.5 108.5t112.5 260.5q0 161 -110.5 270t-272.5 109z" />
    <glyph glyph-name="rcommaaccent" unicode="&#x157;" 
d="M569 -199l-172 -258q-19 -28 -43 -28q-17 0 -29 12t-12 31q0 11 15 32l172 258q20 29 43 29q19 0 31 -12t12 -31q0 -6 -11 -24zM508 854v-209q142 128 229 178.5t166 50.5q84 0 158 -63q47 -39 47 -63q0 -19 -12 -31t-31 -12q-17 0 -33 16q-73 70 -135 70
q-69 0 -144.5 -49.5t-244.5 -204.5v-537h-84v854h84z" />
    <glyph glyph-name="umacron" unicode="&#x16b;" 
d="M856 1098h-483q-56 0 -56 41t56 41h483q55 0 55 -41t-55 -41zM983 854v-854h-84v135q-171 -168 -373 -168q-123 0 -197.5 73.5t-74.5 195.5v618h84v-618q0 -77 54 -131t132 -54q205 0 375 185v618h84z" />
    <glyph glyph-name="uogonek" unicode="&#x173;" 
d="M899 84h154q55 0 55 -41q0 -27 -27 -39q-93 -51 -134.5 -95t-41.5 -91q0 -70 88 -70q30 0 47 5.5t54 27.5q9 6 16 6q11 0 20 -9.5t9 -21.5q0 -26 -50 -49.5t-108 -23.5q-74 0 -115 33t-41 91q0 64 36 108t122 85h-84v84zM983 854v-854h-84v135q-171 -168 -373 -168
q-123 0 -197.5 73.5t-74.5 195.5v618h84v-618q0 -77 54 -131t132 -54q205 0 375 185v618h84z" />
    <glyph glyph-name="rcaron" unicode="&#x159;" 
d="M614 1004l-270 223q-27 19 -27 41q0 17 12 29t29 12q13 0 37 -17l219 -180l220 180q24 17 36 17q15 0 28 -13t13 -28q0 -23 -26 -43zM508 854v-209q142 128 229 178.5t166 50.5q84 0 158 -63q47 -39 47 -63q0 -19 -12 -31t-31 -12q-17 0 -33 16q-73 70 -135 70
q-69 0 -144.5 -49.5t-244.5 -204.5v-537h-84v854h84z" />
    <glyph glyph-name="scedilla" unicode="&#x15f;" 
d="M561 0h78v-96q63 -2 98 -34.5t35 -90.5q0 -60 -45 -96.5t-117 -36.5q-71 0 -143 37q-21 10 -29 20t-8 25q0 17 12 28t29 11q9 0 31 -11q58 -32 104 -32q40 0 65 16.5t25 42.5q0 51 -94 51h-41v166zM254 281q18 0 29.5 -12.5t11.5 -32.5v-15q0 -70 92 -120t223 -50
q135 0 225.5 53.5t90.5 135.5q0 35 -24.5 70.5t-65.5 58.5q-71 39 -222 55q-114 12 -168.5 25.5t-97.5 39.5q-43 28 -68.5 71.5t-25.5 90.5q0 100 99.5 166t250.5 66q159 0 266 -80q46 -34 71 -75t27 -75q0 -1 0.5 -2t0.5 -2q0 -46 -41 -49q-37 0 -43 47q-8 69 -82 110.5
t-191 41.5q-114 0 -190 -44t-76 -110q0 -54 66 -92q35 -22 70 -30t167 -21q173 -19 266 -80q48 -33 75.5 -81.5t27.5 -102.5q0 -117 -114.5 -194t-287.5 -77q-196 0 -317 103q-82 70 -88 152v8q0 51 43 51z" />
    <glyph glyph-name="gcommaaccent" unicode="&#x123;" 
d="M733 1288l-172 -258q-19 -28 -43 -28q-17 0 -29 12t-12 31q0 11 15 32l172 258q20 29 43 29q19 0 31 -12t12 -31q0 -6 -11 -24zM901 854h84v-911q0 -118 -88 -213q-105 -111 -250 -111h-233q-56 0 -56 43q0 41 56 41h237q104 0 177 74t73 178v264q-69 -102 -154.5 -150.5
t-195.5 -48.5q-173 0 -297.5 127.5t-124.5 305.5t124 304t298 126q112 0 196.5 -48t153.5 -151v170zM557 799q-145 0 -244.5 -100.5t-99.5 -245.5q0 -146 100.5 -247.5t243.5 -101.5q142 0 243 101t101 244q0 149 -99 249.5t-245 100.5z" />
    <glyph glyph-name="iogonek" unicode="&#x12f;" 
d="M655 84h328q57 0 57 -41q0 -27 -26 -39q-106 -57 -144.5 -96t-38.5 -90q0 -70 89 -70q30 0 46.5 5.5t53.5 27.5q9 6 16 6q11 0 20 -9.5t9 -21.5q0 -26 -50 -49.5t-108 -23.5q-73 0 -114 32.5t-41 91.5q0 65 35.5 108.5t121.5 84.5h-282q-20 0 -2 29q27 40 29 48q1 4 1 7z
M571 0v770h-241q-56 0 -56 43q0 41 56 41h325v-854h-84zM651 1278v-213h-121v213h121z" />
    <glyph glyph-name="Scommaaccent" unicode="&#x218;" 
d="M188 285q0 55 43 55q38 0 41 -49q4 -101 104 -170.5t240 -69.5q143 0 238.5 74.5t95.5 187.5q0 54 -24.5 100t-67.5 72q-36 24 -81.5 37.5t-155.5 32.5q-109 19 -171.5 40t-107.5 54q-51 35 -78.5 91.5t-27.5 121.5q0 135 107.5 226.5t268.5 91.5q93 0 170 -30.5
t121.5 -77t68 -95t23.5 -90.5q0 -56 -41 -56q-40 0 -43 50q-6 92 -89.5 153.5t-203.5 61.5q-126 0 -209 -67.5t-83 -168.5q0 -100 80 -155q40 -27 88.5 -42t142.5 -30q120 -21 175.5 -37t100.5 -45q60 -37 93.5 -100.5t33.5 -141.5q0 -149 -119 -245.5t-303 -96.5
q-111 0 -211.5 47t-159.5 120.5t-59 150.5zM651 -199l-172 -258q-19 -28 -43 -28q-17 0 -29 12t-12 31q0 11 15 32l172 258q20 29 43 29q19 0 31 -12t12 -31q0 -6 -11 -24z" />
    <glyph glyph-name="Eth" unicode="&#xd0;" 
d="M55 557q-55 0 -55 43q0 41 55 41h574q55 0 55 -41q0 -43 -55 -43h-574zM596 0h-383v1153h381h8q195 -3 329 -153t134 -365v-115q0 -143 -61.5 -262.5t-169.5 -188.5t-238 -69zM297 84h307q96 0 184 59t140.5 156t52.5 203v149q0 82 -36 167.5t-97 148.5q-54 54 -114.5 78
t-143.5 24h-293v-985z" />
    <glyph glyph-name="Dcroat" unicode="&#x110;" 
d="M55 557q-55 0 -55 43q0 41 55 41h574q55 0 55 -41q0 -43 -55 -43h-574zM596 0h-383v1153h381h8q195 -3 329 -153t134 -365v-115q0 -143 -61.5 -262.5t-169.5 -188.5t-238 -69zM297 84h307q96 0 184 59t140.5 156t52.5 203v149q0 82 -36 167.5t-97 148.5q-54 54 -114.5 78
t-143.5 24h-293v-985z" />
    <glyph glyph-name="Thorn" unicode="&#xde;" 
d="M338 268v-184h283q57 0 57 -41q0 -43 -57 -43h-478q-55 0 -55 43q0 41 55 41h111v985h-111q-55 0 -55 43q0 41 55 41h478q57 0 57 -41q0 -43 -57 -43h-283v-121h297q163 0 275 -98t112 -240q0 -143 -121 -242.5t-295 -99.5h-268zM338 352h274q134 0 230 76t96 182
q0 104 -87 179t-208 75h-305v-512z" />
    <glyph glyph-name="dcroat" unicode="&#x111;" 
d="M1141 981h-479q-56 0 -56 43q0 41 56 41h479q53 0 53 -41q0 -43 -53 -43zM944 0v182q-144 -215 -373 -215q-120 0 -222 62t-161 167.5t-59 229.5q0 189 129.5 323t312.5 134q226 0 373 -213v567h84v-1237h-84zM578 799q-152 0 -258.5 -109t-106.5 -264q0 -157 106.5 -266
t260.5 -109q151 0 257.5 108.5t106.5 262.5q0 160 -105.5 268.5t-260.5 108.5z" />
    <glyph glyph-name="eth" unicode="&#xf0;" 
d="M901 1182l-153 -70q153 -131 243 -310t90 -349q0 -220 -135 -355q-136 -133 -332 -133q-195 0 -331 133.5t-136 325.5q0 189 135.5 323t327.5 134q84 0 149.5 -24t149.5 -85q-52 98 -117 177.5t-130 125.5l-187 -86q-4 -2 -14 -2q-15 0 -28 14.5t-13 32.5q0 27 18 33
l129 57q-110 46 -200 64q-41 8 -41 37q0 20 12 32.5t31 12.5q41 0 126.5 -28t176.5 -71l194 86l15 3q15 0 27 -12.5t12 -30.5q0 -27 -19 -35zM616 799q-160 0 -271.5 -109t-111.5 -264q0 -157 111.5 -266t271.5 -109q158 0 270.5 108.5t112.5 260.5q0 161 -110.5 270
t-272.5 109z" />
    <glyph glyph-name="thorn" unicode="&#xfe;" 
d="M295 1208v-522q82 106 166 151.5t201 45.5q190 0 318 -123.5t128 -306.5t-128.5 -308t-317.5 -125q-118 0 -207 48t-160 149v-514h201q55 0 55 -41q0 -43 -55 -43h-396q-55 0 -55 43q0 41 55 41h111v1421h-111q-55 0 -55 43q0 41 55 41h195zM659 799q-152 0 -258 -100.5
t-106 -245.5q0 -146 106 -247.5t258 -101.5q151 0 258 101.5t107 243.5q0 149 -105 249.5t-260 100.5z" />
    <glyph glyph-name="Euro" unicode="&#x20ac;" 
d="M1063 868q0 -55 -43 -55q-38 0 -41 49q-6 94 -112 164t-242 70q-154 0 -267 -105t-141 -272h590q24 0 33.5 -8t9.5 -29q0 -22 -9 -30.5t-34 -8.5h-594v-123h535q24 0 33.5 -8t9.5 -29q0 -22 -10 -30.5t-33 -8.5h-531q28 -169 153.5 -281t288.5 -112q106 0 190 43.5
t167 141.5q18 20 37 20t30 -11t11 -28q0 -32 -78 -104q-158 -146 -357 -146q-95 0 -186.5 38t-162 102t-118.5 152.5t-59 184.5h-65q-25 0 -35 8.5t-10 30.5q0 20 10 28.5t35 8.5h61v123h-61q-25 0 -35 8.5t-10 30.5q0 21 9.5 29t35.5 8h65q23 198 163 329.5t329 131.5
q44 0 93 -8.5t106 -31t104.5 -56t84.5 -90t50 -126.5z" />
    <glyph glyph-name="onesuperior" unicode="&#xb9;" 
d="M580 530v623l-134 -43q-16 -4 -18 -4q-12 0 -23.5 12t-11.5 25q0 17 10 25t58.5 24.5t167.5 53.5q16 5 24 7v-723h-73z" />
    <glyph glyph-name="twosuperior" unicode="&#xb2;" 
d="M829 530h-471v88l271 252q77 77 100 110t23 67q0 54 -44.5 93.5t-103.5 39.5q-53 0 -95.5 -30t-55.5 -77q-9 -33 -37 -33q-14 0 -24.5 11t-10.5 24q0 39 39 88q71 90 184 90q89 0 155 -61.5t66 -144.5q0 -47 -25 -88.5t-98 -115.5t-253 -239h380v-74z" />
    <glyph glyph-name="threesuperior" unicode="&#xb3;" 
d="M733 913q119 -73 119 -180q0 -90 -73 -154.5t-175 -64.5q-76 0 -154.5 37t-78.5 72q0 13 10.5 23.5t24.5 10.5t26 -10q84 -59 172 -59q70 0 122 43t52 102q0 62 -53.5 105.5t-134.5 44.5q-43 3 -43 37q0 20 18 32q6 4 58 4q57 0 94 31.5t37 77.5q0 49 -40 82t-100 33
q-91 0 -141 -56q-15 -20 -33 -20q-15 0 -26 10.5t-11 24.5q0 38 70 76t141 38q91 0 152 -54t61 -134q0 -90 -94 -152z" />
    <glyph glyph-name="degree" unicode="&#xb0;" 
d="M614 1303q123 0 210 -87t87 -210t-87 -210t-210 -87q-124 0 -210.5 87.5t-86.5 213.5q0 120 87.5 206.5t209.5 86.5zM614 1219q-88 0 -150.5 -62.5t-62.5 -148.5q0 -89 62 -152t151 -63q88 0 150.5 62.5t62.5 150.5t-62.5 150.5t-150.5 62.5z" />
    <glyph glyph-name="minus" unicode="&#x2212;" 
d="M203 618h823q55 0 55 -40q0 -43 -55 -43h-823q-56 0 -56 43q0 40 56 40z" />
    <glyph glyph-name="multiply" unicode="&#xd7;" 
d="M614 637l291 291q22 22 39 22q18 0 30.5 -12.5t12.5 -30.5q0 -17 -22 -39l-291 -290l291 -293q22 -20 22 -39q0 -17 -12 -29t-31 -12t-39 20l-291 293l-290 -293q-23 -20 -39 -20q-19 0 -31 12t-12 29q0 19 20 39l293 293l-293 290q-20 23 -20 39q0 19 12 31t31 12
q15 0 37 -22z" />
    <glyph glyph-name="divide" unicode="&#xf7;" 
d="M1026 537h-823q-56 0 -56 41q0 40 56 40h823q55 0 55 -40q0 -41 -55 -41zM614 254q43 0 73 -29.5t30 -72.5q0 -41 -31 -71t-72 -30t-70.5 30t-29.5 73q0 40 29.5 70t70.5 30zM614 1106q43 0 73 -29.5t30 -72.5q0 -41 -31 -71t-72 -30t-70.5 30t-29.5 73q0 40 29.5 70
t70.5 30z" />
    <glyph glyph-name="trademark" unicode="&#x2122;" 
d="M8 1085v68h496v-68h-215v-587h-68v587h-213zM1155 1153v-655h-68v567l-167 -377h-66l-170 377v-567h-68v655h101l170 -377l166 377h102z" />
    <glyph glyph-name="plusminus" unicode="&#xb1;" 
d="M655 616v-331q0 -56 -41 -56q-43 0 -43 56v331h-368q-56 0 -56 41t56 41h368v330q0 55 43 55q41 0 41 -55v-330h369q57 0 57 -41t-57 -41h-369zM203 82h823q55 0 55 -41t-55 -41h-823q-56 0 -56 41t56 41z" />
    <glyph glyph-name="onehalf" unicode="&#xbd;" 
d="M993 977l-719 -848q-20 -25 -36 -25q-17 0 -29 12t-12 29q0 14 18 35l717 848q23 25 37 25q17 0 29 -12t12 -29q0 -9 -17 -35zM236 530v623l-134 -43q-16 -4 -18 -4q-12 0 -23.5 12t-11.5 25q0 17 10 25t58.5 24.5t167.5 53.5q16 5 24 7v-723h-54h-19zM1174 0h-472v88
l271 252q77 77 100 109.5t23 66.5q0 54 -44.5 93.5t-103.5 39.5q-53 0 -95.5 -29.5t-55.5 -76.5q-9 -33 -37 -33q-14 0 -24.5 11t-10.5 24q0 39 39 88q71 90 184 90q89 0 155 -62t66 -145q0 -47 -25 -88.5t-97.5 -115t-253.5 -238.5h381v-74z" />
    <glyph glyph-name="onequarter" unicode="&#xbc;" 
d="M223 530v623l-133 -43q-16 -4 -18 -4q-12 0 -23.5 12t-11.5 25q0 17 10 25t58.5 24.5t167.5 53.5q16 5 24 7v-723h-54h-20zM1008 977l-719 -848q-20 -25 -37 -25t-29 12t-12 29q0 14 18 35l717 848q23 25 37 25q17 0 29 -12t12 -29q0 -11 -16 -35zM1044 0v190h-305v70
l262 447h117v-443h27q43 0 43 -37t-51 -37h-19v-190v0h-1h-1h-1h-1h-1h-1h-1h-2h-1h-2h-1h-2h-2h-2h-3h-2h-2h-3h-3h-3h-3h-3h-4h-4h-5h-5h-6h-9zM1044 264v369h-4l-219 -369h223z" />
    <glyph glyph-name="threequarters" unicode="&#xbe;" 
d="M1044 0v190h-305v70l262 447h117v-443h27q43 0 43 -37t-51 -37h-19v-190h-98h24zM1044 264v369h-4l-219 -369h223zM375 913q119 -73 119 -180q0 -90 -73 -154.5t-175 -64.5q-76 0 -155 37t-79 72q0 13 10.5 23.5t24.5 10.5q15 0 27 -10q84 -59 172 -59q70 0 122 43
t52 102q0 62 -54 105.5t-135 44.5q-43 3 -43 37q0 19 19 32q6 4 57 4q57 0 94 31.5t37 77.5q0 50 -39.5 82.5t-99.5 32.5q-91 0 -141 -56q-15 -20 -33 -20q-15 0 -26 10.5t-11 24.5q0 38 70 76t141 38q91 0 152 -54t61 -134q0 -90 -94 -152zM1006 977l-719 -848
q-20 -25 -37 -25t-29 12t-12 29q0 14 18 35l717 848q22 25 37 25q17 0 29 -12t12 -29q0 -11 -16 -35z" />
    <glyph glyph-name="commaaccent" 
d="M735 -199l-172 -258q-19 -28 -43 -28q-17 0 -29 12t-12 31q0 11 15 32l172 258q20 29 43 29q19 0 31 -12t12 -31q0 -6 -11 -24z" />
    <glyph glyph-name="copyright" unicode="&#xa9;" 
d="M854 733q0 -41 -37 -41q-31 0 -37 39q-5 48 -57 82q-53 35 -123 35q-86 0 -150 -67q-63 -66 -63 -163v-79q0 -97 69 -167q69 -71 162 -71q102 0 185 96q15 17 33 17q13 0 24 -11q10 -10 10 -24q0 -27 -47 -68q-90 -84 -205 -84q-120 0 -212 92q-93 93 -93 213v93
q0 123 84 210t201 87q44 0 90 -12q49 -13 99 -57q52 -46 67 -120zM614 1184q250 0 428 -178q179 -179 179 -428q0 -257 -179 -433t-436 -176q-246 0 -423 179q-177 178 -177 430q0 250 178 428t430 178zM614 1100q-217 0 -370 -153q-154 -154 -154 -369t153 -370t363 -155
q224 0 377 153q154 154 154 372q0 214 -154 368t-369 154z" />
    <glyph glyph-name="registered" unicode="&#xae;" 
d="M913 246h-79q-115 243 -228 282h-129v-282h-74v661h234q94 0 154.5 -53.5t60.5 -136.5q0 -58 -38.5 -102.5t-104.5 -63.5q52 -33 114.5 -129t89.5 -176zM477 602h115q86 0 136 32t50 87q0 50 -40 81.5t-103 31.5h-158v-232zM614 1184q123 0 235.5 -48t194 -129.5
t129.5 -193.5t48 -235q0 -167 -81.5 -307t-223 -221t-310.5 -81q-161 0 -299.5 82.5t-219.5 223t-81 303.5q0 164 81.5 304t221.5 221t305 81zM614 1100q-107 0 -203.5 -41t-167 -111t-112 -167t-41.5 -203q0 -141 70 -262t189 -192t257 -71q146 0 268 69.5t192.5 190.5
t70.5 265q0 141 -70.5 261.5t-191 190.5t-261.5 70z" />
    <glyph glyph-name="lozenge" unicode="&#x25ca;" 
d="M612 1178l435 -598l-435 -603l-430 603zM612 1042l-319 -462l319 -463l322 463z" />
    <glyph glyph-name="Delta" unicode="&#x394;" 
d="M88 0l481 1153h90l482 -1153h-1053zM211 82h807l-404 969z" />
    <glyph glyph-name="notequal" unicode="&#x2260;" 
d="M473 389h-313q-56 0 -56 41t56 41h354l107 213h-461q-56 0 -56 41t56 41h502l81 162q13 22 35 22q19 0 33 -12t14 -29q0 -6 -4 -14l-65 -129h313q55 0 55 -41t-55 -41h-354l-107 -213h461q55 0 55 -41t-55 -41h-504l-88 -174q-13 -22 -35 -22q-19 0 -32 10.5t-13 27.5
q0 5 4 17z" />
    <glyph glyph-name="radical" unicode="&#x221a;" 
d="M301 633l113 -430l409 1229h418q45 0 45 -37t-45 -37h-358l-475 -1358l-172 557h-136q-45 0 -45 37v2q0 37 45 37h201z" />
    <glyph glyph-name="lessequal" unicode="&#x2264;" 
d="M270 666l777 -365q28 -14 28 -37q0 -13 -10.5 -25t-22.5 -12q-11 0 -26 9l-907 432l907 422q15 6 24 6q13 0 24 -11.5t11 -25.5q0 -24 -28 -35zM1057 39v-2q0 -37 -45 -37h-858q-45 0 -45 37v2q0 37 45 37h858q45 0 45 -37z" />
    <glyph glyph-name="greaterequal" unicode="&#x2265;" 
d="M1087 668l-907 -432q-15 -9 -24 -9q-13 0 -24 11.5t-11 25.5q0 25 29 37l778 365l-778 358q-29 12 -29 35q0 14 11 25.5t24 11.5q9 0 24 -6zM184 76h858q45 0 45 -37v-2q0 -37 -45 -37h-858q-45 0 -45 37v2q0 37 45 37z" />
    <glyph glyph-name="logicalnot" unicode="&#xac;" 
d="M997 813h-794q-56 0 -56 43q0 41 56 41h878v-498q0 -55 -43 -55q-41 0 -41 55v414z" />
    <glyph glyph-name="summation" unicode="&#x2211;" 
d="M930 1071h-598l356 -524q12 -14 12 -27q0 -8 -8 -24l-373 -674h631l11 233q2 19 10.5 31t21.5 12h13q14 0 23 -12.5t9 -32.5v-268q0 -25 -10 -35t-35 -10h-717q-45 0 -45 39v33q0 14 9 32l370 682l-366 525q-12 26 -13 36v27q0 39 45 39h703q25 0 35 -10t10 -35v-266
q0 -20 -9 -32.5t-24 -12.5h-10q-30 0 -33 43z" />
    <glyph glyph-name="partialdiff" unicode="&#x2202;" 
d="M319 1147l-2 10q0 5 8.5 15.5t14.5 13.5q15 6 121 6q97 0 223.5 -63t196.5 -146q88 -103 145 -261t57 -298q0 -123 -63.5 -229t-171.5 -168t-234 -62t-234 62t-171.5 168.5t-63.5 230.5q0 123 63.5 229t171.5 168t234 62q171 0 310 -115q-88 164 -217.5 250t-290.5 88
q-33 -2 -54 -2q-40 0 -43 37v4zM614 799q-160 0 -271.5 -109t-111.5 -264q0 -157 111.5 -266t271.5 -109q158 0 270.5 108.5t112.5 260.5q0 161 -110.5 270t-272.5 109z" />
    <glyph glyph-name="brokenbar" unicode="&#xa6;" 
d="M655 1182v-547q0 -55 -41 -55t-41 55v547q0 55 41 55t41 -55zM655 348v-547q0 -55 -41 -55t-41 55v547q0 55 41 55t41 -55z" />
    <glyph glyph-name="mu" unicode="&#x3bc;" 
d="M338 33v-387q0 -56 -43 -56q-41 0 -41 56v1126h-111q-55 0 -55 41t55 41h195v-618q0 -83 51.5 -135t134.5 -52q206 0 375 187v536h-151q-58 0 -58 41t58 41h235v-772h70q55 0 55 -41t-55 -41h-154v121q-163 -154 -371 -154q-63 0 -106 14.5t-84 51.5z" />
    <glyph glyph-name="afii10017" unicode="&#x410;" 
d="M106 0l431 1153h139l434 -1153h-88l-145 385h-545l-142 -385h-84zM846 469l-230 600h-30l-221 -600h481z" />
    <glyph glyph-name="afii10018" unicode="&#x411;" 
d="M1059 1069h-703v-428h299q108 0 193 -21.5t135.5 -54.5t83.5 -78t45 -87t12 -87q0 -129 -98.5 -221t-239.5 -92h-512v1153h785v-84zM356 84h426q108 0 185 67t77 162q0 56 -34 107.5t-92 85.5q-89 51 -254 51h-308v-473z" />
    <glyph glyph-name="afii10019" unicode="&#x412;" 
d="M266 0v1153h418q149 0 249.5 -85.5t100.5 -211.5q0 -78 -41.5 -137.5t-132.5 -108.5q260 -92 260 -297q0 -129 -99.5 -221t-238.5 -92h-516zM651 641zM350 641h301q131 0 215 61t84 156q0 89 -76 150t-188 61h-336v-428zM350 84h426q109 0 184.5 67t75.5 162
q0 56 -32 106.5t-89 84.5q-49 29 -107.5 41t-152.5 12h-305v-473z" />
    <glyph glyph-name="afii10020" unicode="&#x413;" 
d="M1104 1069h-727v-1069h-86v1153h813v-84z" />
    <glyph glyph-name="afii10021" unicode="&#x414;" 
d="M961 1153v-1069h200v-287q0 -55 -39 -55q-45 0 -45 55v203h-927v-203q0 -55 -39 -55q-45 0 -45 55v287h221q8 8 19.5 21t30.5 49.5t19 66.5v932h605zM377 84h500v985h-437v-848q0 -46 -16 -80.5t-32 -45.5z" />
    <glyph glyph-name="afii10022" unicode="&#x415;" 
d="M1022 1069h-684v-428h381v-84h-381v-473h727v-84h-811v1153h768v-84z" />
    <glyph glyph-name="afii10023" unicode="&#x401;" 
d="M410 1538h53q39 0 39 -53v-117q0 -55 -39 -55h-53q-41 0 -41 55v117q0 53 41 53zM770 1538h53q16 0 27.5 -13.5t11.5 -39.5v-117q0 -27 -11.5 -41t-27.5 -14h-53q-41 0 -41 55v117q0 53 41 53zM1022 1069h-684v-428h381v-84h-381v-473h727v-84h-811v1153h768v-84z" />
    <glyph glyph-name="afii10024" unicode="&#x416;" 
d="M1124 0h-84q-34 145 -70 243t-83.5 164t-99.5 105.5t-128 73.5v-586h-86v586q-104 -46 -168.5 -104.5t-119.5 -174.5t-97 -307h-84q17 119 47 216t66.5 164t85 120t95.5 86t106 61l-463 506h102l430 -465v465h86v-465l424 465h105l-463 -506q59 -28 106 -61t96 -86
t85 -119.5t66 -163.5t46 -217z" />
    <glyph glyph-name="afii10025" unicode="&#x417;" 
d="M233 889q0 86 58.5 155.5t148 105.5t185.5 32q147 -5 258.5 -97.5t111.5 -222.5q0 -66 -27 -122.5t-79 -92.5q-8 -4 -22.5 -12t-26.5 -13.5t-25 -9.5v-16q48 -14 98 -45q61 -36 94 -100.5t33 -141.5q0 -97 -60.5 -175.5t-154.5 -121t-200 -45.5q-108 -3 -206.5 32
t-164.5 111t-66 177q0 55 41 55q36 0 43 -51q1 -99 102 -169.5t240 -70.5q145 0 240.5 74t95.5 188q0 55 -25.5 100t-68.5 72q-31 21 -54.5 32.5t-72 22.5t-111.5 11h-122q-58 0 -58 45q0 19 15.5 30t42.5 11h94q80 0 131.5 17t101.5 48q39 26 60.5 68.5t21.5 89.5
q0 101 -84.5 168.5t-210.5 67.5q-121 0 -202 -61t-84 -156q-6 -45 -50 -45q-41 0 -41 55z" />
    <glyph glyph-name="afii10026" unicode="&#x418;" 
d="M254 0v1153h84v-821l555 547v274h80v-1153h-80v772l-555 -551v-221h-84z" />
    <glyph glyph-name="afii10027" unicode="&#x419;" 
d="M360 1577q18 0 26.5 -9.5t14.5 -35.5q6 -57 66.5 -96t146.5 -39q83 0 145 39t68 96q5 45 41 45q41 0 41 -47q0 -90 -85 -152.5t-210 -62.5q-123 0 -209 63t-86 152q0 47 41 47zM254 0v1153h84v-821l555 547v274h80v-1153h-80v772l-555 -551v-221h-84z" />
    <glyph glyph-name="afii10028" unicode="&#x41a;" 
d="M1036 0h-98q-77 213 -138 329.5t-128.5 178.5t-167.5 94l-166 -149v-453h-84v1153h84v-594l668 594h116l-549 -489q80 -33 129.5 -68t103.5 -109.5t104.5 -184.5t125.5 -302z" />
    <glyph glyph-name="afii10029" unicode="&#x41b;" 
d="M889 0v1069h-424v-911q0 -77 -54 -117.5t-128 -40.5q-54 0 -113 43.5t-59 114.5v45q0 57 36 57q23 0 36.5 -14.5t13.5 -42.5v-39q0 -37 32.5 -58.5t61.5 -21.5q19 0 37 4.5t35.5 24t17.5 51.5v989h592v-1153h-84z" />
    <glyph glyph-name="afii10030" unicode="&#x41c;" 
d="M1090 0h-84v1069h-17l-321 -723h-95l-325 723h-17v-1069h-84v1153h152l322 -713l315 713h154v-1153z" />
    <glyph glyph-name="afii10031" unicode="&#x41d;" 
d="M342 1153v-512h553v512h84v-1153h-84v557h-553v-557h-84v1153h84z" />
    <glyph glyph-name="afii10032" unicode="&#x41e;" 
d="M614 1180q142 0 259 -80.5t184 -221.5t67 -313q0 -162 -68.5 -300t-186 -218t-255.5 -80q-140 0 -257.5 80.5t-185 220t-67.5 305.5t67.5 306t185 220.5t257.5 80.5zM614 1096q-116 0 -214 -70.5t-155 -191t-57 -261.5t57.5 -261.5t155.5 -190.5t213 -70q114 0 212 70
t156 189t58 257q0 221 -124 375t-302 154z" />
    <glyph glyph-name="afii10033" unicode="&#x41f;" 
d="M975 1153v-1153h-86v1069h-551v-1069h-84v1153h721z" />
    <glyph glyph-name="afii10034" unicode="&#x420;" 
d="M254 0v1153h381q163 0 275 -98t112 -240q0 -143 -121 -242.5t-295 -99.5h-268v-473h-84zM338 557h274q134 0 230 76t96 182q0 104 -87 179t-208 75h-305v-512z" />
    <glyph glyph-name="afii10035" unicode="&#x421;" 
d="M1063 868q0 -55 -43 -55q-38 0 -41 49q-6 94 -112 164t-242 70q-170 0 -291 -130t-121 -313v-145q0 -121 60.5 -226.5t163.5 -168t222 -62.5q106 0 190 43.5t167 141.5q18 20 37 20t30 -11t11 -28q0 -32 -78 -104q-155 -146 -357 -146q-102 0 -200 44t-170 116.5
t-116 170t-44 198.5v170q0 94 39.5 193t105.5 169q143 152 351 152q44 0 92.5 -8.5t104.5 -30.5t103 -55.5t85 -90t53 -127.5z" />
    <glyph glyph-name="afii10036" unicode="&#x422;" 
d="M147 1153h934v-84h-424v-1069h-84v1069h-426v84z" />
    <glyph glyph-name="afii10037" unicode="&#x423;" 
d="M330 0l260 463l-457 690h107l403 -612l342 612h102l-655 -1153h-102z" />
    <glyph glyph-name="afii10038" unicode="&#x424;" 
d="M573 862h-135q-135 0 -233.5 -75.5t-98.5 -180.5q0 -106 89.5 -181t210.5 -75h167v512zM573 0v268h-163q-161 0 -271 96.5t-110 241.5q0 141 119 240.5t290 99.5h135v207h84v-207h129q172 0 292 -99.5t120 -240.5q0 -146 -110 -242t-273 -96h-158v-268h-84zM657 862v-512
h162q126 0 212.5 74.5t86.5 181.5q0 106 -95 181t-232 75h-134z" />
    <glyph glyph-name="afii10039" unicode="&#x425;" 
d="M1122 0h-108l-404 522l-401 -522h-103l451 590l-432 563h106l383 -496l377 496h107l-432 -563z" />
    <glyph glyph-name="afii10040" unicode="&#x426;" 
d="M254 0v1153h82v-1069h553v1069h86v-1069h151v-287q0 -26 -11 -40.5t-30 -14.5q-45 0 -45 55v203h-786z" />
    <glyph glyph-name="afii10041" unicode="&#x427;" 
d="M872 0v547q-51 -36 -131.5 -56t-142.5 -20q-40 0 -78 4.5t-80 15t-77 30.5t-64 47.5t-45 69.5t-16 93v422h81v-405q0 -45 13 -79t44 -61.5t89 -42t141 -14.5q65 0 146 24.5t120 67.5v510h80v-1153h-80z" />
    <glyph glyph-name="afii10042" unicode="&#x428;" 
d="M49 0v1153h88v-1069h436v1069h84v-1069h428v1069h89v-1153h-1125z" />
    <glyph glyph-name="afii10043" unicode="&#x429;" 
d="M123 0v1153h80v-1069h346v1069h84v-1069h346v1069h84v-1069h156v-287q0 -26 -12 -40.5t-31 -14.5q-41 0 -41 55v203h-1012z" />
    <glyph glyph-name="afii10044" unicode="&#x42a;" 
d="M393 0v1069h-323v84h407v-473h268q174 0 295 -99.5t121 -242.5q0 -142 -112 -240t-275 -98h-381zM477 596v-512h305q120 0 207.5 75t87.5 179q0 105 -97.5 181.5t-229.5 76.5h-273z" />
    <glyph glyph-name="afii10045" unicode="&#x42b;" 
d="M1096 0h-84v1153h84v-1153zM131 0v1153h84v-473h268q177 0 296.5 -99.5t119.5 -242.5q0 -142 -112 -240t-275 -98h-381zM215 596v-512h309q120 0 205.5 75t85.5 179q0 106 -94.5 182t-228.5 76h-277z" />
    <glyph glyph-name="afii10046" unicode="&#x42c;" 
d="M362 592v-512h375q123 0 211 76t88 180q0 106 -96 181t-231 75h-347zM279 -4v1153h83v-469h343q175 0 295 -99.5t120 -244.5q0 -141 -113.5 -240.5t-273.5 -99.5h-454z" />
    <glyph glyph-name="afii10047" unicode="&#x42d;" 
d="M164 866q0 22 23.5 82t58.5 92q155 142 356 142q100 0 190 -39.5t158 -112.5q67 -72 107.5 -171.5t40.5 -192.5v-170q0 -101 -44.5 -198.5t-117.5 -170t-172 -116.5t-203 -44q-96 0 -187.5 37.5t-164.5 108.5q-78 72 -78 102q0 17 11 30t26 13q25 0 41 -22
q86 -99 168 -142t184 -43q121 0 225 62t165 167t61 226v51h-553q-53 0 -53 41q0 23 12.5 33t40.5 10h553v12q0 184 -120.5 313.5t-289.5 129.5q-137 0 -243.5 -70.5t-112.5 -163.5q0 -24 -12 -37.5t-33 -13.5q-37 0 -37 55z" />
    <glyph glyph-name="afii10048" unicode="&#x42e;" 
d="M199 0h-84v1153h84v-512h153q0 155 51.5 277t151 193t231.5 71q140 0 240 -82t148.5 -220t48.5 -317q0 -166 -50 -300t-151 -215t-236 -81q-136 0 -236 79t-150 211t-52 300h-149v-557zM786 1096q-113 0 -194.5 -71.5t-120.5 -188.5t-39 -263t39 -262.5t120.5 -188
t194.5 -71.5q111 0 193.5 71t123 186.5t40.5 258.5q0 150 -40 268t-122 189.5t-195 71.5z" />
    <glyph glyph-name="afii10049" unicode="&#x42f;" 
d="M127 0q102 187 166.5 287t113 151.5t117.5 98.5q-284 99 -284 297q0 129 109.5 224t258.5 95h398v-1153h-84v514h-271q-117 -54 -204 -159t-222 -355h-98zM922 598v471h-312q-111 0 -197.5 -70.5t-86.5 -164.5q0 -98 105 -167t253 -69h238z" />
    <glyph glyph-name="afii10065" unicode="&#x430;" 
d="M858 0v137q-182 -170 -391 -170q-143 0 -231.5 72.5t-88.5 189.5q0 133 120.5 216t312.5 83q70 0 128.5 -9t149.5 -34v146q0 75 -70 121.5t-182 46.5q-55 0 -112 -12.5t-179 -49.5q-16 -4 -20 -4q-15 0 -27 12t-12 29q0 31 35 43q85 29 174.5 47.5t146.5 18.5
q142 0 236 -71.5t94 -180.5v-631h-84zM858 229v185q-123 30 -262 30q-163 0 -264 -60t-101 -157q0 -80 64 -128t170 -48q109 0 200 41t193 137z" />
    <glyph glyph-name="afii10066" unicode="&#x431;" 
d="M991 1149v-86q-27 0 -82 1q-81 4 -159.5 0.5t-149 -9.5t-130.5 -28.5t-103.5 -58t-68 -97.5t-24.5 -146q88 95 158 126.5t186 31.5q185 0 315 -132t130 -319q0 -195 -126.5 -328.5t-318.5 -136.5q-193 -1 -321.5 132.5t-128.5 332.5q0 283 26 400q34 153 139 222
q124 82 421 93q69 2 151 2h86zM614 799q-153 0 -257.5 -108t-104.5 -265q0 -156 104.5 -265.5t257.5 -109.5q148 0 256.5 109t108.5 258q0 162 -105.5 271.5t-259.5 109.5z" />
    <glyph glyph-name="afii10067" unicode="&#x432;" 
d="M344 0v856h311q144 0 220.5 -62.5t76.5 -158.5q0 -62 -34.5 -117.5t-90.5 -66.5q93 -30 138 -83t45 -137q0 -104 -62.5 -167.5t-193.5 -63.5h-410zM430 485h193q245 0 245 150q0 69 -48.5 102t-160.5 33h-229v-285zM430 84h320q95 0 135.5 36t40.5 111q0 86 -83.5 129
t-219.5 43h-193v-319z" />
    <glyph glyph-name="afii10068" unicode="&#x433;" 
d="M993 770h-528v-770h-84v856h612v-86z" />
    <glyph glyph-name="afii10069" unicode="&#x434;" 
d="M915 856v-772h209v-270q0 -56 -43 -56q-19 0 -30 15t-11 41v186h-850v-186q0 -25 -11 -40.5t-27 -15.5q-26 0 -36 14t-10 42v270h238q29 23 29 84v688h542zM455 168q0 -23 -5.5 -44t-10.5 -30l-5 -10h397v686h-376v-602z" />
    <glyph glyph-name="afii10070" unicode="&#x435;" 
d="M1065 408h-852q22 -161 135 -259t279 -98q96 0 196.5 31t161.5 80q20 14 33 14q15 0 27 -12t12 -29q0 -35 -68.5 -75t-171 -66.5t-192.5 -26.5q-207 0 -351.5 139t-144.5 338q0 186 135 312.5t332 126.5q147 0 262.5 -73.5t171.5 -201.5q22 -50 28.5 -89.5t6.5 -110.5z
M213 492h766q-25 139 -129.5 223t-253.5 84t-252 -83t-131 -224z" />
    <glyph glyph-name="afii10071" unicode="&#x451;" 
d="M1065 408h-852q22 -161 135 -259t279 -98q96 0 196.5 31t161.5 80q20 14 33 14q15 0 27 -12t12 -29q0 -35 -68.5 -75t-171 -66.5t-192.5 -26.5q-207 0 -351.5 139t-144.5 338q0 186 135 312.5t332 126.5q147 0 262.5 -73.5t171.5 -201.5q22 -50 28.5 -89.5t6.5 -110.5z
M213 492h766q-25 139 -129.5 223t-253.5 84t-252 -83t-131 -224zM397 1251q43 0 73 -30.5t30 -73.5q0 -40 -31 -70t-72 -30t-71.5 30.5t-30.5 71.5t30.5 71.5t71.5 30.5zM850 1251q43 0 72.5 -30.5t29.5 -73.5q0 -40 -30.5 -70t-71.5 -30t-72 30.5t-31 71.5t31 71.5t72 30.5
z" />
    <glyph glyph-name="afii10072" unicode="&#x436;" 
d="M1108 0h-94q-4 35 -14.5 68t-23 59t-33.5 52.5t-38 45t-46 40.5l-47 35t-52 32.5l-51 29t-52 27.5v-389h-84v389q-45 -23 -67.5 -35.5t-64.5 -38.5t-65.5 -45.5t-55.5 -51t-50 -62t-34 -71t-21 -85.5h-94q7 68 32.5 128t61 105t85.5 85.5t98 69.5t106 56l-467 412h123
l413 -362v362h84v-362l418 362h119l-469 -412q75 -37 134.5 -77.5t116 -94.5t91 -123.5t41.5 -148.5z" />
    <glyph glyph-name="afii10073" unicode="&#x437;" 
d="M213 225q0 22 10.5 39t30.5 17q16 0 29.5 -13.5t13.5 -31.5v-15q0 -72 91.5 -121t221.5 -49q132 0 222 54t90 133q0 37 -24.5 72.5t-66.5 56.5q-31 18 -52.5 28t-65 18.5t-99.5 8.5h-143q-25 0 -39 11t-14 30q0 43 53 43h102q30 0 54 0.5t44 2.5t33.5 2.5t27.5 4.5
t20.5 5t17.5 6.5t13.5 6.5t14 8.5t13.5 8.5q66 37 66 96q0 65 -76.5 108.5t-190.5 43.5q-116 0 -190.5 -42t-83.5 -110q-3 -26 -11.5 -37.5t-27.5 -11.5q-20 0 -31.5 17.5t-11.5 41.5q0 68 58.5 121.5t142 79.5t170.5 25q82 -1 160.5 -30t131 -83t52.5 -119q0 -94 -92 -162
l-33 -16v-12q51 -24 69 -39q49 -34 76 -82t27 -102q0 -76 -61 -139t-151.5 -96.5t-185.5 -35.5q-72 -1 -142.5 14.5t-130 46t-96 82t-36.5 115.5z" />
    <glyph glyph-name="afii10074" unicode="&#x438;" 
d="M977 0h-88v557l-547 -387v-169l-84 -1v856h84v-575l547 385v190h88v-856z" />
    <glyph glyph-name="afii10075" unicode="&#x439;" 
d="M360 1323q18 0 26.5 -9t14.5 -32q6 -59 66.5 -99t146.5 -40q83 0 145 40.5t68 98.5q6 41 41 41q41 0 41 -45q0 -93 -84.5 -156t-210.5 -63q-123 0 -209 63.5t-86 155.5q0 45 41 45zM977 0h-88v557l-547 -387v-169l-84 -1v856h84v-575l547 385v190h88v-856z" />
    <glyph glyph-name="afii10076" unicode="&#x43a;" 
d="M983 856l-528 -412l594 -444h-119l-539 389v-389h-84v856h84v-362l465 362h127z" />
    <glyph glyph-name="afii10077" unicode="&#x43b;" 
d="M840 0v770h-377v-635q6 -70 -32.5 -102.5t-119.5 -32.5q-57 -3 -94 29.5t-37 93.5v57q0 58 41 58t41 -58v-45q0 -25 17 -40t40 -15q28 0 45 15t17 40v721h543v-856h-84z" />
    <glyph glyph-name="afii10078" unicode="&#x43c;" 
d="M221 0v856h152l241 -489l234 489h147v-856h-82v770h-16l-254 -510h-65l-254 510h-15v-770h-88z" />
    <glyph glyph-name="afii10079" unicode="&#x43d;" 
d="M965 0h-84v377h-545v-377h-86v856h86v-395h545v395h84v-856z" />
    <glyph glyph-name="afii10080" unicode="&#x43e;" 
d="M614 883q197 0 332 -134t135 -329q0 -123 -62.5 -227.5t-170 -165t-234.5 -60.5q-195 0 -331 133.5t-136 325.5q0 189 136 323t331 134zM614 799q-160 0 -271.5 -109t-111.5 -264q0 -157 111.5 -266t271.5 -109q158 0 270.5 108.5t112.5 260.5q0 161 -110.5 270
t-272.5 109z" />
    <glyph glyph-name="afii10081" unicode="&#x43f;" 
d="M258 856h711v-856h-84v770h-541v-770h-86v856z" />
    <glyph glyph-name="afii10082" unicode="&#x440;" 
d="M211 -381v1235h84v-168q82 106 166 151.5t201 45.5q190 0 318 -123.5t128 -306.5t-128.5 -308t-317.5 -125q-118 0 -207 48t-160 149v-598h-84zM659 799q-152 0 -258 -100.5t-106 -245.5q0 -146 106 -247.5t258 -101.5q151 0 258 101.5t107 243.5q0 149 -105 249.5
t-260 100.5z" />
    <glyph glyph-name="afii10083" unicode="&#x441;" 
d="M1047 610q0 -55 -41 -55q-20 0 -30 11.5t-13 37.5q-6 82 -101.5 138.5t-224.5 56.5q-169 0 -275 -105t-106 -274q0 -161 107 -265t274 -104q223 0 383 148q20 20 37 20q15 0 27 -12t12 -27q0 -40 -88 -100q-163 -113 -375 -113q-201 0 -331 127t-130 324q0 203 133 334
t338 131q54 0 111 -12t120 -40t110.5 -85t62.5 -136z" />
    <glyph glyph-name="afii10084" unicode="&#x442;" 
d="M659 -4h-86v774h-364v86h809v-86h-359v-774z" />
    <glyph glyph-name="afii10085" unicode="&#x443;" 
d="M1081 854l-606 -1235h-84l187 381l-426 854h96l377 -762l370 762h86z" />
    <glyph glyph-name="afii10086" unicode="&#x444;" 
d="M569 1171h84v-288v0v0v0v0v0v0v0v0v0v0v0v0v0v0v0v0v0v0v0v0v0h1v0v0v0v0h1v0v0v0h1v0v0h1v0v0h1v0h1v0h1v0h1v0h1v0h1v0h1v0h1v0h1h1v0h1h1v0h1h1h1v0h1h1h1h1h1h1h1h1h1h1h1h1h1h1h1h1h1h1h1h1h1h1h1h1h1h1h1h1h1h1h1h1h1h1h1h1h1h1h1h1h1h1h1h1h1h1h1h1h1h1h1h1h1h1h1
h1h1h1h1h1h1h1h1h1h1h1h1h1h1h1h1h1h1h1h1h1h1h1h1h1h1h1h1h1h1h1h1h1h1h1h1h1h1h1h1h1h1h1h1h1h1h1h1h1h1h1h1h1h1h1h1h1h1h10q189 0 308.5 -123t119.5 -309q0 -184 -120 -308.5t-308 -124.5h-3h-4h-3h-3h-4h-3h-4h-3h-3h-4h-3h-3h-4h-3h-4h-3h-4h-3h-3h-4h-3h-4h-3h-4h-3
h-4h-3h-4h-3h-4h-3h-4h-3h-4h-4h-3h-4h-4h-3h-7v-399h-84v399v0v0v0v0v0v0v0v0h1v0v0v0v0v0v0v0v0v0v0v0v0v0v0h-1v0v0v0v0v0h-1v0v0v0h-1v0v0h-1v0h-1v0v0h-1v0h-1v0h-1v0h-1v0h-1v0h-1v0h-1v0h-1v0h-1h-1v0h-1h-1h-1v0h-1h-1h-1h-1h-1h-1h-1h-1h-1h-1h-1h-1h-1h-1h-1h-1
h-1h-1h-1h-1h-1h-1h-1h-1h-1h-1h-1h-1h-1h-1h-1h-1h-1h-1h-1h-1h-1h-1h-1h-1h-1h-1h-1h-1h-1h-1h-1h-1h-1h-1h-1h-1h-1h-1h-1h-1h-1h-1h-1h-1h-1h-1h-1h-1h-1h-1h-1h-1h-1h-1h-1h-1h-1h-1h-1h-1h-1h-1h-1h-1h-1h-1h-1h-1h-1h-1h-1h-1h-1h-1h-1h-1h-1h-1h-1h-1h-1h-1h-1h-1
h-1h-1h-1h-1h-1h-1h-1h-1h-1h-1h-1h-1h-1h-9q-185 0 -305.5 124.5t-120.5 308.5q0 187 117.5 309.5t308.5 122.5h3h4h3h3h3h4h3h3h3h4h3h3h3h4h3h3h4h3h3h4h3h3h4h3h3h3h4h3h4h3h3h4h3h3h4h3h4h3h4h9v288zM434 799q-157 0 -251.5 -99t-94.5 -251q0 -145 98.5 -246
t247.5 -101h135v697h-135zM795 799h-142v-697h142q146 0 245 101.5t99 245.5q0 152 -95 251t-249 99z" />
    <glyph glyph-name="afii10087" unicode="&#x445;" 
d="M254 854l360 -350l369 350h113l-422 -405l465 -449h-119l-406 389l-409 -389h-115l465 449l-420 405h119z" />
    <glyph glyph-name="afii10088" unicode="&#x446;" 
d="M270 0v856h86v-772h545v772h84v-772h113v-270q0 -56 -45 -56q-37 0 -37 56v186h-746z" />
    <glyph glyph-name="afii10089" unicode="&#x447;" 
d="M907 0h-84v354q-63 -63 -205 -63q-42 0 -62.5 0.5t-58.5 3t-57.5 7.5t-46.5 16t-40.5 26t-23.5 39t-10 55v418h82v-416q7 -33 73 -51t144 -16q64 3 123.5 24t81.5 47v412h84v-856z" />
    <glyph glyph-name="afii10090" unicode="&#x448;" 
d="M139 0v856h82v-772h352v772h86v-772h349v772h79v-856h-948z" />
    <glyph glyph-name="afii10091" unicode="&#x449;" 
d="M143 0v856h80v-772h346v772h84v-772h346v772h80v-772h131v-270q0 -56 -47 -56q-37 0 -37 56v186h-983z" />
    <glyph glyph-name="afii10092" unicode="&#x44a;" 
d="M442 0v770h-315v86h399v-371h326q117 0 182.5 -75t65.5 -179q0 -105 -59 -168t-189 -63h-410zM526 84h314q104 0 140 34.5t36 112.5q0 172 -197 172h-293v-319z" />
    <glyph glyph-name="afii10093" unicode="&#x44b;" 
d="M999 0v856h88v-856h-88zM135 0v856h80v-371h330q119 0 185.5 -75t66.5 -179q0 -105 -61.5 -168t-194.5 -63h-406zM215 84h322q102 0 139 35t37 112q0 172 -205 172h-293v-319z" />
    <glyph glyph-name="afii10094" unicode="&#x44c;" 
d="M344 0v856h86v-371h324q122 0 189 -74.5t67 -179.5q0 -104 -62.5 -167.5t-193.5 -63.5h-410zM430 84h320q102 0 139 35t37 112q0 172 -205 172h-291v-319z" />
    <glyph glyph-name="afii10095" unicode="&#x44d;" 
d="M291 770q119 113 315 113q205 0 338 -131t133 -334q0 -196 -130.5 -323.5t-332.5 -127.5q-210 0 -372 113q-90 62 -90 100q0 17 12.5 28t28.5 11q15 0 40 -20q160 -148 381 -148q156 0 261 90.5t120 235.5h-557q-61 0 -61 41q0 43 61 43h557q-15 150 -120 244t-261 94
q-132 0 -224.5 -55.5t-98.5 -137.5q-6 -29 -17 -41t-32 -12q-37 0 -37 59q0 19 25.5 72.5t60.5 85.5z" />
    <glyph glyph-name="afii10096" unicode="&#x44e;" 
d="M156 0v856h82v-395h176q16 186 120.5 304t284.5 118q129 0 222 -62t137.5 -166t44.5 -237q0 -126 -46.5 -227.5t-139.5 -162.5t-218 -61q-90 0 -162.5 31.5t-121.5 88t-79.5 129.5t-41.5 161h-176v-377h-82zM819 799q-154 0 -236.5 -104.5t-82.5 -268.5
q0 -166 82.5 -270.5t236.5 -104.5q151 0 235.5 104t84.5 263q0 170 -83 275.5t-237 105.5z" />
    <glyph glyph-name="afii10097" unicode="&#x44f;" 
d="M207 0l493 367h-188q-117 0 -185.5 76.5t-68.5 177.5q0 104 63.5 169.5t194.5 65.5h408v-856h-84v367l-508 -367h-125zM840 770h-316q-107 0 -142.5 -35.5t-35.5 -113.5q0 -90 51.5 -130t151.5 -40h291v319z" />
    <glyph glyph-name="uni0400" unicode="&#x400;" 
d="M440 1597l234 -204l14 -17q10 -10 10 -22q0 -19 -12 -31t-31 -12q-16 0 -37 18l-233 205q-25 22 -25 41q0 17 12 29t29 12q14 0 39 -19zM1022 1069h-684v-428h381v-84h-381v-473h727v-84h-811v1153h768v-84z" />
    <glyph glyph-name="afii10051" unicode="&#x402;" 
d="M823 1069h-338v-451q31 48 118 89t202 41q155 0 251.5 -64.5t96.5 -165.5v-500q0 -46 -10 -82t-26 -59.5t-41.5 -40.5t-49.5 -26t-59 -14t-60 -6t-61 -1v70q54 0 88 5t68 20t50.5 48.5t16.5 85.5v492q0 61 -76 107.5t-196 46.5q-103 0 -207.5 -55.5t-104.5 -110.5v-498
h-86v1069h-344v84h768v-84z" />
    <glyph glyph-name="afii10052" unicode="&#x403;" 
d="M766 1534l-234 -205q-23 -18 -39 -18q-17 0 -29 12t-12 31q0 10 4.5 17t20.5 21l233 205q24 19 39 19q17 0 29 -12t12 -31q0 -18 -24 -39zM1104 1069h-727v-1069h-86v1153h813v-84z" />
    <glyph glyph-name="afii10053" unicode="&#x404;" 
d="M1065 866q0 -55 -37 -55q-21 0 -33 13.5t-12 37.5q-6 93 -112.5 163.5t-243.5 70.5q-169 0 -289.5 -129.5t-120.5 -313.5v-12h553q28 0 40.5 -10t12.5 -33q0 -41 -53 -41h-553v-51q0 -121 61 -226t165 -167t225 -62q102 0 184 43t168 142q16 22 41 22q15 0 26 -13t11 -30
q0 -30 -78 -102q-73 -71 -164.5 -108.5t-187.5 -37.5q-104 0 -203 44t-172 116.5t-117.5 170t-44.5 198.5v170q0 93 40.5 192.5t107.5 171.5q68 73 158 112.5t190 39.5q201 0 356 -142q35 -32 58.5 -92t23.5 -82z" />
    <glyph glyph-name="afii10054" unicode="&#x405;" 
d="M188 285q0 55 43 55q38 0 41 -49q4 -101 104 -170.5t240 -69.5q143 0 238.5 74.5t95.5 187.5q0 54 -24.5 100t-67.5 72q-36 24 -81.5 37.5t-155.5 32.5q-109 19 -171.5 40t-107.5 54q-51 35 -78.5 91.5t-27.5 121.5q0 135 107.5 226.5t268.5 91.5q93 0 170 -30.5
t121.5 -77t68 -95t23.5 -90.5q0 -56 -41 -56q-40 0 -43 50q-6 92 -89.5 153.5t-203.5 61.5q-126 0 -209 -67.5t-83 -168.5q0 -100 80 -155q40 -27 88.5 -42t142.5 -30q120 -21 175.5 -37t100.5 -45q60 -37 93.5 -100.5t33.5 -141.5q0 -149 -119 -245.5t-303 -96.5
q-111 0 -211.5 47t-159.5 120.5t-59 150.5z" />
    <glyph glyph-name="afii10055" unicode="&#x406;" 
d="M571 1153h84v-1153h-84v1153z" />
    <glyph glyph-name="afii10056" unicode="&#x407;" 
d="M389 1558q43 0 73 -30.5t30 -73.5q0 -40 -31 -70t-72 -30t-71.5 30.5t-30.5 71.5t30.5 71.5t71.5 30.5zM842 1558q43 0 72.5 -30.5t29.5 -73.5q0 -40 -30.5 -70t-71.5 -30t-72 30.5t-31 71.5t31 71.5t72 30.5zM571 1153h84v-1153h-84v1153z" />
    <glyph glyph-name="afii10057" unicode="&#x408;" 
d="M256 190q154 -139 303 -139q125 0 212 83.5t87 203.5v815h84v-815q0 -152 -113.5 -261.5t-271.5 -109.5q-98 0 -186 42.5t-199 142.5z" />
    <glyph glyph-name="afii10058" unicode="&#x409;" 
d="M623 0v1069h-238v-911q0 -76 -56 -117t-128 -41q-59 0 -117.5 43t-58.5 115v45q0 57 45 57q17 0 30 -15t13 -42v-39q0 -37 31 -58.5t57 -21.5q22 0 41 4.5t38 24t19 51.5v989h408v-473h84q174 0 294.5 -99.5t120.5 -242.5q0 -142 -112 -240t-275 -98h-196zM707 596v-512
h120q123 0 209 74.5t86 179.5q0 106 -95.5 182t-227.5 76h-92z" />
    <glyph glyph-name="afii10059" unicode="&#x40a;" 
d="M143 0v1153h80v-512h379v512h86v-473h103q172 0 291.5 -99.5t119.5 -242.5q0 -142 -111.5 -240t-271.5 -98h-217v557h-379v-557h-80zM688 596v-512h135q123 0 209 74.5t86 179.5q0 106 -95.5 182t-227.5 76h-107z" />
    <glyph glyph-name="afii10060" unicode="&#x40b;" 
d="M55 1069v84h768v-84h-338v-451q31 48 118 89t202 41q155 0 251.5 -64.5t96.5 -165.5v-518h-84v510q0 61 -76 107.5t-196 46.5q-103 0 -207.5 -55.5t-104.5 -110.5v-498h-86v1069h-344z" />
    <glyph glyph-name="afii10061" unicode="&#x40c;" 
d="M754 1458l-230 -205q-18 -16 -37 -16t-30 11t-11 30q0 16 25 39l234 203q22 22 36 22q15 0 28 -14t13 -31q0 -21 -28 -39zM1036 0h-98q-77 213 -138 329.5t-128.5 178.5t-167.5 94l-166 -149v-453h-84v1153h84v-594l668 594h116l-549 -489q80 -33 129.5 -68t103.5 -109.5
t104.5 -184.5t125.5 -302z" />
    <glyph glyph-name="uni040D" unicode="&#x40d;" 
d="M528 1520l234 -203l12 -17q9 -6 10.5 -9t1.5 -13q0 -18 -13 -29.5t-32 -11.5q-18 0 -36 16l-230 205q-24 15 -24 39q0 19 9 32t27 13q5 0 10.5 -2.5t15 -9zM254 0v1153h84v-821l555 547v274h80v-1153h-80v772l-555 -551v-221h-84z" />
    <glyph glyph-name="afii10062" unicode="&#x40e;" 
d="M362 1555q35 0 41 -45q5 -59 66 -98.5t147 -39.5t146.5 39.5t66.5 98.5q6 45 43 45q18 0 29.5 -13t11.5 -34q0 -92 -85.5 -155.5t-211.5 -63.5t-211.5 63.5t-85.5 155.5q0 22 11.5 34.5t31.5 12.5zM330 0l260 463l-457 690h107l403 -612l342 612h102l-655 -1153h-102z
" />
    <glyph glyph-name="afii10145" unicode="&#x40f;" 
d="M254 0v1153h84v-1069h551v1069h86v-1153h-299v-203q0 -26 -11 -40.5t-30 -14.5q-45 0 -45 55v203h-336z" />
    <glyph glyph-name="uni0450" unicode="&#x450;" 
d="M1065 408h-852q22 -161 135 -259t279 -98q96 0 196.5 31t161.5 80q20 14 33 14q15 0 27 -12t12 -29q0 -35 -68.5 -75t-171 -66.5t-192.5 -26.5q-207 0 -351.5 139t-144.5 338q0 186 135 312.5t332 126.5q147 0 262.5 -73.5t171.5 -201.5q22 -50 28.5 -89.5t6.5 -110.5z
M213 492h766q-25 139 -129.5 223t-253.5 84t-252 -83t-131 -224zM467 1290l234 -205l14 -16q10 -10 10 -22q0 -19 -12 -31t-31 -12q-16 0 -37 18l-233 205q-25 22 -25 41q0 17 12 29t29 12q14 0 39 -19z" />
    <glyph glyph-name="afii10099" unicode="&#x452;" 
d="M262 1237h86v-199h209q53 0 53 -39q0 -41 -53 -41h-209v-325q75 92 148 132t168 40q141 0 233 -80.5t92 -206.5v-434q0 -125 -97.5 -206t-240.5 -81v84q120 0 187 58.5t67 150.5v422q0 92 -67 150.5t-187 58.5q-87 0 -151.5 -45.5t-151.5 -147.5v-528h-86v958h-115
q-53 0 -53 41q0 39 53 39h115v199z" />
    <glyph glyph-name="afii10100" unicode="&#x453;" 
d="M754 1159l-230 -207q-23 -14 -41 -14q-16 0 -28.5 11t-12.5 30q0 6 2 10.5t4.5 7t10 9.5l12.5 12l234 205q18 16 36 16q16 0 28.5 -11.5t12.5 -29.5q0 -17 -28 -39zM993 770h-528v-770h-84v856h612v-86z" />
    <glyph glyph-name="afii10101" unicode="&#x454;" 
d="M942 770q35 -32 60.5 -85.5t25.5 -72.5q0 -59 -37 -59q-21 0 -32 12t-17 41q-6 82 -99 137.5t-225 55.5q-156 0 -260.5 -94t-119.5 -244h557q61 0 61 -43q0 -41 -61 -41h-557q15 -145 119.5 -235.5t260.5 -90.5q221 0 381 148q25 20 41 20t28.5 -11t12.5 -28
q0 -38 -90 -100q-162 -113 -373 -113q-202 0 -332 127.5t-130 323.5q0 203 133 334t338 131q196 0 315 -113z" />
    <glyph glyph-name="afii10102" unicode="&#x455;" 
d="M254 281q18 0 29.5 -12.5t11.5 -32.5v-15q0 -70 92 -120t223 -50q135 0 225.5 53.5t90.5 135.5q0 35 -24.5 70.5t-65.5 58.5q-71 39 -222 55q-114 12 -168.5 25.5t-97.5 39.5q-43 28 -68.5 71.5t-25.5 90.5q0 100 99.5 166t250.5 66q159 0 266 -80q46 -34 71 -75t27 -75
q0 -1 0.5 -2t0.5 -2q0 -46 -41 -49q-37 0 -43 47q-8 69 -82 110.5t-191 41.5q-114 0 -190 -44t-76 -110q0 -54 66 -92q35 -22 70 -30t167 -21q173 -19 266 -80q48 -33 75.5 -81.5t27.5 -102.5q0 -117 -114.5 -194t-287.5 -77q-196 0 -317 103q-82 70 -88 152v8q0 51 43 51z
" />
    <glyph glyph-name="afii10103" unicode="&#x456;" 
d="M571 0v770h-241q-56 0 -56 43q0 41 56 41h325v-854h-84zM651 1278v-213h-121v213h121z" />
    <glyph glyph-name="afii10104" unicode="&#x457;" 
d="M571 0v770h-241q-56 0 -56 43q0 41 56 41h325v-854h-84zM362 1251q43 0 73 -30.5t30 -73.5q0 -40 -31 -70t-72 -30t-71.5 30.5t-30.5 71.5t30.5 71.5t71.5 30.5zM815 1251q43 0 72.5 -30.5t29.5 -73.5q0 -40 -30.5 -70t-71.5 -30t-72 30.5t-31 71.5t31 71.5t72 30.5z" />
    <glyph glyph-name="afii10105" unicode="&#x458;" 
d="M848 770h-492q-57 0 -57 41q0 45 57 45h578v-913q0 -143 -89.5 -233.5t-230.5 -90.5h-262q-57 0 -57 43q0 22 13 31.5t44 9.5h258q104 0 171 68t67 172v827zM844 1284h45q45 0 45 -53v-117q0 -55 -45 -55h-45q-22 0 -31.5 13t-9.5 42v117q0 53 41 53z" />
    <glyph glyph-name="afii10106" unicode="&#x459;" 
d="M635 0l1 770h-282v-635q4 -71 -34 -103t-119 -32q-59 -3 -93.5 29t-37.5 94v57q0 58 49 58q16 0 26.5 -15t10.5 -43v-45q0 -25 15 -40t38 -15q61 0 61 55v721h449v-371h186q119 0 186.5 -75t67.5 -179q0 -103 -63 -167t-191 -64h-270zM636 770zM719 84h178q102 0 139 35
t37 112q0 172 -201 172h-153v-319z" />
    <glyph glyph-name="afii10107" unicode="&#x45a;" 
d="M168 856h84v-371h383v371h80v-371h207q117 0 183 -75t66 -179t-61 -167.5t-192 -63.5h-283v403h-383v-403h-84v856zM715 84h194q104 0 140 34.5t36 112.5q0 172 -200 172h-170v-319z" />
    <glyph glyph-name="afii10108" unicode="&#x45b;" 
d="M156 958q-35 0 -49.5 9.5t-14.5 31.5q0 21 14.5 30t49.5 9h422q53 0 53 -39q0 -41 -53 -41h-422zM338 1237v-526q78 94 149.5 133t165.5 39q142 0 234 -81t92 -206v-596h-84v590q0 92 -78 155q-36 30 -74.5 42t-99.5 12q-86 0 -142.5 -33.5t-140.5 -132.5l-22 -27v-606
h-84v1237h84z" />
    <glyph glyph-name="afii10109" unicode="&#x45c;" 
d="M754 1159l-230 -207q-23 -14 -41 -14q-16 0 -28.5 11t-12.5 30q0 11 4.5 17t24.5 22l229 205q23 16 41 16q16 0 28.5 -11.5t12.5 -29.5q0 -17 -28 -39zM983 856l-528 -412l594 -444h-119l-539 389v-389h-84v856h84v-362l465 362h127z" />
    <glyph glyph-name="uni045D" unicode="&#x45d;" 
d="M524 1223l234 -205l16 -17q8 -10 8 -22q0 -41 -45 -41q-11 0 -32 14l-234 207q-15 12 -20 20t-5 21q0 17 11 28t30 11t37 -16zM977 0h-88v557l-547 -387v-169l-84 -1v856h84v-575l547 385v190h88v-856z" />
    <glyph glyph-name="afii10110" unicode="&#x45e;" 
d="M360 1255q18 0 26.5 -9t14.5 -32q6 -59 66.5 -99t146.5 -40q83 0 145 40.5t68 98.5q6 41 41 41q41 0 41 -45q0 -93 -84.5 -156t-210.5 -63q-123 0 -209 63.5t-86 155.5q0 45 41 45zM1081 854l-606 -1235h-84l187 381l-426 854h96l377 -762l370 762h86z" />
    <glyph glyph-name="afii10193" unicode="&#x45f;" 
d="M254 856h84v-772h555v772h82v-856h-307v-186q0 -56 -45 -56q-37 0 -37 56v186h-332v856z" />
    <glyph glyph-name="uni048C" unicode="&#x48c;" 
d="M172 825q-63 0 -63 41t63 41h477q53 0 53 -41t-53 -41h-477zM362 592v-512h375q123 0 211 76t88 180q0 106 -96 181t-231 75h-347zM279 -4v1153h83v-469h343q175 0 295 -99.5t120 -244.5q0 -141 -113.5 -240.5t-273.5 -99.5h-454z" />
    <glyph glyph-name="uni048D" unicode="&#x48d;" 
d="M256 598q-35 0 -35 43q0 39 33 39h268q17 0 24 -8.5t7 -30.5q0 -43 -29 -43h-268zM344 0v856h86v-371h324q122 0 189 -74.5t67 -179.5q0 -104 -62.5 -167.5t-193.5 -63.5h-410zM430 84h320q102 0 139 35t37 112q0 172 -205 172h-291v-319z" />
    <glyph glyph-name="uni048E" unicode="&#x48e;" 
d="M602 702q-37 37 -10 68q31 28 67 -10l349 -342q36 -36 6 -70q-32 -28 -70 10zM254 0v1153h381q163 0 275 -98t112 -240q0 -143 -121 -242.5t-295 -99.5h-268v-473h-84zM338 557h274q134 0 230 76t96 182q0 104 -87 179t-208 75h-305v-512z" />
    <glyph glyph-name="uni048F" unicode="&#x48f;" 
d="M1026 -57l-342 333q-37 36 -8 72q30 30 69 -10l336 -338q41 -39 17 -74q-29 -29 -72 17zM211 -381v1235h84v-168q82 106 166 151.5t201 45.5q190 0 318 -123.5t128 -306.5t-128.5 -308t-317.5 -125q-118 0 -207 48t-160 149v-598h-84zM659 799q-152 0 -258 -100.5
t-106 -245.5q0 -146 106 -247.5t258 -101.5q151 0 258 101.5t107 243.5q0 149 -105 249.5t-260 100.5z" />
    <glyph glyph-name="afii10050" unicode="&#x490;" 
d="M1020 1153v203q0 55 45 55q18 0 28.5 -15t10.5 -40v-287zM1104 1069h-727v-1069h-86v1153h813v-84z" />
    <glyph glyph-name="afii10098" unicode="&#x491;" 
d="M909 856v184q0 56 41 56q43 0 43 -56v-270zM993 770h-528v-770h-84v856h612v-86z" />
    <glyph glyph-name="uni0492" unicode="&#x492;" 
d="M184 737q-57 0 -57 43q0 41 57 41h484q53 0 53 -41q0 -43 -53 -43h-484zM1104 1069h-727v-1069h-86v1153h813v-84z" />
    <glyph glyph-name="uni0493" unicode="&#x493;" 
d="M299 508q-41 0 -41 43q0 41 43 41h326q37 0 37 -41q0 -43 -37 -43h-328zM993 770h-528v-770h-84v856h612v-86z" />
    <glyph glyph-name="uni0494" unicode="&#x494;" 
d="M291 0v1153h813v-84h-725v-410q24 34 96 61.5t148 27.5q53 0 91.5 -2.5t83.5 -13t76 -28.5t56 -50.5t35 -78.5v-557q0 -46 -10.5 -82t-26 -59.5t-41.5 -40.5t-50 -26t-58.5 -14t-60 -6t-61.5 -1v70q42 0 71 2.5t60.5 12t50 26t30.5 46.5t12 72v543q-20 62 -88.5 82.5
t-178.5 20.5q-74 0 -135.5 -30t-99.5 -81v-553h-88z" />
    <glyph glyph-name="uni0495" unicode="&#x495;" 
d="M993 770h-528v-770h-84v856h612v-86z" />
    <glyph glyph-name="uni0496" unicode="&#x496;" 
d="M1102 84h53q57 0 57 -41v-244q0 -55 -41 -55q-45 0 -45 55v201h-86q62 80 62 84zM1124 0h-84q-34 145 -70 243t-83.5 164t-99.5 105.5t-128 73.5v-586h-86v586q-104 -46 -168.5 -104.5t-119.5 -174.5t-97 -307h-84q17 119 47 216t66.5 164t85 120t95.5 86t106 61
l-463 506h102l430 -465v465h86v-465l424 465h105l-463 -506q59 -28 106 -61t96 -86t85 -119.5t66 -163.5t46 -217z" />
    <glyph glyph-name="uni0497" unicode="&#x497;" 
d="M1096 84h55q55 0 55 -41v-229q0 -56 -43 -56q-41 0 -41 56v186h-26q-54 0 -54 43q0 41 54 41zM1108 0h-94q-4 35 -14.5 68t-23 59t-33.5 52.5t-38 45t-46 40.5l-47 35t-52 32.5l-51 29t-52 27.5v-389h-84v389q-45 -23 -67.5 -35.5t-64.5 -38.5t-65.5 -45.5t-55.5 -51
t-50 -62t-34 -71t-21 -85.5h-94q7 68 32.5 128t61 105t85.5 85.5t98 69.5t106 56l-467 412h123l413 -362v362h84v-362l418 362h119l-469 -412q75 -37 134.5 -77.5t116 -94.5t91 -123.5t41.5 -148.5z" />
    <glyph glyph-name="uni0498" unicode="&#x498;" 
d="M233 889q0 86 58.5 155.5t148 105.5t185.5 32q147 -5 258.5 -97.5t111.5 -222.5q0 -66 -27 -122.5t-79 -92.5q-8 -4 -22.5 -12t-26.5 -13.5t-25 -9.5v-16q48 -14 98 -45q61 -36 94 -100.5t33 -141.5q0 -97 -60.5 -175.5t-154.5 -121t-200 -45.5q-108 -3 -206.5 32
t-164.5 111t-66 177q0 55 41 55q36 0 43 -51q1 -99 102 -169.5t240 -70.5q145 0 240.5 74t95.5 188q0 55 -25.5 100t-68.5 72q-31 21 -54.5 32.5t-72 22.5t-111.5 11h-122q-58 0 -58 45q0 19 15.5 30t42.5 11h94q80 0 131.5 17t101.5 48q39 26 60.5 68.5t21.5 89.5
q0 101 -84.5 168.5t-210.5 67.5q-121 0 -202 -61t-84 -156q-6 -45 -50 -45q-41 0 -41 55z" />
    <glyph glyph-name="uni0499" unicode="&#x499;" 
d="M213 225q0 22 10.5 39t30.5 17q16 0 29.5 -13.5t13.5 -31.5v-15q0 -72 91.5 -121t221.5 -49q132 0 222 54t90 133q0 37 -24.5 72.5t-66.5 56.5q-31 18 -52.5 28t-65 18.5t-99.5 8.5h-143q-25 0 -39 11t-14 30q0 43 53 43h102q30 0 54 0.5t44 2.5t33.5 2.5t27.5 4.5
t20.5 5t17.5 6.5t13.5 6.5t14 8.5t13.5 8.5q66 37 66 96q0 65 -76.5 108.5t-190.5 43.5q-116 0 -190.5 -42t-83.5 -110q-3 -26 -11.5 -37.5t-27.5 -11.5q-20 0 -31.5 17.5t-11.5 41.5q0 68 58.5 121.5t142 79.5t170.5 25q82 -1 160.5 -30t131 -83t52.5 -119q0 -94 -92 -162
l-33 -16v-12q51 -24 69 -39q49 -34 76 -82t27 -102q0 -76 -61 -139t-151.5 -96.5t-185.5 -35.5q-72 -1 -142.5 14.5t-130 46t-96 82t-36.5 115.5z" />
    <glyph glyph-name="uni049A" unicode="&#x49a;" 
d="M1001 84h115q28 0 40.5 -10t12.5 -33v-244q0 -26 -11 -40.5t-30 -14.5q-45 0 -45 55v203h-147q1 0 18 20.5l33.5 41.5t13.5 22zM1036 0h-98q-77 213 -138 329.5t-128.5 178.5t-167.5 94l-166 -149v-453h-84v1153h84v-594l668 594h116l-549 -489q80 -33 129.5 -68
t103.5 -109.5t104.5 -184.5t125.5 -302z" />
    <glyph glyph-name="uni049B" unicode="&#x49b;" 
d="M938 84h90q57 0 57 -43v-227q0 -56 -45 -56q-36 0 -36 56v186zM983 856l-528 -412l594 -444h-119l-539 389v-389h-84v856h84v-362l465 362h127z" />
    <glyph glyph-name="uni049C" unicode="&#x49c;" 
d="M518 866v-479q0 -55 -39 -55q-41 0 -41 55v479q0 32 9.5 45t31.5 13t30.5 -13t8.5 -45zM1036 0h-98q-77 213 -138 329.5t-128.5 178.5t-167.5 94l-166 -149v-453h-84v1153h84v-594l668 594h116l-549 -489q80 -33 129.5 -68t103.5 -109.5t104.5 -184.5t125.5 -302z" />
    <glyph glyph-name="uni049D" unicode="&#x49d;" 
d="M537 690v-481q0 -29 -9.5 -42t-31.5 -13q-41 0 -41 55v481q0 58 41 58t41 -58zM983 856l-528 -412l594 -444h-119l-539 389v-389h-84v856h84v-362l465 362h127z" />
    <glyph glyph-name="uni049E" unicode="&#x49e;" 
d="M137 883q-28 0 -38.5 10.5t-10.5 30.5q0 21 10.5 30t38.5 9h365q41 0 41 -39q0 -41 -41 -41h-365zM1036 0h-98q-77 213 -138 329.5t-128.5 178.5t-167.5 94l-166 -149v-453h-84v1153h84v-594l668 594h116l-549 -489q80 -33 129.5 -68t103.5 -109.5t104.5 -184.5
t125.5 -302z" />
    <glyph glyph-name="uni049F" unicode="&#x49f;" 
d="M475 698q41 0 41 -39q0 -45 -41 -45h-295q-37 0 -37 45q0 39 37 39h295zM983 856l-528 -412l594 -444h-119l-539 389v-389h-84v856h84v-362l465 362h127z" />
    <glyph glyph-name="uni04A0" unicode="&#x4a0;" 
d="M1036 0h-98q-77 213 -138 329.5t-128.5 178.5t-167.5 94l-166 -149v-453h-84v1153h84v-594l668 594h116l-549 -489q80 -33 129.5 -68t103.5 -109.5t104.5 -184.5t125.5 -302z" />
    <glyph glyph-name="uni04A1" unicode="&#x4a1;" 
d="M983 856l-528 -412l594 -444h-119l-539 389v-389h-84v856h84v-362l465 362h127z" />
    <glyph glyph-name="uni04A2" unicode="&#x4a2;" 
d="M958 84h113q57 0 57 -41v-244q0 -55 -41 -55q-45 0 -45 55v201h-84q-17 0 -18.5 3.5t4.5 16t6 23.5q0 10 -6 22t-4.5 15.5t18.5 3.5zM342 1153v-512h553v512h84v-1153h-84v557h-553v-557h-84v1153h84z" />
    <glyph glyph-name="uni04A3" unicode="&#x4a3;" 
d="M928 84h123q55 0 55 -41v-229q0 -56 -43 -56q-41 0 -41 56v186h-94v84zM965 0h-84v377h-545v-377h-86v856h86v-395h545v395h84v-856z" />
    <glyph glyph-name="uni04A4" unicode="&#x4a4;" 
d="M342 1153v-512h553v512h84v-1153h-84v557h-553v-557h-84v1153h84z" />
    <glyph glyph-name="uni04A5" unicode="&#x4a5;" 
d="M965 0h-84v377h-545v-377h-86v856h86v-395h545v395h84v-856z" />
    <glyph glyph-name="uni04A6" unicode="&#x4a6;" 
d="M975 1153v-1153h-86v1069h-551v-1069h-84v1153h721z" />
    <glyph glyph-name="uni04A7" unicode="&#x4a7;" 
d="M258 856h711v-856h-84v770h-541v-770h-86v856z" />
    <glyph glyph-name="uni04A8" unicode="&#x4a8;" 
d="M1063 868q0 -55 -43 -55q-38 0 -41 49q-6 94 -112 164t-242 70q-170 0 -291 -130t-121 -313v-145q0 -121 60.5 -226.5t163.5 -168t222 -62.5q106 0 190 43.5t167 141.5q18 20 37 20t30 -11t11 -28q0 -32 -78 -104q-155 -146 -357 -146q-102 0 -200 44t-170 116.5
t-116 170t-44 198.5v170q0 94 39.5 193t105.5 169q143 152 351 152q44 0 92.5 -8.5t104.5 -30.5t103 -55.5t85 -90t53 -127.5z" />
    <glyph glyph-name="uni04A9" unicode="&#x4a9;" 
d="M1047 610q0 -55 -41 -55q-20 0 -30 11.5t-13 37.5q-6 82 -101.5 138.5t-224.5 56.5q-169 0 -275 -105t-106 -274q0 -161 107 -265t274 -104q223 0 383 148q20 20 37 20q15 0 27 -12t12 -27q0 -40 -88 -100q-163 -113 -375 -113q-201 0 -331 127t-130 324q0 203 133 334
t338 131q54 0 111 -12t120 -40t110.5 -85t62.5 -136z" />
    <glyph glyph-name="uni04AA" unicode="&#x4aa;" 
d="M1063 868q0 -55 -43 -55q-38 0 -41 49q-6 94 -112 164t-242 70q-170 0 -291 -130t-121 -313v-145q0 -121 60.5 -226.5t163.5 -168t222 -62.5q106 0 190 43.5t167 141.5q18 20 37 20t30 -11t11 -28q0 -32 -78 -104q-155 -146 -357 -146q-102 0 -200 44t-170 116.5
t-116 170t-44 198.5v170q0 94 39.5 193t105.5 169q143 152 351 152q44 0 92.5 -8.5t104.5 -30.5t103 -55.5t85 -90t53 -127.5z" />
    <glyph glyph-name="uni04AB" unicode="&#x4ab;" 
d="M1047 610q0 -55 -41 -55q-20 0 -30 11.5t-13 37.5q-6 82 -101.5 138.5t-224.5 56.5q-169 0 -275 -105t-106 -274q0 -161 107 -265t274 -104q223 0 383 148q20 20 37 20q15 0 27 -12t12 -27q0 -40 -88 -100q-163 -113 -375 -113q-201 0 -331 127t-130 324q0 203 133 334
t338 131q54 0 111 -12t120 -40t110.5 -85t62.5 -136z" />
    <glyph glyph-name="uni04AC" unicode="&#x4ac;" 
d="M657 84h213q27 0 42.5 -11t15.5 -30v-244q0 -55 -41 -55q-45 0 -45 55v201h-211q-20 0 -2 29q25 40 27 48q1 4 1 7zM147 1153h934v-84h-424v-1069h-84v1069h-426v84z" />
    <glyph glyph-name="uni04AD" unicode="&#x4ad;" 
d="M659 84h97q55 0 55 -41v-229q0 -56 -43 -56q-41 0 -41 56v186h-111q-19 0 3 26q34 39 38 48q2 6 2 10zM659 -4h-86v774h-364v86h809v-86h-359v-774z" />
    <glyph glyph-name="uni04AE" unicode="&#x4ae;" 
d="M152 1153h100l369 -549l360 549h94l-416 -633v-520h-84v520z" />
    <glyph glyph-name="uni04AF" unicode="&#x4af;" 
d="M162 856zM1065 856l-410 -928v-489h-82v489l-411 928h91l345 -772h37l341 772h89z" />
    <glyph glyph-name="uni04B0" unicode="&#x4b0;" 
d="M578 518h84h206q54 0 54 -39q0 -41 -54 -41h-206h-84h-193q-31 0 -44 9.5t-13 31.5q0 39 57 39h193zM152 1153h100l369 -549l360 549h94l-416 -633v-520h-84v520z" />
    <glyph glyph-name="uni04B1" unicode="&#x4b1;" 
d="M371 10h489q53 0 53 -39q0 -43 -53 -43h-489q-52 0 -52 43q0 18 14 28.5t38 10.5zM162 856zM1065 856l-410 -928v-489h-82v489l-411 928h91l345 -772h37l341 772h89z" />
    <glyph glyph-name="uni04B2" unicode="&#x4b2;" 
d="M1051 80l43 4q53 5 53 -43v-244q0 -26 -11 -40.5t-30 -14.5q-45 0 -45 55v203zM1122 0h-108l-404 522l-401 -522h-103l451 590l-432 563h106l383 -496l377 496h107l-432 -563z" />
    <glyph glyph-name="uni04B3" unicode="&#x4b3;" 
d="M1010 80l59 4q57 5 57 -43v-227q0 -56 -45 -56q-37 0 -37 56v186zM102 41zM254 854l360 -350l369 350h113l-422 -405l465 -449h-119l-406 389l-409 -389h-115l465 449l-420 405h119z" />
    <glyph glyph-name="uni04B4" unicode="&#x4b4;" 
d="M254 0v1153h80l2 -1069h553v1069h86v-1069h151v-328q0 -55 -41 -55q-45 0 -45 55v244h-786z" />
    <glyph glyph-name="uni04B5" unicode="&#x4b5;" 
d="M270 0v856h86v-772h545v772h84v-772h113v-270q0 -56 -45 -56q-37 0 -37 56v186h-746z" />
    <glyph glyph-name="uni04B6" unicode="&#x4b6;" 
d="M932 84h92q57 0 57 -41v-244q0 -55 -41 -55q-45 0 -45 55v201h-106q-19 0 3 26q34 39 38 48q2 6 2 10zM932 0h-84v496q-29 -36 -100 -63t-146 -27q-54 0 -91.5 2.5t-84.5 12t-77 26.5t-54.5 49.5t-32.5 78.5v578h86v-561q7 -33 32 -54.5t64.5 -31.5t76 -13.5t85.5 -3.5
q77 0 140.5 30t101.5 79l-2 555h86v-1153z" />
    <glyph glyph-name="uni04B7" unicode="&#x4b7;" 
d="M905 84h72q55 0 55 -41v-229q0 -56 -43 -56q-41 0 -41 56v186h-86q-19 0 3 26q34 39 38 48q2 6 2 10zM823 0v354q-63 -63 -205 -63q-42 0 -62.5 0.5t-58.5 3t-57.5 7.5t-46.5 16t-40.5 26t-23.5 39t-10 55v418h82v-416q7 -33 73 -51t144 -16q64 3 123.5 24t81.5 47v412
h84v-856h-84z" />
    <glyph glyph-name="uni04B8" unicode="&#x4b8;" 
d="M565 705q0 59 41 59q45 0 45 -59v-484q0 -53 -45 -53q-41 0 -41 53v484zM932 0h-84v496q-29 -36 -100 -63t-146 -27q-54 0 -91.5 2.5t-84.5 12t-77 26.5t-54.5 49.5t-32.5 78.5v578h86v-561q7 -33 32 -54.5t64.5 -31.5t76 -13.5t85.5 -3.5q77 0 140.5 30t101.5 79l-2 555
h86v-1153z" />
    <glyph glyph-name="uni04B9" unicode="&#x4b9;" 
d="M573 492q0 36 45 36q22 0 29.5 -8t7.5 -28v-316q0 -20 -8 -28.5t-29 -8.5q-45 0 -45 37v316zM823 0v354q-63 -63 -205 -63q-42 0 -62.5 0.5t-58.5 3t-57.5 7.5t-46.5 16t-40.5 26t-23.5 39t-10 55v418h82v-416q7 -33 73 -51t144 -16q64 3 123.5 24t81.5 47v412h84v-856
h-84z" />
    <glyph glyph-name="uni04BA" unicode="&#x4ba;" 
d="M387 1153v-494q24 34 96 61.5t148 27.5q53 0 91.5 -2.5t83.5 -13t76 -28.5t56 -50.5t35 -78.5v-575h-84v561q-20 62 -88.5 82.5t-177.5 20.5q-75 0 -136.5 -30t-99.5 -81v-553h-88v1153h88z" />
    <glyph glyph-name="uni04BB" unicode="&#x4bb;" 
d="M907 0h-84v412q-6 34 -71 52.5t-142 18.5q-63 -3 -123.5 -24.5t-85.5 -48.5v-410h-82v856h82v-354q77 61 209 61q42 0 62.5 -0.5t58 -3t57 -7.5t46.5 -16t40 -26t23 -39t10 -55v-416z" />
    <glyph glyph-name="uni04BC" unicode="&#x4bc;" 
d="M1063 868q0 -55 -43 -55q-38 0 -41 49q-6 94 -112 164t-242 70q-170 0 -291 -130t-121 -313v-145q0 -121 60.5 -226.5t163.5 -168t222 -62.5q106 0 190 43.5t167 141.5q18 20 37 20t30 -11t11 -28q0 -32 -78 -104q-155 -146 -357 -146q-102 0 -200 44t-170 116.5
t-116 170t-44 198.5v170q0 94 39.5 193t105.5 169q143 152 351 152q44 0 92.5 -8.5t104.5 -30.5t103 -55.5t85 -90t53 -127.5z" />
    <glyph glyph-name="uni04BD" unicode="&#x4bd;" 
d="M1047 610q0 -55 -41 -55q-20 0 -30 11.5t-13 37.5q-6 82 -101.5 138.5t-224.5 56.5q-169 0 -275 -105t-106 -274q0 -161 107 -265t274 -104q223 0 383 148q20 20 37 20q15 0 27 -12t12 -27q0 -40 -88 -100q-163 -113 -375 -113q-201 0 -331 127t-130 324q0 203 133 334
t338 131q54 0 111 -12t120 -40t110.5 -85t62.5 -136z" />
    <glyph glyph-name="uni04BE" unicode="&#x4be;" 
d="M1063 868q0 -55 -43 -55q-38 0 -41 49q-6 94 -112 164t-242 70q-170 0 -291 -130t-121 -313v-145q0 -121 60.5 -226.5t163.5 -168t222 -62.5q106 0 190 43.5t167 141.5q18 20 37 20t30 -11t11 -28q0 -32 -78 -104q-155 -146 -357 -146q-102 0 -200 44t-170 116.5
t-116 170t-44 198.5v170q0 94 39.5 193t105.5 169q143 152 351 152q44 0 92.5 -8.5t104.5 -30.5t103 -55.5t85 -90t53 -127.5z" />
    <glyph glyph-name="uni04BF" unicode="&#x4bf;" 
d="M1047 610q0 -55 -41 -55q-20 0 -30 11.5t-13 37.5q-6 82 -101.5 138.5t-224.5 56.5q-169 0 -275 -105t-106 -274q0 -161 107 -265t274 -104q223 0 383 148q20 20 37 20q15 0 27 -12t12 -27q0 -40 -88 -100q-163 -113 -375 -113q-201 0 -331 127t-130 324q0 203 133 334
t338 131q54 0 111 -12t120 -40t110.5 -85t62.5 -136z" />
    <glyph glyph-name="uni04C0" unicode="&#x4c0;" 
d="M571 1153h84v-1153h-84v1153z" />
    <glyph glyph-name="uni04C1" unicode="&#x4c1;" 
d="M360 1501q18 0 26.5 -10t14.5 -35q6 -58 66.5 -96.5t146.5 -38.5q84 0 145.5 38.5t67.5 96.5q6 45 41 45q41 0 41 -45q0 -93 -84.5 -156t-210.5 -63q-123 0 -209 63.5t-86 155.5q0 45 41 45zM1124 0h-84q-34 145 -70 243t-83.5 164t-99.5 105.5t-128 73.5v-586h-86v586
q-104 -46 -168.5 -104.5t-119.5 -174.5t-97 -307h-84q17 119 47 216t66.5 164t85 120t95.5 86t106 61l-463 506h102l430 -465v465h86v-465l424 465h105l-463 -506q59 -28 106 -61t96 -86t85 -119.5t66 -163.5t46 -217z" />
    <glyph glyph-name="uni04C2" unicode="&#x4c2;" 
d="M360 1204q18 0 26 -10.5t15 -34.5q6 -60 66.5 -100.5t146.5 -40.5q84 0 145.5 40.5t67.5 100.5q6 45 41 45q18 0 29.5 -14t11.5 -35q0 -94 -84.5 -155.5t-210.5 -61.5t-210.5 61.5t-84.5 155.5q0 49 41 49zM1108 0h-94q-4 35 -14.5 68t-23 59t-33.5 52.5t-38 45t-46 40.5
l-47 35t-52 32.5l-51 29t-52 27.5v-389h-84v389q-45 -23 -67.5 -35.5t-64.5 -38.5t-65.5 -45.5t-55.5 -51t-50 -62t-34 -71t-21 -85.5h-94q7 68 32.5 128t61 105t85.5 85.5t98 69.5t106 56l-467 412h123l413 -362v362h84v-362l418 362h119l-469 -412q75 -37 134.5 -77.5
t116 -94.5t91 -123.5t41.5 -148.5z" />
    <glyph glyph-name="uni04C3" unicode="&#x4c3;" 
d="M1036 0h-98q-77 213 -138 329.5t-128.5 178.5t-167.5 94l-166 -149v-453h-84v1153h84v-594l668 594h116l-549 -489q80 -33 129.5 -68t103.5 -109.5t104.5 -184.5t125.5 -302z" />
    <glyph glyph-name="uni04C4" unicode="&#x4c4;" 
d="M983 856l-528 -412l594 -444h-119l-539 389v-389h-84v856h84v-362l465 362h127z" />
    <glyph glyph-name="uni04C7" unicode="&#x4c7;" 
d="M342 1153v-512h553v512h84v-1153h-84v557h-553v-557h-84v1153h84z" />
    <glyph glyph-name="uni04C8" unicode="&#x4c8;" 
d="M965 0h-84v377h-545v-377h-86v856h86v-395h545v395h84v-856z" />
    <glyph glyph-name="uni04CB" unicode="&#x4cb;" 
d="M932 0h-84v496q-29 -36 -100 -63t-146 -27q-54 0 -91.5 2.5t-84.5 12t-77 26.5t-54.5 49.5t-32.5 78.5v578h86v-561q7 -33 32 -54.5t64.5 -31.5t76 -13.5t85.5 -3.5q77 0 140.5 30t101.5 79l-2 555h86v-1153z" />
    <glyph glyph-name="uni04CC" unicode="&#x4cc;" 
d="M823 0v354q-63 -63 -205 -63q-42 0 -62.5 0.5t-58.5 3t-57.5 7.5t-46.5 16t-40.5 26t-23.5 39t-10 55v418h82v-416q7 -33 73 -51t144 -16q64 3 123.5 24t81.5 47v412h84v-856h-84z" />
    <glyph glyph-name="uni04D0" unicode="&#x4d0;" 
d="M360 1554q18 0 26.5 -9t14.5 -32q6 -59 66.5 -99t146.5 -40q83 0 145 40.5t68 98.5q6 41 41 41q41 0 41 -45q0 -93 -84.5 -156t-210.5 -63q-123 0 -209 63.5t-86 155.5q0 45 41 45zM106 0l431 1153h139l434 -1153h-88l-145 385h-545l-142 -385h-84zM846 469l-230 600h-30
l-221 -600h481z" />
    <glyph glyph-name="uni04D1" unicode="&#x4d1;" 
d="M377 1284q18 0 26.5 -9t14.5 -32q6 -59 66.5 -99t146.5 -40q83 0 145 40.5t68 98.5q6 41 41 41q41 0 41 -45q0 -93 -84.5 -156t-210.5 -63q-123 0 -209 63.5t-86 155.5q0 45 41 45zM858 0v137q-182 -170 -391 -170q-143 0 -231.5 72.5t-88.5 189.5q0 133 120.5 216
t312.5 83q70 0 128.5 -9t149.5 -34v146q0 75 -70 121.5t-182 46.5q-55 0 -112 -12.5t-179 -49.5q-16 -4 -20 -4q-15 0 -27 12t-12 29q0 31 35 43q85 29 174.5 47.5t146.5 18.5q142 0 236 -71.5t94 -180.5v-631h-84zM858 229v185q-123 30 -262 30q-163 0 -264 -60t-101 -157
q0 -80 64 -128t170 -48q109 0 200 41t193 137z" />
    <glyph glyph-name="uni04D2" unicode="&#x4d2;" 
d="M106 0l431 1153h139l434 -1153h-88l-145 385h-545l-142 -385h-84zM846 469l-230 600h-30l-221 -600h481zM383 1558q43 0 73 -30.5t30 -73.5q0 -40 -31 -70t-72 -30t-71.5 30.5t-30.5 71.5t30.5 71.5t71.5 30.5zM836 1558q43 0 72.5 -30.5t29.5 -73.5q0 -40 -30.5 -70
t-71.5 -30t-72 30.5t-31 71.5t31 71.5t72 30.5z" />
    <glyph glyph-name="uni04D3" unicode="&#x4d3;" 
d="M858 0v137q-182 -170 -391 -170q-143 0 -231.5 72.5t-88.5 189.5q0 133 120.5 216t312.5 83q70 0 128.5 -9t149.5 -34v146q0 75 -70 121.5t-182 46.5q-55 0 -112 -12.5t-179 -49.5q-16 -4 -20 -4q-15 0 -27 12t-12 29q0 31 35 43q85 29 174.5 47.5t146.5 18.5
q142 0 236 -71.5t94 -180.5v-631h-84zM858 229v185q-123 30 -262 30q-163 0 -264 -60t-101 -157q0 -80 64 -128t170 -48q109 0 200 41t193 137zM366 1251q43 0 73 -30.5t30 -73.5q0 -40 -31 -70t-72 -30t-71.5 30.5t-30.5 71.5t30.5 71.5t71.5 30.5zM819 1251
q43 0 72.5 -30.5t29.5 -73.5q0 -40 -30.5 -70t-71.5 -30t-72 30.5t-31 71.5t31 71.5t72 30.5z" />
    <glyph glyph-name="uni04D4" unicode="&#x4d4;" 
d="M212 0h-84l318 1153h721v-84h-475v-426h242v-84h-242v-475h516v-84h-600v387h-289zM608 471v598h-102l-164 -598h266z" />
    <glyph glyph-name="uni04D5" unicode="&#x4d5;" 
d="M655 125v-70q0 -55 -41 -55t-41 55v51q-60 -72 -119 -105.5t-126 -33.5q-130 0 -216.5 86.5t-86.5 216.5q0 100 92 174q47 35 127 58.5t155 23.5q85 0 174 -24v123q0 72 -52.5 123t-127.5 51q-93 0 -172 -51q-26 -15 -37 -15q-13 0 -26 13.5t-13 27.5q0 32 60 57
q116 52 203 52q75 0 138.5 -47t92.5 -125q37 79 102.5 125.5t139.5 46.5q92 0 162 -57t102 -160q34 -104 37 -258h-529q10 -156 83.5 -256.5t176.5 -100.5q44 0 86.5 24.5t116.5 92.5q13 10 27 10q17 0 29 -12.5t12 -28.5q0 -15 -14 -31.5t-50 -46.5q-65 -48 -114 -70
t-97 -22q-71 0 -138 41.5t-116 116.5zM573 225v191q-89 26 -161 26q-66 0 -142 -25t-110 -57q-43 -43 -43 -112q0 -86 60.5 -141.5t154.5 -55.5q57 0 113 40.5t128 133.5zM655 492h441q-16 134 -47 194q-26 54 -71 83.5t-99 29.5q-184 0 -224 -307z" />
    <glyph glyph-name="uni04D6" unicode="&#x4d6;" 
d="M321 1555q35 0 41 -45q5 -59 66 -98.5t147 -39.5t146.5 39.5t66.5 98.5q6 45 43 45q18 0 29.5 -13t11.5 -34q0 -92 -85.5 -155.5t-211.5 -63.5t-211.5 63.5t-85.5 155.5q0 22 11.5 34.5t31.5 12.5zM1022 1069h-684v-428h381v-84h-381v-473h727v-84h-811v1153h768v-84z
" />
    <glyph glyph-name="uni04D7" unicode="&#x4d7;" 
d="M344 1270q35 0 41 -45q5 -59 66 -98.5t147 -39.5t146.5 39.5t66.5 98.5q6 45 43 45q18 0 29.5 -13t11.5 -34q0 -92 -85.5 -155.5t-211.5 -63.5t-211.5 63.5t-85.5 155.5q0 22 11.5 34.5t31.5 12.5zM1065 408h-852q22 -161 135 -259t279 -98q96 0 196.5 31t161.5 80
q20 14 33 14q15 0 27 -12t12 -29q0 -35 -68.5 -75t-171 -66.5t-192.5 -26.5q-207 0 -351.5 139t-144.5 338q0 186 135 312.5t332 126.5q147 0 262.5 -73.5t171.5 -201.5q22 -50 28.5 -89.5t6.5 -110.5zM213 492h766q-25 139 -129.5 223t-253.5 84t-252 -83t-131 -224z" />
    <glyph glyph-name="uni04D8" unicode="&#x4d8;" 
d="M1024 518h-821v-22q0 -184 120 -314.5t291 -130.5q111 0 205.5 60t149.5 162.5t55 222.5v22zM1024 598v39q0 186 -132.5 322.5t-313.5 136.5q-103 0 -186.5 -43.5t-170.5 -141.5q-10 -10 -13.5 -13t-9.5 -6t-14 -3q-16 0 -28.5 12t-12.5 29q0 32 78 104q164 148 357 148
q138 0 262 -74.5t198 -197.5t74 -259v-168q0 -95 -40 -194t-105 -170q-143 -152 -353 -152q-209 0 -352 152q-67 70 -105 168t-38 196v115h905z" />
    <glyph glyph-name="afii10846" unicode="&#x4d9;" 
d="M999 471q-12 146 -117 237t-264 91q-220 0 -380 -148q-20 -20 -37 -20q-16 0 -28.5 11t-12.5 28q0 38 90 100q162 113 377 113q199 0 328.5 -128t129.5 -323q0 -203 -133 -334t-338 -131t-338 131t-133 334v19v31v39v6v5v4v3v3v3v2v2v1v2v1v1v1v1v1v1v0v1v0v-1v0v-1v0v-1
v-1v-1v-1v-1v-1v-1v-1v-1v-1v-1v-1v-1v-1v-2v-1v-1v-1v-1v-1v-1v-2v-1v-1v-2v-1v-1v-2v-1v-1v-2v-1v-2v-1v-1v-2v-1v-2v-2v-1v-2v-1v-2v-1v-2v-2v-1v-2v-2v-1v-2v-2v-2v-1v-2v-2v-2v-8h856zM999 387h-770q15 -153 118.5 -244.5t270.5 -91.5q162 0 265.5 92t115.5 244z" />
    <glyph glyph-name="uni04DA" unicode="&#x4da;" 
d="M397 1558q43 0 73 -30.5t30 -73.5q0 -40 -31 -70t-72 -30t-71.5 30.5t-30.5 71.5t30.5 71.5t71.5 30.5zM850 1558q43 0 72.5 -30.5t29.5 -73.5q0 -40 -30.5 -70t-71.5 -30t-72 30.5t-31 71.5t31 71.5t72 30.5zM1024 518h-821v-22q0 -184 120 -314.5t291 -130.5
q111 0 205.5 60t149.5 162.5t55 222.5v22zM1024 598v39q0 186 -132.5 322.5t-313.5 136.5q-103 0 -186.5 -43.5t-170.5 -141.5q-10 -10 -13.5 -13t-9.5 -6t-14 -3q-16 0 -28.5 12t-12.5 29q0 32 78 104q164 148 357 148q138 0 262 -74.5t198 -197.5t74 -259v-168
q0 -95 -40 -194t-105 -170q-143 -152 -353 -152q-209 0 -352 152q-67 70 -105 168t-38 196v115h905z" />
    <glyph glyph-name="uni04DB" unicode="&#x4db;" 
d="M387 1251q43 0 73 -30.5t30 -73.5q0 -40 -31 -70t-72 -30t-71.5 30.5t-30.5 71.5t30.5 71.5t71.5 30.5zM840 1251q43 0 72.5 -30.5t29.5 -73.5q0 -40 -30.5 -70t-71.5 -30t-72 30.5t-31 71.5t31 71.5t72 30.5zM999 471q-12 146 -117 237t-264 91q-220 0 -380 -148
q-20 -20 -37 -20q-16 0 -28.5 11t-12.5 28q0 38 90 100q162 113 377 113q199 0 328.5 -128t129.5 -323q0 -203 -133 -334t-338 -131t-338 131t-133 334v19v31v39v6v5v4v3v3v3v2v2v1v2v1v1v1v1v1v1v0v1v0v-1v0v-1v0v-1v-1v-1v-1v-1v-1v-1v-1v-1v-1v-1v-1v-1v-1v-2v-1v-1v-1
v-1v-1v-1v-2v-1v-1v-2v-1v-1v-2v-1v-1v-2v-1v-2v-1v-1v-2v-1v-2v-2v-1v-2v-1v-2v-1v-2v-2v-1v-2v-2v-1v-2v-2v-2v-1v-2v-2v-2v-8h856zM999 387h-770q15 -153 118.5 -244.5t270.5 -91.5q162 0 265.5 92t115.5 244z" />
    <glyph glyph-name="uni04DC" unicode="&#x4dc;" 
d="M387 1558q43 0 73 -30.5t30 -73.5q0 -40 -31 -70t-72 -30t-71.5 30.5t-30.5 71.5t30.5 71.5t71.5 30.5zM840 1558q43 0 72.5 -30.5t29.5 -73.5q0 -40 -30.5 -70t-71.5 -30t-72 30.5t-31 71.5t31 71.5t72 30.5zM1124 0h-84q-34 145 -70 243t-83.5 164t-99.5 105.5
t-128 73.5v-586h-86v586q-104 -46 -168.5 -104.5t-119.5 -174.5t-97 -307h-84q17 119 47 216t66.5 164t85 120t95.5 86t106 61l-463 506h102l430 -465v465h86v-465l424 465h105l-463 -506q59 -28 106 -61t96 -86t85 -119.5t66 -163.5t46 -217z" />
    <glyph glyph-name="uni04DD" unicode="&#x4dd;" 
d="M387 1251q43 0 73 -30.5t30 -73.5q0 -40 -31 -70t-72 -30t-71.5 30.5t-30.5 71.5t30.5 71.5t71.5 30.5zM840 1251q43 0 72.5 -30.5t29.5 -73.5q0 -40 -30.5 -70t-71.5 -30t-72 30.5t-31 71.5t31 71.5t72 30.5zM1108 0h-94q-4 35 -14.5 68t-23 59t-33.5 52.5t-38 45
t-46 40.5l-47 35t-52 32.5l-51 29t-52 27.5v-389h-84v389q-45 -23 -67.5 -35.5t-64.5 -38.5t-65.5 -45.5t-55.5 -51t-50 -62t-34 -71t-21 -85.5h-94q7 68 32.5 128t61 105t85.5 85.5t98 69.5t106 56l-467 412h123l413 -362v362h84v-362l418 362h119l-469 -412
q75 -37 134.5 -77.5t116 -94.5t91 -123.5t41.5 -148.5z" />
    <glyph glyph-name="uni04DE" unicode="&#x4de;" 
d="M385 1558q43 0 73 -30.5t30 -73.5q0 -40 -31 -70t-72 -30t-71.5 30.5t-30.5 71.5t30.5 71.5t71.5 30.5zM838 1558q43 0 72.5 -30.5t29.5 -73.5q0 -40 -30.5 -70t-71.5 -30t-72 30.5t-31 71.5t31 71.5t72 30.5zM233 889q0 86 58.5 155.5t148 105.5t185.5 32
q147 -5 258.5 -97.5t111.5 -222.5q0 -66 -27 -122.5t-79 -92.5q-8 -4 -22.5 -12t-26.5 -13.5t-25 -9.5v-16q48 -14 98 -45q61 -36 94 -100.5t33 -141.5q0 -97 -60.5 -175.5t-154.5 -121t-200 -45.5q-108 -3 -206.5 32t-164.5 111t-66 177q0 55 41 55q36 0 43 -51
q1 -99 102 -169.5t240 -70.5q145 0 240.5 74t95.5 188q0 55 -25.5 100t-68.5 72q-31 21 -54.5 32.5t-72 22.5t-111.5 11h-122q-58 0 -58 45q0 19 15.5 30t42.5 11h94q80 0 131.5 17t101.5 48q39 26 60.5 68.5t21.5 89.5q0 101 -84.5 168.5t-210.5 67.5q-121 0 -202 -61
t-84 -156q-6 -45 -50 -45q-41 0 -41 55z" />
    <glyph glyph-name="uni04DF" unicode="&#x4df;" 
d="M387 1251q43 0 73 -30.5t30 -73.5q0 -40 -31 -70t-72 -30t-71.5 30.5t-30.5 71.5t30.5 71.5t71.5 30.5zM840 1251q43 0 72.5 -30.5t29.5 -73.5q0 -40 -30.5 -70t-71.5 -30t-72 30.5t-31 71.5t31 71.5t72 30.5zM213 225q0 22 10.5 39t30.5 17q16 0 29.5 -13.5t13.5 -31.5
v-15q0 -72 91.5 -121t221.5 -49q132 0 222 54t90 133q0 37 -24.5 72.5t-66.5 56.5q-31 18 -52.5 28t-65 18.5t-99.5 8.5h-143q-25 0 -39 11t-14 30q0 43 53 43h102q30 0 54 0.5t44 2.5t33.5 2.5t27.5 4.5t20.5 5t17.5 6.5t13.5 6.5t14 8.5t13.5 8.5q66 37 66 96
q0 65 -76.5 108.5t-190.5 43.5q-116 0 -190.5 -42t-83.5 -110q-3 -26 -11.5 -37.5t-27.5 -11.5q-20 0 -31.5 17.5t-11.5 41.5q0 68 58.5 121.5t142 79.5t170.5 25q82 -1 160.5 -30t131 -83t52.5 -119q0 -94 -92 -162l-33 -16v-12q51 -24 69 -39q49 -34 76 -82t27 -102
q0 -76 -61 -139t-151.5 -96.5t-185.5 -35.5q-72 -1 -142.5 14.5t-130 46t-96 82t-36.5 115.5z" />
    <glyph glyph-name="uni04E0" unicode="&#x4e0;" 
d="M233 889q0 86 58.5 155.5t148 105.5t185.5 32q147 -5 258.5 -97.5t111.5 -222.5q0 -66 -27 -122.5t-79 -92.5q-8 -4 -22.5 -12t-26.5 -13.5t-25 -9.5v-16q48 -14 98 -45q61 -36 94 -100.5t33 -141.5q0 -97 -60.5 -175.5t-154.5 -121t-200 -45.5q-108 -3 -206.5 32
t-164.5 111t-66 177q0 55 41 55q36 0 43 -51q1 -99 102 -169.5t240 -70.5q145 0 240.5 74t95.5 188q0 55 -25.5 100t-68.5 72q-31 21 -54.5 32.5t-72 22.5t-111.5 11h-122q-58 0 -58 45q0 19 15.5 30t42.5 11h94q80 0 131.5 17t101.5 48q39 26 60.5 68.5t21.5 89.5
q0 101 -84.5 168.5t-210.5 67.5q-121 0 -202 -61t-84 -156q-6 -45 -50 -45q-41 0 -41 55z" />
    <glyph glyph-name="uni04E1" unicode="&#x4e1;" 
d="M213 225q0 22 10.5 39t30.5 17q16 0 29.5 -13.5t13.5 -31.5v-15q0 -72 91.5 -121t221.5 -49q132 0 222 54t90 133q0 37 -24.5 72.5t-66.5 56.5q-31 18 -52.5 28t-65 18.5t-99.5 8.5h-143q-25 0 -39 11t-14 30q0 43 53 43h102q30 0 54 0.5t44 2.5t33.5 2.5t27.5 4.5
t20.5 5t17.5 6.5t13.5 6.5t14 8.5t13.5 8.5q66 37 66 96q0 65 -76.5 108.5t-190.5 43.5q-116 0 -190.5 -42t-83.5 -110q-3 -26 -11.5 -37.5t-27.5 -11.5q-20 0 -31.5 17.5t-11.5 41.5q0 68 58.5 121.5t142 79.5t170.5 25q82 -1 160.5 -30t131 -83t52.5 -119q0 -94 -92 -162
l-33 -16v-12q51 -24 69 -39q49 -34 76 -82t27 -102q0 -76 -61 -139t-151.5 -96.5t-185.5 -35.5q-72 -1 -142.5 14.5t-130 46t-96 82t-36.5 115.5z" />
    <glyph glyph-name="uni04E2" unicode="&#x4e2;" 
d="M856 1237h-483q-54 0 -54 39q0 41 54 41h483q57 0 57 -41q0 -39 -57 -39zM254 0v1153h84v-821l555 547v274h80v-1153h-80v772l-555 -551v-221h-84z" />
    <glyph glyph-name="uni04E3" unicode="&#x4e3;" 
d="M856 1098h-483q-56 0 -56 41t56 41h483q55 0 55 -41t-55 -41zM977 0h-88v557l-547 -387v-169l-84 -1v856h84v-575l547 385v190h88v-856z" />
    <glyph glyph-name="uni04E4" unicode="&#x4e4;" 
d="M393 1558q43 0 73 -30.5t30 -73.5q0 -40 -31 -70t-72 -30t-71.5 30.5t-30.5 71.5t30.5 71.5t71.5 30.5zM846 1558q43 0 72.5 -30.5t29.5 -73.5q0 -40 -30.5 -70t-71.5 -30t-72 30.5t-31 71.5t31 71.5t72 30.5zM254 0v1153h84v-821l555 547v274h80v-1153h-80v772
l-555 -551v-221h-84z" />
    <glyph glyph-name="uni04E5" unicode="&#x4e5;" 
d="M397 1251q43 0 73 -30.5t30 -73.5q0 -40 -31 -70t-72 -30t-71.5 30.5t-30.5 71.5t30.5 71.5t71.5 30.5zM850 1251q43 0 72.5 -30.5t29.5 -73.5q0 -40 -30.5 -70t-71.5 -30t-72 30.5t-31 71.5t31 71.5t72 30.5zM977 0h-88v557l-547 -387v-169l-84 -1v856h84v-575l547 385
v190h88v-856z" />
    <glyph glyph-name="uni04E6" unicode="&#x4e6;" 
d="M614 1180q142 0 259 -80.5t184 -221.5t67 -313q0 -162 -68.5 -300t-186 -218t-255.5 -80q-140 0 -257.5 80.5t-185 220t-67.5 305.5t67.5 306t185 220.5t257.5 80.5zM614 1096q-116 0 -214 -70.5t-155 -191t-57 -261.5t57.5 -261.5t155.5 -190.5t213 -70q114 0 212 70
t156 189t58 257q0 221 -124 375t-302 154zM387 1558q43 0 73 -30.5t30 -73.5q0 -40 -31 -70t-72 -30t-71.5 30.5t-30.5 71.5t30.5 71.5t71.5 30.5zM840 1558q43 0 72.5 -30.5t29.5 -73.5q0 -40 -30.5 -70t-71.5 -30t-72 30.5t-31 71.5t31 71.5t72 30.5z" />
    <glyph glyph-name="uni04E7" unicode="&#x4e7;" 
d="M614 883q197 0 332 -134t135 -329q0 -123 -62.5 -227.5t-170 -165t-234.5 -60.5q-195 0 -331 133.5t-136 325.5q0 189 136 323t331 134zM614 799q-160 0 -271.5 -109t-111.5 -264q0 -157 111.5 -266t271.5 -109q158 0 270.5 108.5t112.5 260.5q0 161 -110.5 270
t-272.5 109zM387 1251q43 0 73 -30.5t30 -73.5q0 -40 -31 -70t-72 -30t-71.5 30.5t-30.5 71.5t30.5 71.5t71.5 30.5zM840 1251q43 0 72.5 -30.5t29.5 -73.5q0 -40 -30.5 -70t-71.5 -30t-72 30.5t-31 71.5t31 71.5t72 30.5z" />
    <glyph glyph-name="uni04E8" unicode="&#x4e8;" 
d="M614 1182q106 0 201 -47.5t163 -129.5t108 -197t40 -245q0 -161 -68.5 -298.5t-186.5 -217.5t-257 -80t-257 80.5t-186.5 220t-68.5 305.5t68.5 306.5t186.5 221.5t257 81zM1040 614q-15 206 -136.5 344t-289.5 138q-110 0 -204.5 -64.5t-151.5 -174.5t-65 -243h847z
M1040 530h-847q8 -132 65 -241.5t151.5 -173.5t204.5 -64q165 0 289.5 141t136.5 338z" />
    <glyph glyph-name="uni04E9" unicode="&#x4e9;" 
d="M614 883q197 0 332 -134.5t135 -330.5q0 -187 -136.5 -319t-330.5 -132q-197 0 -332 133t-135 326q0 191 135.5 324t331.5 133zM995 461q-15 148 -121.5 243t-259.5 95q-151 0 -258.5 -98t-122.5 -240h762zM995 377h-762q19 -140 126.5 -233t254.5 -93t256.5 94
t124.5 232z" />
    <glyph glyph-name="uni04EA" unicode="&#x4ea;" 
d="M397 1558q43 0 73 -30.5t30 -73.5q0 -40 -31 -70t-72 -30t-71.5 30.5t-30.5 71.5t30.5 71.5t71.5 30.5zM850 1558q43 0 72.5 -30.5t29.5 -73.5q0 -40 -30.5 -70t-71.5 -30t-72 30.5t-31 71.5t31 71.5t72 30.5zM614 1182q106 0 201 -47.5t163 -129.5t108 -197t40 -245
q0 -161 -68.5 -298.5t-186.5 -217.5t-257 -80t-257 80.5t-186.5 220t-68.5 305.5t68.5 306.5t186.5 221.5t257 81zM1040 614q-15 206 -136.5 344t-289.5 138q-110 0 -204.5 -64.5t-151.5 -174.5t-65 -243h847zM1040 530h-847q8 -132 65 -241.5t151.5 -173.5t204.5 -64
q165 0 289.5 141t136.5 338z" />
    <glyph glyph-name="uni04EB" unicode="&#x4eb;" 
d="M387 1251q43 0 73 -30.5t30 -73.5q0 -40 -31 -70t-72 -30t-71.5 30.5t-30.5 71.5t30.5 71.5t71.5 30.5zM840 1251q43 0 72.5 -30.5t29.5 -73.5q0 -40 -30.5 -70t-71.5 -30t-72 30.5t-31 71.5t31 71.5t72 30.5zM614 883q197 0 332 -134.5t135 -330.5q0 -187 -136.5 -319
t-330.5 -132q-197 0 -332 133t-135 326q0 191 135.5 324t331.5 133zM995 461q-15 148 -121.5 243t-259.5 95q-151 0 -258.5 -98t-122.5 -240h762zM995 377h-762q19 -140 126.5 -233t254.5 -93t256.5 94t124.5 232z" />
    <glyph glyph-name="uni04EC" unicode="&#x4ec;" 
d="M389 1558q43 0 73 -30.5t30 -73.5q0 -40 -31 -70t-72 -30t-71.5 30.5t-30.5 71.5t30.5 71.5t71.5 30.5zM842 1558q43 0 72.5 -30.5t29.5 -73.5q0 -40 -30.5 -70t-71.5 -30t-72 30.5t-31 71.5t31 71.5t72 30.5zM164 866q0 22 23.5 82t58.5 92q155 142 356 142
q100 0 190 -39.5t158 -112.5q67 -72 107.5 -171.5t40.5 -192.5v-170q0 -101 -44.5 -198.5t-117.5 -170t-172 -116.5t-203 -44q-96 0 -187.5 37.5t-164.5 108.5q-78 72 -78 102q0 17 11 30t26 13q25 0 41 -22q86 -99 168 -142t184 -43q121 0 225 62t165 167t61 226v51h-553
q-53 0 -53 41q0 23 12.5 33t40.5 10h553v12q0 184 -120.5 313.5t-289.5 129.5q-137 0 -243.5 -70.5t-112.5 -163.5q0 -24 -12 -37.5t-33 -13.5q-37 0 -37 55z" />
    <glyph glyph-name="uni04ED" unicode="&#x4ed;" 
d="M387 1251q43 0 73 -30.5t30 -73.5q0 -40 -31 -70t-72 -30t-71.5 30.5t-30.5 71.5t30.5 71.5t71.5 30.5zM840 1251q43 0 72.5 -30.5t29.5 -73.5q0 -40 -30.5 -70t-71.5 -30t-72 30.5t-31 71.5t31 71.5t72 30.5zM291 770q119 113 315 113q205 0 338 -131t133 -334
q0 -196 -130.5 -323.5t-332.5 -127.5q-210 0 -372 113q-90 62 -90 100q0 17 12.5 28t28.5 11q15 0 40 -20q160 -148 381 -148q156 0 261 90.5t120 235.5h-557q-61 0 -61 41q0 43 61 43h557q-15 150 -120 244t-261 94q-132 0 -224.5 -55.5t-98.5 -137.5q-6 -29 -17 -41
t-32 -12q-37 0 -37 59q0 19 25.5 72.5t60.5 85.5z" />
    <glyph glyph-name="uni04EE" unicode="&#x4ee;" 
d="M856 1405h-483q-56 0 -56 41t56 41h483q55 0 55 -41t-55 -41zM330 0l260 463l-457 690h107l403 -612l342 612h102l-655 -1153h-102z" />
    <glyph glyph-name="uni04EF" unicode="&#x4ef;" 
d="M856 1098h-483q-56 0 -56 41t56 41h483q55 0 55 -41t-55 -41zM1081 854l-606 -1235h-84l187 381l-426 854h96l377 -762l370 762h86z" />
    <glyph glyph-name="uni04F0" unicode="&#x4f0;" 
d="M397 1558q43 0 73 -30.5t30 -73.5q0 -40 -31 -70t-72 -30t-71.5 30.5t-30.5 71.5t30.5 71.5t71.5 30.5zM850 1558q43 0 72.5 -30.5t29.5 -73.5q0 -40 -30.5 -70t-71.5 -30t-72 30.5t-31 71.5t31 71.5t72 30.5zM330 0l260 463l-457 690h107l403 -612l342 612h102
l-655 -1153h-102z" />
    <glyph glyph-name="uni04F1" unicode="&#x4f1;" 
d="M387 1251q43 0 73 -30.5t30 -73.5q0 -40 -31 -70t-72 -30t-71.5 30.5t-30.5 71.5t30.5 71.5t71.5 30.5zM840 1251q43 0 72.5 -30.5t29.5 -73.5q0 -40 -30.5 -70t-71.5 -30t-72 30.5t-31 71.5t31 71.5t72 30.5zM1081 854l-606 -1235h-84l187 381l-426 854h96l377 -762
l370 762h86z" />
    <glyph glyph-name="uni04F2" unicode="&#x4f2;" 
d="M731 1521l-199 -192q-21 -18 -39 -18q-17 0 -29 12t-12 31q0 11 4 17t21 21l201 193q18 18 37 18q17 0 29 -12t12 -31q0 -14 -25 -39zM1022 1521l-201 -192q-21 -18 -39 -18q-17 0 -29 12t-12 31q0 16 19 32l6 6l200 193q21 18 39 18q17 0 29 -12t12 -31q0 -18 -24 -39z
M330 0l260 463l-457 690h107l403 -612l342 612h102l-655 -1153h-102z" />
    <glyph glyph-name="uni04F3" unicode="&#x4f3;" 
d="M596 1214l-199 -192q-21 -18 -39 -18q-17 0 -29 12t-12 31q0 11 4 17t21 21l201 193q18 18 37 18q17 0 29 -12t12 -31q0 -14 -25 -39zM887 1214l-201 -192q-21 -18 -39 -18q-17 0 -29 12t-12 31q0 16 19 32l6 6l200 193q21 18 39 18q17 0 29 -12t12 -31q0 -18 -24 -39z
M1081 854l-606 -1235h-84l187 381l-426 854h96l377 -762l370 762h86z" />
    <glyph glyph-name="uni04F4" unicode="&#x4f4;" 
d="M932 0h-84v496q-29 -36 -100 -63t-146 -27q-54 0 -91.5 2.5t-84.5 12t-77 26.5t-54.5 49.5t-32.5 78.5v578h86v-561q7 -33 32 -54.5t64.5 -31.5t76 -13.5t85.5 -3.5q77 0 140.5 30t101.5 79l-2 555h86v-1153zM373 1558q43 0 73 -30.5t30 -73.5q0 -40 -31 -70t-72 -30
t-71.5 30.5t-30.5 71.5t30.5 71.5t71.5 30.5zM826 1558q43 0 72.5 -30.5t29.5 -73.5q0 -40 -30.5 -70t-71.5 -30t-72 30.5t-31 71.5t31 71.5t72 30.5z" />
    <glyph glyph-name="uni04F5" unicode="&#x4f5;" 
d="M823 0v354q-63 -63 -205 -63q-42 0 -62.5 0.5t-58.5 3t-57.5 7.5t-46.5 16t-40.5 26t-23.5 39t-10 55v418h82v-416q7 -33 73 -51t144 -16q64 3 123.5 24t81.5 47v412h84v-856h-84zM387 1251q43 0 73 -30.5t30 -73.5q0 -40 -31 -70t-72 -30t-71.5 30.5t-30.5 71.5
t30.5 71.5t71.5 30.5zM840 1251q43 0 72.5 -30.5t29.5 -73.5q0 -40 -30.5 -70t-71.5 -30t-72 30.5t-31 71.5t31 71.5t72 30.5z" />
    <glyph glyph-name="uni04F8" unicode="&#x4f8;" 
d="M397 1558q43 0 73 -30.5t30 -73.5q0 -40 -31 -70t-72 -30t-71.5 30.5t-30.5 71.5t30.5 71.5t71.5 30.5zM850 1558q43 0 72.5 -30.5t29.5 -73.5q0 -40 -30.5 -70t-71.5 -30t-72 30.5t-31 71.5t31 71.5t72 30.5zM1096 0h-84v1153h84v-1153zM131 0v1153h84v-473h268
q177 0 296.5 -99.5t119.5 -242.5q0 -142 -112 -240t-275 -98h-381zM215 596v-512h309q120 0 205.5 75t85.5 179q0 106 -94.5 182t-228.5 76h-277z" />
    <glyph glyph-name="uni04F9" unicode="&#x4f9;" 
d="M387 1251q43 0 73 -30.5t30 -73.5q0 -40 -31 -70t-72 -30t-71.5 30.5t-30.5 71.5t30.5 71.5t71.5 30.5zM840 1251q43 0 72.5 -30.5t29.5 -73.5q0 -40 -30.5 -70t-71.5 -30t-72 30.5t-31 71.5t31 71.5t72 30.5zM999 0v856h88v-856h-88zM135 0v856h80v-371h330
q119 0 185.5 -75t66.5 -179q0 -105 -61.5 -168t-194.5 -63h-406zM215 84h322q102 0 139 35t37 112q0 172 -205 172h-293v-319z" />
    <glyph glyph-name="uniF6C4" 
d="M993 584q0 -56 -43 -56q-41 0 -41 56v186h-444v-686h96q53 0 53 -43q0 -19 -14 -30t-39 -11h-270q-58 0 -58 41q0 23 13.5 33t44.5 10h90v686h-70q-53 0 -53 41q0 45 53 45h682v-272z" />
    <glyph glyph-name="uniF6C5" 
d="M991 1065q-168 25 -297.5 15.5t-208 -42t-82.5 -75.5q-3 -25 24 -46t87 -43q24 1 57 4.5t47 4.5q187 0 316 -131t129 -322q0 -127 -57.5 -232.5t-159.5 -167.5t-228 -63q-192 -1 -321 132t-131 331q0 78 21.5 146.5t57 115t71 77.5t71.5 50q-84 74 -84 135
q0 46 19.5 81.5t50 58t79 37t96.5 21t114 7.5t119.5 -1t123.5 -7v78q0 53 45 53q41 0 41 -53v-164zM614 799q-152 0 -258 -109t-106 -264q0 -156 106 -265.5t258 -109.5q149 0 257 109t108 260q0 160 -105.5 269.5t-259.5 109.5z" />
    <glyph glyph-name="uniF6C6" 
d="M915 856v-772h209v-270q0 -56 -43 -56q-19 0 -30 15t-11 41v186h-850v-186q0 -25 -11 -40.5t-27 -15.5q-26 0 -36 14t-10 42v270h238q29 23 29 84v688h542zM455 168q0 -23 -5.5 -44t-10.5 -30l-5 -10h397v686h-376v-602z" />
    <glyph glyph-name="uniF6C7" 
d="M258 856h711v-856h-84v770h-541v-770h-86v856z" />
    <glyph glyph-name="uniF6C8" 
d="M659 -4h-86v774h-364v86h809v-86h-359v-774z" />
    <glyph glyph-name="Ccircumflex" unicode="&#x108;" 
d="M608 1616l271 -222q26 -20 26 -43q0 -17 -12 -28.5t-29 -11.5q-14 0 -36 16l-220 180l-219 -180q-22 -16 -37 -16q-17 0 -29 11.5t-12 28.5q0 22 27 41zM1063 868q0 -55 -43 -55q-38 0 -41 49q-6 94 -112 164t-242 70q-170 0 -291 -130t-121 -313v-145
q0 -121 60.5 -226.5t163.5 -168t222 -62.5q106 0 190 43.5t167 141.5q18 20 37 20t30 -11t11 -28q0 -32 -78 -104q-155 -146 -357 -146q-102 0 -200 44t-170 116.5t-116 170t-44 198.5v170q0 94 39.5 193t105.5 169q143 152 351 152q44 0 92.5 -8.5t104.5 -30.5t103 -55.5
t85 -90t53 -127.5z" />
    <glyph glyph-name="ccircumflex" unicode="&#x109;" 
d="M630 1309l271 -222q26 -20 26 -43q0 -17 -12 -28.5t-29 -11.5q-14 0 -36 16l-220 180l-219 -180q-22 -16 -37 -16q-17 0 -29 11.5t-12 28.5q0 22 27 41zM1047 610q0 -55 -41 -55q-20 0 -30 11.5t-13 37.5q-6 82 -101.5 138.5t-224.5 56.5q-169 0 -275 -105t-106 -274
q0 -161 107 -265t274 -104q223 0 383 148q20 20 37 20q15 0 27 -12t12 -27q0 -40 -88 -100q-163 -113 -375 -113q-201 0 -331 127t-130 324q0 203 133 334t338 131q54 0 111 -12t120 -40t110.5 -85t62.5 -136z" />
    <glyph glyph-name="Cdotaccent" unicode="&#x10a;" 
d="M606 1560q43 0 73 -30.5t30 -73.5q0 -40 -31 -70t-72 -30t-71.5 30.5t-30.5 71.5t30.5 71.5t71.5 30.5zM1063 868q0 -55 -43 -55q-38 0 -41 49q-6 94 -112 164t-242 70q-170 0 -291 -130t-121 -313v-145q0 -121 60.5 -226.5t163.5 -168t222 -62.5q106 0 190 43.5
t167 141.5q18 20 37 20t30 -11t11 -28q0 -32 -78 -104q-155 -146 -357 -146q-102 0 -200 44t-170 116.5t-116 170t-44 198.5v170q0 94 39.5 193t105.5 169q143 152 351 152q44 0 92.5 -8.5t104.5 -30.5t103 -55.5t85 -90t53 -127.5z" />
    <glyph glyph-name="cdotaccent" unicode="&#x10b;" 
d="M632 1251q43 0 73 -30.5t30 -73.5q0 -40 -31 -70t-72 -30t-71.5 30.5t-30.5 71.5t30.5 71.5t71.5 30.5zM1047 610q0 -55 -41 -55q-20 0 -30 11.5t-13 37.5q-6 82 -101.5 138.5t-224.5 56.5q-169 0 -275 -105t-106 -274q0 -161 107 -265t274 -104q223 0 383 148
q20 20 37 20q15 0 27 -12t12 -27q0 -40 -88 -100q-163 -113 -375 -113q-201 0 -331 127t-130 324q0 203 133 334t338 131q54 0 111 -12t120 -40t110.5 -85t62.5 -136z" />
    <glyph glyph-name="Ebreve" unicode="&#x114;" 
d="M1022 1069h-684v-428h381v-84h-381v-473h727v-84h-811v1153h768v-84zM321 1555q35 0 41 -45q5 -59 66 -98.5t147 -39.5t146.5 39.5t66.5 98.5q6 45 43 45q18 0 29.5 -13t11.5 -34q0 -92 -85.5 -155.5t-211.5 -63.5t-211.5 63.5t-85.5 155.5q0 22 11.5 34.5t31.5 12.5z
" />
    <glyph glyph-name="ebreve" unicode="&#x115;" 
d="M365 1255q18 0 26.5 -9t14.5 -32q6 -59 66 -99t146 -40q83 0 145 40.5t68 98.5q6 41 41 41q41 0 41 -45q0 -93 -84.5 -156t-210.5 -63q-123 0 -208.5 63.5t-85.5 155.5q0 45 41 45zM1081 410h-852q22 -164 135.5 -261.5t282.5 -97.5q96 0 196 31t161 80q21 14 32 14
q16 0 28.5 -12t12.5 -29q0 -35 -68.5 -75t-171.5 -66.5t-194 -26.5q-208 0 -352 139t-144 338q0 186 134 312.5t333 126.5q148 0 264 -73t171 -202q21 -49 26.5 -87t5.5 -111zM229 494h770q-28 140 -131.5 222.5t-253.5 82.5q-149 0 -251.5 -82t-133.5 -223z" />
    <glyph glyph-name="Gcircumflex" unicode="&#x11c;" 
d="M647 1616l271 -222q26 -20 26 -43q0 -17 -12 -28.5t-29 -11.5q-14 0 -36 16l-220 180l-219 -180q-22 -16 -37 -16q-17 0 -29 11.5t-12 28.5q0 22 27 41zM981 428h-285v84h369v-438q-185 -107 -383 -107q-252 0 -402.5 145t-150.5 388v151q0 109 45 216t121 180
q142 133 346 133q45 0 92 -6t103 -24.5t101 -47t80.5 -78t47.5 -113.5q0 -55 -41 -55q-38 0 -41 51q-6 78 -104 133.5t-234 55.5q-171 0 -285 -111q-67 -63 -107 -154t-40 -182v-149q0 -209 127 -329t348 -120q80 0 143.5 15t149.5 55v307z" />
    <glyph glyph-name="gcircumflex" unicode="&#x11d;" 
d="M643 1298l270 -223q16 -14 20.5 -22t4.5 -23q0 -17 -11 -28t-30 -11q-14 0 -37 17l-217 180l-221 -180q-17 -17 -37 -17q-15 0 -26 11t-11 28q0 26 25 43zM901 854h84v-911q0 -118 -88 -213q-105 -111 -250 -111h-233q-56 0 -56 43q0 41 56 41h237q104 0 177 74t73 178
v264q-69 -102 -154.5 -150.5t-195.5 -48.5q-173 0 -297.5 127.5t-124.5 305.5t124 304t298 126q112 0 196.5 -48t153.5 -151v170zM557 799q-145 0 -244.5 -100.5t-99.5 -245.5q0 -146 100.5 -247.5t243.5 -101.5q142 0 243 101t101 244q0 149 -99 249.5t-245 100.5z" />
    <glyph glyph-name="Gdotaccent" unicode="&#x120;" 
d="M621 1475h45q43 0 43 -54v-116q0 -56 -43 -56h-45q-41 0 -41 56v116q0 54 41 54zM981 428h-285v84h369v-438q-185 -107 -383 -107q-252 0 -402.5 145t-150.5 388v151q0 109 45 216t121 180q142 133 346 133q45 0 92 -6t103 -24.5t101 -47t80.5 -78t47.5 -113.5
q0 -55 -41 -55q-38 0 -41 51q-6 78 -104 133.5t-234 55.5q-171 0 -285 -111q-67 -63 -107 -154t-40 -182v-149q0 -209 127 -329t348 -120q80 0 143.5 15t149.5 55v307z" />
    <glyph glyph-name="gdotaccent" unicode="&#x121;" 
d="M618 1176h46q43 0 43 -54v-116q0 -56 -43 -56h-46q-22 0 -31 13t-9 43v116q0 54 40 54zM901 854h84v-911q0 -118 -88 -213q-105 -111 -250 -111h-233q-56 0 -56 43q0 41 56 41h237q104 0 177 74t73 178v264q-69 -102 -154.5 -150.5t-195.5 -48.5q-173 0 -297.5 127.5
t-124.5 305.5t124 304t298 126q112 0 196.5 -48t153.5 -151v170zM557 799q-145 0 -244.5 -100.5t-99.5 -245.5q0 -146 100.5 -247.5t243.5 -101.5q142 0 243 101t101 244q0 149 -99 249.5t-245 100.5z" />
    <glyph glyph-name="Hcircumflex" unicode="&#x124;" 
d="M622 1616l271 -222q26 -20 26 -43q0 -17 -12 -28.5t-29 -11.5q-14 0 -36 16l-220 180l-219 -180q-22 -16 -37 -16q-17 0 -29 11.5t-12 28.5q0 22 27 41zM342 1153v-512h553v512h84v-1153h-84v557h-553v-557h-84v1153h84z" />
    <glyph glyph-name="hcircumflex" unicode="&#x125;" 
d="M606 1682l271 -222q26 -20 26 -43q0 -17 -12 -28.5t-29 -11.5q-14 0 -36 16l-220 180l-219 -180q-22 -16 -37 -16q-17 0 -29 11.5t-12 28.5q0 22 27 41zM338 1237v-526q78 94 149.5 133t165.5 39q142 0 234 -81t92 -206v-596h-84v590q0 92 -78 155q-36 30 -74.5 42
t-99.5 12q-86 0 -142.5 -33.5t-140.5 -132.5l-22 -27v-606h-84v1237h84z" />
    <glyph glyph-name="Hbar" unicode="&#x126;" 
d="M995 844h-762q-86 0 -86 45q0 39 86 39h762q86 0 86 -39q0 -45 -86 -45zM342 1153v-512h553v512h84v-1153h-84v557h-553v-557h-84v1153h84z" />
    <glyph glyph-name="hbar" unicode="&#x127;" 
d="M338 1237v-526q78 94 149.5 133t165.5 39q142 0 234 -81t92 -206v-596h-84v590q0 92 -78 155q-36 30 -74.5 42t-99.5 12q-86 0 -142.5 -33.5t-140.5 -132.5l-22 -27v-606h-84v1237h84zM643 961h-483q-56 0 -56 41t56 41h483q55 0 55 -41t-55 -41z" />
    <glyph glyph-name="Itilde" unicode="&#x128;" 
d="M889 1462q18 0 29.5 -12.5t11.5 -30.5q0 -20 -41 -61q-74 -74 -139 -74q-67 0 -168 66q-61 34 -86 34q-34 0 -55.5 -13.5t-67.5 -63.5q-17 -17 -33 -17q-19 0 -30 11t-11 28q0 19 37 62q45 41 80.5 57t75.5 16q29 0 55 -8.5t76 -36.5q58 -33 78.5 -42t39.5 -9
q27 0 49 15.5t66 62.5q21 16 33 16zM571 1153h84v-1153h-84v1153z" />
    <glyph glyph-name="itilde" unicode="&#x129;" 
d="M891 1235q16 0 28.5 -12t12.5 -29q0 -12 -9 -25t-36 -39q-73 -73 -142 -73q-34 0 -69 13.5t-96 49.5q-53 35 -88 35q-30 0 -52 -14t-67 -62q-13 -16 -35 -16q-17 0 -29 11t-12 28q0 22 39 61q44 41 79.5 58.5t73.5 17.5q31 0 57 -9t75 -38q62 -34 81.5 -42.5t38.5 -8.5
q26 0 48.5 15t68.5 63q16 16 33 16zM571 0v770h-241q-56 0 -56 43q0 41 56 41h325v-854h-84z" />
    <glyph glyph-name="Ibreve" unicode="&#x12c;" 
d="M360 1554q18 0 26.5 -9t14.5 -32q6 -59 66.5 -99t146.5 -40q83 0 145 40.5t68 98.5q6 41 41 41q41 0 41 -45q0 -93 -84.5 -156t-210.5 -63q-123 0 -209 63.5t-86 155.5q0 45 41 45zM571 1153h84v-1153h-84v1153z" />
    <glyph glyph-name="ibreve" unicode="&#x12d;" 
d="M360 1255q18 0 26.5 -9t14.5 -32q6 -59 66.5 -99t146.5 -40q83 0 145 40.5t68 98.5q6 41 41 41q41 0 41 -45q0 -93 -84.5 -156t-210.5 -63q-123 0 -209 63.5t-86 155.5q0 45 41 45zM571 0v770h-241q-56 0 -56 43q0 41 56 41h325v-854h-84z" />
    <glyph glyph-name="IJ" unicode="&#x132;" 
d="M1008 1153v-815q0 -79 -16 -144t-49.5 -117t-91 -81t-134.5 -29q-97 0 -159.5 43t-127.5 142l84 38q47 -84 88 -111.5t115 -27.5q61 0 103 22t64.5 63t32 89.5t9.5 112.5v815h82zM287 1153v-1153h-86v1153h86z" />
    <glyph glyph-name="ij" unicode="&#x133;" 
d="M881 770h-164q-53 0 -53 41q0 45 53 45h250v-913q0 -142 -89 -233t-227 -91h-266q-53 0 -53 43q0 41 53 41h266q99 0 164.5 68t65.5 172v827zM983 1278v-215h-123v215h123zM438 0v770h-114q-27 0 -42.5 11t-15.5 30q0 45 58 45h198v-856h-84zM545 1278v-215h-119v215h119
z" />
    <glyph glyph-name="Jcircumflex" unicode="&#x134;" 
d="M862 1616l271 -222q26 -20 26 -43q0 -17 -12 -28.5t-29 -11.5q-14 0 -36 16l-220 180l-219 -180q-22 -16 -37 -16q-17 0 -29 11.5t-12 28.5q0 22 27 41zM256 190q154 -139 303 -139q125 0 212 83.5t87 203.5v815h84v-815q0 -152 -113.5 -261.5t-271.5 -109.5
q-98 0 -186 42.5t-199 142.5z" />
    <glyph glyph-name="jcircumflex" unicode="&#x135;" 
d="M852 770h-496q-57 0 -57 41q0 45 57 45h580v-913q0 -143 -88.5 -233.5t-229.5 -90.5h-270q-23 0 -38 11.5t-15 31.5q0 41 53 41h266q102 0 170 68t68 172v827zM614 1309l271 -222q26 -20 26 -43q0 -17 -12 -28.5t-29 -11.5q-14 0 -36 16l-220 180l-219 -180
q-22 -16 -37 -16q-17 0 -29 11.5t-12 28.5q0 22 27 41z" />
    <glyph glyph-name="kgreenlandic" unicode="&#x138;" 
d="M391 0h-194q-54 0 -54 41q0 43 54 43h110v686h-110q-54 0 -54 41q0 45 54 45h194v-362l354 276h-45q-53 0 -53 41q0 45 53 45h267q57 0 57 -45q0 -41 -57 -41h-95l-417 -326l483 -360h90q57 0 57 -43q0 -41 -57 -41h-266q-57 0 -57 41q0 43 57 43h57l-428 305v-389z" />
    <glyph glyph-name="napostrophe" unicode="&#x149;" 
d="M342 854v-141q89 98 157 134t163 36q136 0 228.5 -80t92.5 -199v-604h-84v590q0 89 -78 155q-37 31 -72.5 42.5t-95.5 11.5q-112 0 -194 -68q-38 -28 -117 -129v-602h-84v854h84z" />
    <glyph glyph-name="Eng" unicode="&#x14a;" 
d="M211 0v1153h106l625 -1032v1032h84v-1153h-106l-625 1032v-1032h-84z" />
    <glyph glyph-name="eng" unicode="&#x14b;" 
d="M342 854v-141q89 98 157 134t163 36q136 0 228.5 -80t92.5 -199v-604h-84v590q0 89 -78 155q-37 31 -72.5 42.5t-95.5 11.5q-112 0 -194 -68q-38 -28 -117 -129v-602h-84v854h84z" />
    <glyph glyph-name="Obreve" unicode="&#x14e;" 
d="M360 1554q18 0 26.5 -9t14.5 -32q6 -59 66.5 -99t146.5 -40q83 0 145 40.5t68 98.5q6 41 41 41q41 0 41 -45q0 -93 -84.5 -156t-210.5 -63q-123 0 -209 63.5t-86 155.5q0 45 41 45zM614 1180q142 0 259 -80.5t184 -221.5t67 -313q0 -162 -68.5 -300t-186 -218t-255.5 -80
q-140 0 -257.5 80.5t-185 220t-67.5 305.5t67.5 306t185 220.5t257.5 80.5zM614 1096q-116 0 -214 -70.5t-155 -191t-57 -261.5t57.5 -261.5t155.5 -190.5t213 -70q114 0 212 70t156 189t58 257q0 221 -124 375t-302 154z" />
    <glyph glyph-name="obreve" unicode="&#x14f;" 
d="M1104 84h51q57 0 57 -41v-244q0 -55 -41 -55q-45 0 -45 55v201h-86q1 0 4 3t7 8l9 11t10 13l10 14l9.5 13.5t7.5 11.5t5 8zM1124 0h-84q-34 145 -70 243t-83.5 164t-99.5 105.5t-128 73.5v-586h-86v586q-104 -46 -168.5 -104.5t-119.5 -174.5t-97 -307h-84q17 119 47 216
t66.5 164t85 120t95.5 86t106 61l-463 506h102l430 -465v465h86v-465l424 465h105l-463 -506q59 -28 106 -61t96 -86t85 -119.5t66 -163.5t46 -217z" />
    <glyph glyph-name="Scircumflex" unicode="&#x15c;" 
d="M618 1616l271 -222q26 -20 26 -43q0 -17 -12 -28.5t-29 -11.5q-14 0 -36 16l-220 180l-219 -180q-22 -16 -37 -16q-17 0 -29 11.5t-12 28.5q0 22 27 41zM188 285q0 55 43 55q38 0 41 -49q4 -101 104 -170.5t240 -69.5q143 0 238.5 74.5t95.5 187.5q0 54 -24.5 100
t-67.5 72q-36 24 -81.5 37.5t-155.5 32.5q-109 19 -171.5 40t-107.5 54q-51 35 -78.5 91.5t-27.5 121.5q0 135 107.5 226.5t268.5 91.5q93 0 170 -30.5t121.5 -77t68 -95t23.5 -90.5q0 -56 -41 -56q-40 0 -43 50q-6 92 -89.5 153.5t-203.5 61.5q-126 0 -209 -67.5
t-83 -168.5q0 -100 80 -155q40 -27 88.5 -42t142.5 -30q120 -21 175.5 -37t100.5 -45q60 -37 93.5 -100.5t33.5 -141.5q0 -149 -119 -245.5t-303 -96.5q-111 0 -211.5 47t-159.5 120.5t-59 150.5z" />
    <glyph glyph-name="scircumflex" unicode="&#x15d;" 
d="M614 1298l271 -223q15 -14 19.5 -22t4.5 -23q0 -17 -11 -28t-30 -11q-14 0 -37 17l-217 180l-221 -180q-17 -17 -37 -17q-15 0 -26 11t-11 28q0 26 25 43zM885 788v11q0 57 45 57q15 0 26 -15.5t11 -41.5v-142q0 -28 -10.5 -43.5t-26.5 -15.5q-39 0 -45 49q-6 68 -82 110
t-193 42q-114 0 -190 -43.5t-76 -108.5q0 -59 66 -96q35 -21 72.5 -29t164.5 -20q174 -23 266 -80q49 -34 76 -82t27 -102q0 -118 -113.5 -194.5t-288.5 -76.5q-191 0 -317 111v-23q0 -55 -43 -55q-22 0 -31.5 13t-9.5 42v170q0 56 41 56q16 0 29.5 -13.5t13.5 -31.5v-15
q0 -72 91.5 -121t221.5 -49q132 0 222 54t90 133q0 37 -24.5 72.5t-66.5 56.5q-68 40 -217 59q-113 10 -168 23.5t-98 39.5q-94 64 -94 162q0 101 99 166.5t253 65.5q172 0 279 -95z" />
    <glyph glyph-name="Tbar" unicode="&#x166;" 
d="M859 692q59 0 59 -45q0 -39 -58 -39h-482q-54 0 -54 39q0 45 53 45h482zM147 1153h934v-84h-424v-1069h-84v1069h-426v84z" />
    <glyph glyph-name="tbar" unicode="&#x167;" 
d="M152 483q-64 0 -64 39q0 41 62 41h682q59 0 59 -41q0 -39 -57 -39h-682zM381 854h450q56 0 56 -41q0 -43 -56 -43h-450v-547q0 -78 62 -125t167 -47q86 0 183 23.5t157 58.5q19 12 33 12q15 0 27 -13t12 -28q0 -29 -65 -61.5t-161.5 -54t-181.5 -21.5q-145 0 -231 68.5
t-86 183.5v551h-152q-57 0 -57 43q0 41 57 41h152v244q0 55 43 55q22 0 31.5 -13t9.5 -42v-244z" />
    <glyph glyph-name="Utilde" unicode="&#x168;" 
d="M887 1462q18 0 29.5 -12.5t11.5 -30.5q0 -20 -41 -61q-74 -74 -139 -74q-67 0 -168 66q-61 34 -86 34q-34 0 -55.5 -13.5t-67.5 -63.5q-17 -17 -33 -17q-19 0 -30 11t-11 28q0 19 37 62q45 41 80 57t75 16q29 0 55.5 -8.5t76.5 -36.5q58 -33 78.5 -42t39.5 -9
q27 0 49 15.5t66 62.5q21 16 33 16zM1022 1153v-774q0 -174 -118 -293t-290 -119q-173 0 -290 118.5t-117 293.5v774h84v-774q0 -138 93.5 -233t229.5 -95q135 0 229.5 95t94.5 233v774h84z" />
    <glyph glyph-name="utilde" unicode="&#x169;" 
d="M871 1235q16 0 28.5 -12t12.5 -29q0 -12 -9 -25t-36 -39q-73 -73 -142 -73q-34 0 -69 13.5t-96 49.5q-53 35 -88 35q-30 0 -52 -14t-67 -62q-13 -16 -35 -16q-17 0 -29 11t-12 28q0 22 39 61q44 41 79.5 58.5t73.5 17.5q31 0 57 -9t75 -38q62 -34 81.5 -42.5t38.5 -8.5
q26 0 48.5 15t68.5 63q16 16 33 16zM983 854v-854h-84v135q-171 -168 -373 -168q-123 0 -197.5 73.5t-74.5 195.5v618h84v-618q0 -77 54 -131t132 -54q205 0 375 185v618h84z" />
    <glyph glyph-name="Ubreve" unicode="&#x16c;" 
d="M358 1554q18 0 26.5 -9t14.5 -32q6 -59 66.5 -99t146.5 -40q83 0 145 40.5t68 98.5q6 41 41 41q41 0 41 -45q0 -93 -84.5 -156t-210.5 -63q-123 0 -209 63.5t-86 155.5q0 45 41 45zM1022 1153v-774q0 -174 -118 -293t-290 -119q-173 0 -290 118.5t-117 293.5v774h84v-774
q0 -138 93.5 -233t229.5 -95q135 0 229.5 95t94.5 233v774h84z" />
    <glyph glyph-name="ubreve" unicode="&#x16d;" 
d="M344 1255q18 0 26.5 -9t14.5 -32q6 -59 66.5 -99t146.5 -40q83 0 145 40.5t68 98.5q6 41 41 41q41 0 41 -45q0 -93 -84.5 -156t-210.5 -63q-123 0 -209 63.5t-86 155.5q0 45 41 45zM983 854v-854h-84v135q-171 -168 -373 -168q-123 0 -197.5 73.5t-74.5 195.5v618h84
v-618q0 -77 54 -131t132 -54q205 0 375 185v618h84z" />
    <glyph glyph-name="Wcircumflex" unicode="&#x174;" 
d="M614 1616l271 -222q26 -20 26 -43q0 -17 -12 -28.5t-29 -11.5q-14 0 -36 16l-220 180l-219 -180q-22 -16 -37 -16q-17 0 -29 11.5t-12 28.5q0 22 27 41zM1112 1153l-137 -1153h-131l-230 819l-235 -819h-129l-133 1153h84l125 -1059l229 803h127l223 -803l127 1059h80z
" />
    <glyph glyph-name="wcircumflex" unicode="&#x175;" 
d="M614 1309l271 -222q26 -20 26 -43q0 -17 -12 -28.5t-29 -11.5q-14 0 -36 16l-220 180l-219 -180q-22 -16 -37 -16q-17 0 -29 11.5t-12 28.5q0 22 27 41zM1092 854l-189 -854h-102l-187 530l-182 -530h-104l-193 854h82l166 -739l176 522h105l182 -522l160 739h86z" />
    <glyph glyph-name="Ycircumflex" unicode="&#x176;" 
d="M616 1616l271 -222q26 -20 26 -43q0 -17 -12 -28.5t-29 -11.5q-14 0 -36 16l-220 180l-219 -180q-22 -16 -37 -16q-17 0 -29 11.5t-12 28.5q0 22 27 41zM152 1153h100l369 -549l360 549h94l-416 -633v-520h-84v520z" />
    <glyph glyph-name="ycircumflex" unicode="&#x177;" 
d="M614 1309l271 -222q26 -20 26 -43q0 -17 -12 -28.5t-29 -11.5q-14 0 -36 16l-220 180l-219 -180q-22 -16 -37 -16q-17 0 -29 11.5t-12 28.5q0 22 27 41zM1081 854l-606 -1235h-84l187 381l-426 854h96l377 -762l370 762h86z" />
    <glyph glyph-name="longs" unicode="&#x17f;" 
d="M504 84h373q53 0 53 -43q0 -18 -15.5 -29.5t-37.5 -11.5h-656q-25 0 -39 11t-14 30q0 43 53 43h205v686h-180q-27 0 -42.5 11t-15.5 30q0 45 58 45h180v123q0 111 87 184.5t224 73.5q59 0 148.5 -8.5t142.5 -18.5q33 -10 33 -39q0 -19 -13 -32t-32 -13l-103 15
q-106 12 -176 12q-102 0 -167.5 -49t-65.5 -125v-895z" />
    <glyph glyph-name="afii61352" unicode="&#x2116;" 
d="M821 1018v-1018h-104l-391 973v-838q0 -77 -41.5 -115t-112.5 -38q-53 0 -100 41.5t-47 111.5v45q0 58 45 58q41 0 41 -58v-35q0 -38 20.5 -60t44.5 -22q27 0 44.5 16.5t17.5 65.5v924h-107q-61 0 -61 41q0 43 61 43h213l393 -973l-4 844q0 77 43 117.5t113 40.5
q52 0 99.5 -43.5t47.5 -114.5v-49q0 -53 -45 -53q-41 0 -41 53v43q0 36 -20.5 57t-44.5 21q-64 0 -64 -78zM1171 283h-274q-33 0 -33 39q0 43 33 43h274q35 0 35 -43q0 -39 -35 -39zM1036 743q71 0 120.5 -50t49.5 -124q0 -67 -51 -116.5t-119 -49.5q-73 0 -122.5 49.5
t-49.5 120.5q0 70 49.5 120t122.5 50zM1036 680q-48 0 -80 -31.5t-32 -75.5q0 -46 31.5 -78t80.5 -32q43 0 75 32.5t32 77.5q0 43 -32 75t-75 32z" />
    <glyph glyph-name="infinity" unicode="&#x221e;" 
d="M614 702l111 109q65 74 172 74q114 0 188 -70.5t74 -177.5q0 -104 -74.5 -174t-187.5 -70q-105 0 -172 70l-111 112l-110 -112q-67 -70 -172 -70q-113 0 -187.5 70t-74.5 174q0 107 74 177.5t188 70.5q107 0 172 -74zM565 637l-106 111q-58 61 -127 61q-84 0 -130 -50.5
t-46 -121.5q0 -68 46 -117t130 -49q70 0 127 57zM659 637l111 -109q28 -28 56.5 -42.5t70.5 -14.5q84 0 130 49t46 117q0 71 -46 121.5t-130 50.5q-42 0 -70 -15.5t-57 -45.5z" />
    <glyph glyph-name="uni1EF6" unicode="&#x1ef6;" 
d="M838 1516q0 -51 -36 -86t-126 -70v-17q0 -43 -39 -43q-43 0 -43 43v74q87 28 126.5 51.5t39.5 47.5q0 29 -34.5 47t-86.5 18t-111 -20v-15q0 -24 -9 -34.5t-30 -10.5q-38 0 -38 45v72q115 45 192 45q88 0 141.5 -40.5t53.5 -106.5zM152 1153h100l369 -549l360 549h94
l-416 -633v-520h-84v520z" />
    <glyph glyph-name="uni1EF7" unicode="&#x1ef7;" 
d="M807 1233q0 -51 -36 -86t-126 -70v-16q0 -43 -39 -43q-43 0 -43 43v74q88 28 127 51t39 47q0 29 -34.5 47t-86.5 18q-51 0 -110 -20v-14q0 -24 -9 -34.5t-30 -10.5q-39 0 -39 45v71q115 45 192 45q88 0 141.5 -40.5t53.5 -106.5zM1081 854l-606 -1235h-84l187 381
l-426 854h96l377 -762l370 762h86z" />
    <glyph glyph-name="uni1EF4" unicode="&#x1ef4;" 
d="M624 -219q43 0 73 -30.5t30 -73.5q0 -40 -31 -70t-72 -30t-71.5 30.5t-30.5 71.5t30.5 71.5t71.5 30.5zM152 1153h100l369 -549l360 549h94l-416 -633v-520h-84v520z" />
    <glyph glyph-name="uni1EF5" unicode="&#x1ef5;" 
d="M919 -219q43 0 73 -30.5t30 -73.5q0 -40 -31 -70t-72 -30t-71.5 30.5t-30.5 71.5t30.5 71.5t71.5 30.5zM1081 854l-606 -1235h-84l187 381l-426 854h96l377 -762l370 762h86z" />
    <glyph glyph-name="uni1EA2" unicode="&#x1ea2;" 
d="M807 1516q0 -51 -36 -86t-126 -70v-17q0 -43 -39 -43q-43 0 -43 43v74q87 28 126.5 51.5t39.5 47.5q0 29 -34.5 47t-86.5 18q-51 0 -110 -20v-15q0 -24 -9 -34.5t-30 -10.5q-39 0 -39 45v72q115 45 192 45q88 0 141.5 -40.5t53.5 -106.5zM106 0l431 1153h139l434 -1153
h-88l-145 385h-545l-142 -385h-84zM846 469l-230 600h-30l-221 -600h481z" />
    <glyph glyph-name="uni1EA0" unicode="&#x1ea0;" 
d="M602 -219q43 0 73 -30.5t30 -73.5q0 -40 -31 -70t-72 -30t-71.5 30.5t-30.5 71.5t30.5 71.5t71.5 30.5zM106 0l431 1153h139l434 -1153h-88l-145 385h-545l-142 -385h-84zM846 469l-230 600h-30l-221 -600h481z" />
    <glyph glyph-name="uni1EA6" unicode="&#x1ea6;" 
d="M653 1946l234 -205l14 -17q10 -10 10 -22q0 -19 -12 -31t-31 -12q-16 0 -37 18l-233 205q-25 22 -25 41q0 17 12 29t29 12q15 0 39 -18zM622 1616l271 -222q17 -13 21.5 -21.5t4.5 -21.5q0 -17 -11.5 -28.5t-29.5 -11.5q-13 0 -36 16l-220 180l-219 -180q-22 -16 -37 -16
q-17 0 -29 11.5t-12 28.5q0 22 27 41zM106 0l431 1153h139l434 -1153h-88l-145 385h-545l-142 -385h-84zM846 469l-230 600h-30l-221 -600h481z" />
    <glyph glyph-name="uni1EA4" unicode="&#x1ea4;" 
d="M631 1882l-234 -205q-23 -18 -39 -18q-17 0 -29 12t-12 31q0 16 25 39l233 205q23 18 39 18q17 0 29 -12t12 -31q0 -18 -24 -39zM622 1616l271 -222q17 -13 21.5 -21.5t4.5 -21.5q0 -17 -11.5 -28.5t-29.5 -11.5q-13 0 -36 16l-220 180l-219 -180q-22 -16 -37 -16
q-17 0 -29 11.5t-12 28.5q0 22 27 41zM106 0l431 1153h139l434 -1153h-88l-145 385h-545l-142 -385h-84zM846 469l-230 600h-30l-221 -600h481z" />
    <glyph glyph-name="uni1EAA" unicode="&#x1eaa;" 
d="M622 1616l271 -222q26 -20 26 -43q0 -17 -12 -28.5t-29 -11.5q-14 0 -36 16l-220 180l-219 -180q-22 -16 -37 -16q-17 0 -29 11.5t-12 28.5q0 22 27 41zM973 1878q16 0 28.5 -12t12.5 -29q0 -12 -9 -25t-36 -39q-73 -73 -142 -73q-34 0 -69 13.5t-96 49.5q-53 35 -88 35
q-30 0 -52 -14t-67 -62q-13 -16 -35 -16q-17 0 -29 11t-12 28q0 22 39 61q44 41 79.5 58.5t73.5 17.5q31 0 57 -9t75 -38q62 -34 81.5 -42.5t38.5 -8.5q26 0 48.5 15t68.5 63q16 16 33 16zM106 0l431 1153h139l434 -1153h-88l-145 385h-545l-142 -385h-84zM846 469l-230 600
h-30l-221 -600h481z" />
    <glyph glyph-name="uni1EA8" unicode="&#x1ea8;" 
d="M1106 1745q0 -51 -36 -86t-126 -70v-16q0 -43 -39 -43q-43 0 -43 43v74q88 28 127 51t39 47q0 29 -34.5 47t-86.5 18q-51 0 -110 -20v-14q0 -24 -9 -34.5t-30 -10.5q-39 0 -39 45v71q115 45 192 45q88 0 141.5 -40.5t53.5 -106.5zM622 1616l271 -222q17 -13 21.5 -21.5
t4.5 -21.5q0 -17 -11.5 -28.5t-29.5 -11.5q-13 0 -36 16l-220 180l-219 -180q-22 -16 -37 -16q-17 0 -29 11.5t-12 28.5q0 22 27 41zM106 0l431 1153h139l434 -1153h-88l-145 385h-545l-142 -385h-84zM846 469l-230 600h-30l-221 -600h481z" />
    <glyph glyph-name="uni1EAC" unicode="&#x1eac;" 
d="M602 -219q43 0 73 -30.5t30 -73.5q0 -40 -31 -70t-72 -30t-71.5 30.5t-30.5 71.5t30.5 71.5t71.5 30.5zM622 1616l271 -222q26 -20 26 -43q0 -17 -12 -28.5t-29 -11.5q-14 0 -36 16l-220 180l-219 -180q-22 -16 -37 -16q-17 0 -29 11.5t-12 28.5q0 22 27 41zM106 0
l431 1153h139l434 -1153h-88l-145 385h-545l-142 -385h-84zM846 469l-230 600h-30l-221 -600h481z" />
    <glyph glyph-name="uni1EB0" unicode="&#x1eb0;" 
d="M479 1925l234 -205l14 -16q10 -10 10 -23q0 -19 -12 -31t-31 -12q-15 0 -37 19l-233 205q-25 22 -25 41q0 17 12 29t29 12q14 0 39 -19zM331 1555q19 0 28.5 -11t12.5 -34q5 -59 66 -98.5t147 -39.5t146.5 39.5t66.5 98.5q3 23 13 34t30 11q18 0 29.5 -13t11.5 -34
q0 -93 -85.5 -156t-211 -63t-211.5 63t-86 156q0 22 11.5 34.5t31.5 12.5zM106 0l431 1153h139l434 -1153h-88l-145 385h-545l-142 -385h-84zM846 469l-230 600h-30l-221 -600h481z" />
    <glyph glyph-name="uni1EAE" unicode="&#x1eae;" 
d="M756 1862l-234 -205q-24 -19 -39 -19q-17 0 -29 12t-12 31q0 17 25 39l233 205q24 19 39 19q17 0 29 -12t12 -31q0 -18 -24 -39zM331 1555q19 0 28.5 -11t12.5 -34q5 -59 66 -98.5t147 -39.5t146.5 39.5t66.5 98.5q3 23 13 34t30 11q18 0 29.5 -13t11.5 -34
q0 -93 -85.5 -156t-211 -63t-211.5 63t-86 156q0 22 11.5 34.5t31.5 12.5zM106 0l431 1153h139l434 -1153h-88l-145 385h-545l-142 -385h-84zM846 469l-230 600h-30l-221 -600h481z" />
    <glyph glyph-name="uni1EB4" unicode="&#x1eb4;" 
d="M331 1555q35 0 41 -45q5 -59 66 -98.5t147 -39.5t146.5 39.5t66.5 98.5q6 45 43 45q18 0 29.5 -13t11.5 -34q0 -92 -85.5 -155.5t-211.5 -63.5t-211.5 63.5t-85.5 155.5q0 22 11.5 34.5t31.5 12.5zM866 1878q16 0 28.5 -12t12.5 -29q0 -12 -9 -25t-36 -39
q-73 -73 -142 -73q-34 0 -69 13.5t-96 49.5q-53 35 -88 35q-30 0 -52 -14t-67 -62q-13 -16 -35 -16q-17 0 -29 11t-12 28q0 22 39 61q44 41 79.5 58.5t73.5 17.5q31 0 57 -9t75 -38q62 -34 81.5 -42.5t38.5 -8.5q26 0 48.5 15t68.5 63q16 16 33 16zM106 0l431 1153h139
l434 -1153h-88l-145 385h-545l-142 -385h-84zM846 469l-230 600h-30l-221 -600h481z" />
    <glyph glyph-name="uni1EB2" unicode="&#x1eb2;" 
d="M782 1792q0 -51 -35.5 -86t-125.5 -70v-16q0 -43 -39 -43q-43 0 -43 43v74q88 28 127 51t39 47q0 29 -34.5 47.5t-86.5 18.5q-50 0 -111 -21v-14q0 -24 -9 -34.5t-30 -10.5q-39 0 -39 45v71q115 45 193 45q88 0 141 -40.5t53 -106.5zM331 1555q19 0 28.5 -11t12.5 -34
q5 -59 66 -98.5t147 -39.5t146.5 39.5t66.5 98.5q3 23 13 34t30 11q18 0 29.5 -13t11.5 -34q0 -93 -85.5 -156t-211 -63t-211.5 63t-86 156q0 22 11.5 34.5t31.5 12.5zM106 0l431 1153h139l434 -1153h-88l-145 385h-545l-142 -385h-84zM846 469l-230 600h-30l-221 -600h481z
" />
    <glyph glyph-name="uni1EB6" unicode="&#x1eb6;" 
d="M331 1555q35 0 41 -45q5 -59 66 -98.5t147 -39.5t146.5 39.5t66.5 98.5q6 45 43 45q18 0 29.5 -13t11.5 -34q0 -92 -85.5 -155.5t-211.5 -63.5t-211.5 63.5t-85.5 155.5q0 22 11.5 34.5t31.5 12.5zM602 -219q43 0 73 -30.5t30 -73.5q0 -40 -31 -70t-72 -30t-71.5 30.5
t-30.5 71.5t30.5 71.5t71.5 30.5zM106 0l431 1153h139l434 -1153h-88l-145 385h-545l-142 -385h-84zM846 469l-230 600h-30l-221 -600h481z" />
    <glyph glyph-name="uni1EBC" unicode="&#x1ebc;" 
d="M891 1542q16 0 28.5 -12t12.5 -29q0 -12 -9 -25t-36 -39q-73 -73 -142 -73q-34 0 -69 13.5t-96 49.5q-53 35 -88 35q-30 0 -52 -14t-67 -62q-13 -16 -35 -16q-17 0 -29 11t-12 28q0 22 39 61q44 41 79.5 58.5t73.5 17.5q31 0 57 -9t75 -38q62 -34 81.5 -42.5t38.5 -8.5
q26 0 48.5 15t68.5 63q16 16 33 16zM1022 1069h-684v-428h381v-84h-381v-473h727v-84h-811v1153h768v-84z" />
    <glyph glyph-name="uni1EBA" unicode="&#x1eba;" 
d="M807 1516q0 -51 -36 -86t-126 -70v-17q0 -43 -39 -43q-43 0 -43 43v74q87 28 126.5 51.5t39.5 47.5q0 29 -34.5 47t-86.5 18q-51 0 -110 -20v-15q0 -24 -9 -34.5t-30 -10.5q-39 0 -39 45v72q115 45 192 45q88 0 141.5 -40.5t53.5 -106.5zM1022 1069h-684v-428h381v-84
h-381v-473h727v-84h-811v1153h768v-84z" />
    <glyph glyph-name="uni1EB8" unicode="&#x1eb8;" 
d="M614 -219q43 0 73 -30.5t30 -73.5q0 -40 -31 -70t-72 -30t-71.5 30.5t-30.5 71.5t30.5 71.5t71.5 30.5zM1022 1069h-684v-428h381v-84h-381v-473h727v-84h-811v1153h768v-84z" />
    <glyph glyph-name="uni1EC0" unicode="&#x1ec0;" 
d="M653 1946l234 -205l14 -17q10 -10 10 -22q0 -19 -12 -31t-31 -12q-16 0 -37 18l-233 205q-25 22 -25 41q0 17 12 29t29 12q15 0 39 -18zM622 1616l271 -222q17 -13 21.5 -21.5t4.5 -21.5q0 -17 -11.5 -28.5t-29.5 -11.5q-13 0 -36 16l-220 180l-219 -180q-22 -16 -37 -16
q-17 0 -29 11.5t-12 28.5q0 22 27 41zM1022 1069h-684v-428h381v-84h-381v-473h727v-84h-811v1153h768v-84z" />
    <glyph glyph-name="uni1EBE" unicode="&#x1ebe;" 
d="M631 1882l-234 -205q-23 -18 -39 -18q-17 0 -29 12t-12 31q0 16 25 39l233 205q23 18 39 18q17 0 29 -12t12 -31q0 -18 -24 -39zM622 1616l271 -222q17 -13 21.5 -21.5t4.5 -21.5q0 -17 -11.5 -28.5t-29.5 -11.5q-13 0 -36 16l-220 180l-219 -180q-22 -16 -37 -16
q-17 0 -29 11.5t-12 28.5q0 22 27 41zM1022 1069h-684v-428h381v-84h-381v-473h727v-84h-811v1153h768v-84z" />
    <glyph glyph-name="uni1EC4" unicode="&#x1ec4;" 
d="M622 1616l271 -222q26 -20 26 -43q0 -17 -12 -28.5t-29 -11.5q-14 0 -36 16l-220 180l-219 -180q-22 -16 -37 -16q-17 0 -29 11.5t-12 28.5q0 22 27 41zM973 1878q16 0 28.5 -12t12.5 -29q0 -12 -9 -25t-36 -39q-73 -73 -142 -73q-34 0 -69 13.5t-96 49.5q-53 35 -88 35
q-30 0 -52 -14t-67 -62q-13 -16 -35 -16q-17 0 -29 11t-12 28q0 22 39 61q44 41 79.5 58.5t73.5 17.5q31 0 57 -9t75 -38q62 -34 81.5 -42.5t38.5 -8.5q26 0 48.5 15t68.5 63q16 16 33 16zM1022 1069h-684v-428h381v-84h-381v-473h727v-84h-811v1153h768v-84z" />
    <glyph glyph-name="uni1EC2" unicode="&#x1ec2;" 
d="M1106 1745q0 -51 -36 -86t-126 -70v-16q0 -43 -39 -43q-43 0 -43 43v74q88 28 127 51t39 47q0 29 -34.5 47t-86.5 18q-51 0 -110 -20v-14q0 -24 -9 -34.5t-30 -10.5q-39 0 -39 45v71q115 45 192 45q88 0 141.5 -40.5t53.5 -106.5zM622 1616l271 -222q17 -13 21.5 -21.5
t4.5 -21.5q0 -17 -11.5 -28.5t-29.5 -11.5q-13 0 -36 16l-220 180l-219 -180q-22 -16 -37 -16q-17 0 -29 11.5t-12 28.5q0 22 27 41zM1022 1069h-684v-428h381v-84h-381v-473h727v-84h-811v1153h768v-84z" />
    <glyph glyph-name="uni1EC6" unicode="&#x1ec6;" 
d="M614 -219q43 0 73 -30.5t30 -73.5q0 -40 -31 -70t-72 -30t-71.5 30.5t-30.5 71.5t30.5 71.5t71.5 30.5zM622 1616l271 -222q26 -20 26 -43q0 -17 -12 -28.5t-29 -11.5q-14 0 -36 16l-220 180l-219 -180q-22 -16 -37 -16q-17 0 -29 11.5t-12 28.5q0 22 27 41zM1022 1069
h-684v-428h381v-84h-381v-473h727v-84h-811v1153h768v-84z" />
    <glyph glyph-name="uni1EC8" unicode="&#x1ec8;" 
d="M807 1516q0 -51 -36 -86t-126 -70v-17q0 -43 -39 -43q-43 0 -43 43v74q87 28 126.5 51.5t39.5 47.5q0 29 -34.5 47t-86.5 18q-51 0 -110 -20v-15q0 -24 -9 -34.5t-30 -10.5q-39 0 -39 45v72q115 45 192 45q88 0 141.5 -40.5t53.5 -106.5zM571 1153h84v-1153h-84v1153z
" />
    <glyph glyph-name="uni1EA3" unicode="&#x1ea3;" 
d="M807 1233q0 -51 -36 -86t-126 -70v-16q0 -43 -39 -43q-43 0 -43 43v74q88 28 127 51t39 47q0 29 -34.5 47t-86.5 18q-51 0 -110 -20v-14q0 -24 -9 -34.5t-30 -10.5q-39 0 -39 45v71q115 45 192 45q88 0 141.5 -40.5t53.5 -106.5zM858 0v137q-182 -170 -391 -170
q-143 0 -231.5 72.5t-88.5 189.5q0 133 120.5 216t312.5 83q70 0 128.5 -9t149.5 -34v146q0 75 -70 121.5t-182 46.5q-55 0 -112 -12.5t-179 -49.5q-16 -4 -20 -4q-15 0 -27 12t-12 29q0 31 35 43q85 29 174.5 47.5t146.5 18.5q142 0 236 -71.5t94 -180.5v-631h-84zM858 229
v185q-123 30 -262 30q-163 0 -264 -60t-101 -157q0 -80 64 -128t170 -48q109 0 200 41t193 137z" />
    <glyph glyph-name="uni1EA1" unicode="&#x1ea1;" 
d="M614 -219q43 0 73 -30.5t30 -73.5q0 -40 -31 -70t-72 -30t-71.5 30.5t-30.5 71.5t30.5 71.5t71.5 30.5zM858 0v137q-182 -170 -391 -170q-143 0 -231.5 72.5t-88.5 189.5q0 133 120.5 216t312.5 83q70 0 128.5 -9t149.5 -34v146q0 75 -70 121.5t-182 46.5
q-55 0 -112 -12.5t-179 -49.5q-16 -4 -20 -4q-15 0 -27 12t-12 29q0 31 35 43q85 29 174.5 47.5t146.5 18.5q142 0 236 -71.5t94 -180.5v-631h-84zM858 229v185q-123 30 -262 30q-163 0 -264 -60t-101 -157q0 -80 64 -128t170 -48q109 0 200 41t193 137z" />
    <glyph glyph-name="uni1EA7" unicode="&#x1ea7;" 
d="M614 1323l271 -221q26 -20 26 -43q0 -17 -12 -29t-29 -12q-14 0 -36 16l-220 180l-219 -180q-22 -16 -37 -16q-17 0 -29 12t-12 29q0 22 27 41zM653 1663l234 -205l14 -16q10 -10 10 -23q0 -19 -12 -31t-31 -12q-15 0 -37 19l-233 204q-25 22 -25 41q0 17 12 29t29 12
q15 0 39 -18zM858 0v137q-182 -170 -391 -170q-143 0 -231.5 72.5t-88.5 189.5q0 133 120.5 216t312.5 83q70 0 128.5 -9t149.5 -34v146q0 75 -70 121.5t-182 46.5q-55 0 -112 -12.5t-179 -49.5q-16 -4 -20 -4q-15 0 -27 12t-12 29q0 31 35 43q85 29 174.5 47.5t146.5 18.5
q142 0 236 -71.5t94 -180.5v-631h-84zM858 229v185q-123 30 -262 30q-163 0 -264 -60t-101 -157q0 -80 64 -128t170 -48q109 0 200 41t193 137z" />
    <glyph glyph-name="uni1EA5" unicode="&#x1ea5;" 
d="M614 1323l271 -221q26 -20 26 -43q0 -17 -12 -29t-29 -12q-14 0 -36 16l-220 180l-219 -180q-22 -16 -37 -16q-17 0 -29 12t-12 29q0 22 27 41zM631 1599l-234 -204q-24 -19 -39 -19q-17 0 -29 12t-12 31q0 17 25 39l233 205q23 18 39 18q17 0 29 -12t12 -31
q0 -18 -24 -39zM858 0v137q-182 -170 -391 -170q-143 0 -231.5 72.5t-88.5 189.5q0 133 120.5 216t312.5 83q70 0 128.5 -9t149.5 -34v146q0 75 -70 121.5t-182 46.5q-55 0 -112 -12.5t-179 -49.5q-16 -4 -20 -4q-15 0 -27 12t-12 29q0 31 35 43q85 29 174.5 47.5
t146.5 18.5q142 0 236 -71.5t94 -180.5v-631h-84zM858 229v185q-123 30 -262 30q-163 0 -264 -60t-101 -157q0 -80 64 -128t170 -48q109 0 200 41t193 137z" />
    </font>
</defs>
</svg>
